<svg xmlns="http://www.w3.org/2000/svg">
<defs>
<font id="GTAlpina-LightItalic" horiz-adv-x="1392" >
  <font-face 
    font-family="GT Alpina Light"
    font-weight="300"
    font-style="italic"
    font-stretch="normal"
    units-per-em="2048"
    panose-1="0 0 4 0 0 0 0 0 0 0"
    ascent="1638"
    descent="-410"
    x-height="995"
    cap-height="1393"
    bbox="-729 -496 3111 1833"
    underline-thickness="102"
    underline-position="-409"
    slope="-16"
    unicode-range="U+000D-1F91E"
  />
<missing-glyph horiz-adv-x="1742" 
d="M1550 891q226 0 164 -219l-125 -434q-71 65 -180 65q-61 0 -145 -20q-92 -21 -131 -21q-82 0 -82 72q0 18 2 22l57 183q-6 2 -35 2q-74 0 -198 -37t-172 -37q-91 0 -91 74q0 24 9 39l49 159h-13q-169 0 -401 -80l-188 -659h-74l373 1298q-33 20 -33 64q0 46 38 65t75.5 0
t37.5 -65q0 -51 -47 -72l-10 -30q166 69 326 69q274 0 207 -227q90 35 202 35q301 0 224 -256l-5 -15q98 25 166 25zM651 795q107 0 156 -27l98 344q26 90 -11 126t-140 36q-159 0 -342 -80l-138 -475q224 76 377 76zM774 1126l-133 -157l-14 -56q-8 -20 -1.5 -31t31.5 -12
l-8 -24h-149l8 24q46 9 55 43l12 50l-40 163q-6 26 -19 29q-4 2 -16 2l6 25h137l-6 -25q-46 -3 -37 -37l29 -119l96 119q27 34 -16 37l6 25h121l-7 -25q-33 -3 -55 -31zM721 522q29 0 153 37q121 37 218 37q99 0 149 -29l96 336q28 96 -15.5 137t-152.5 41q-118 0 -225 -43
l-102 -346q-3 -30 -31 -52t-60 -32t-57 -24.5t-22 -32.5q0 -29 49 -29zM1253 868q0 -86 -52 -151.5t-136 -65.5q-65 0 -105 35.5t-40 101.5q0 87 52 152.5t136 65.5q65 0 105 -36t40 -102zM1065 688q54 0 86.5 56.5t32.5 127.5q0 97 -76 97q-54 0 -87.5 -57t-33.5 -128
q0 -96 78 -96zM1559 328l104 364q41 144 -129 144q-72 0 -166 -27l-92 -317q-4 -37 -27 -57.5t-64.5 -35t-51.5 -20.5q-18 -10 -24.5 -24.5t3.5 -26t37 -11.5q29 0 117 21q81 20 141 20q97 0 152 -30zM1497 774q88 0 88 -67q0 -34 -24 -59.5t-82 -59.5l-35 -21h86l-12 -45

<glyph glyph-name="f_f" unicode="ff" horiz-adv-x="1243" 
d="M1413 1475q106 0 164.5 -42t58.5 -110q0 -58 -30.5 -94.5t-83.5 -36.5q-73 0 -88 78q0 1 -4.5 31t-10.5 60t-10 42q-109 0 -174 -103q-68 -107 -137 -366h221l-25 -86h-219l-180 -678q-89 -326 -190 -469q-104 -143 -283 -143q-88 0 -141.5 48.5t-53.5 119.5
q0 47 27 75.5t70 28.5q36 5 58 -20.5t28.5 -59.5t15.5 -72t20 -51q86 0 147.5 110t131.5 380l199 731h-432l-193 -721q-76 -294 -182.5 -431.5t-280.5 -137.5q-93 0 -153 48.5t-60 121.5q0 51 29 82.5t76 31.5q40 0 64.5 -23.5t29.5 -58.5q21 -107 41 -129q86 0 146.5 109
t131.5 377l197 731h-215l24 86h215q146 487 515 487q179 0 243 -98q122 152 293 152zM514 934h434q35 128 74 219q-28 2 -43 27t-17 55t-6 64t-12 47q-40 12 -74 12q-125 0 -210 -101t-146 -323z" />
    <glyph glyph-name="f_f_i" unicode="ffi" horiz-adv-x="1748" 
d="M1466 1405q-127 0 -213.5 -112.5t-152.5 -358.5h309q70 61 141 61q109 0 109 -116q0 -62 -43 -166l-207 -477q-53 -117 14 -117q63 0 164 174l55 -17q-131 -294 -290 -294q-119 0 -119 116q0 75 45 166l207 477q46 107 -21 107h-387l-182 -678q-89 -326 -190 -469
t-281 -143q-88 0 -141.5 49t-53.5 119q0 45 27.5 74.5t69.5 29.5q36 5 58 -20.5t29 -59.5t16 -72t20 -51q86 0 146.5 110t131.5 380l197 731h-432l-193 -721q-76 -294 -182.5 -431.5t-280.5 -137.5q-93 0 -153 48.5t-60 121.5q0 51 29 82.5t76 31.5q40 0 64.5 -23.5
t29.5 -58.5q21 -107 41 -129q86 0 146.5 109t131.5 377l197 731h-215l24 86h215q146 487 515 487q194 0 249 -110q138 164 347 164q126 0 206 -51.5t80 -135.5q0 -52 -26.5 -82t-75.5 -30q-73 0 -94 77q-4 18 -8 72t-7 66q-41 14 -82 14zM514 934h434q28 106 78 219
q-30 1 -45.5 25.5t-18 55t-6.5 65t-12 47.5q-40 12 -74 12q-125 0 -210 -101t-146 -323z" />
    <glyph glyph-name="f_f_l" unicode="ffl" horiz-adv-x="1757" 
d="M1413 119q89 0 227 237l56 -16q-92 -192 -171.5 -275t-170.5 -83q-57 0 -89 30.5t-32 87.5q0 59 43 189l307 907q0 2 2 4q-6 -2 -22 -2q-40 -4 -64.5 23.5t-32 63t-15 73t-15.5 45.5q-120 0 -191 -103q-75 -107 -145 -366h219l-25 -86h-219l-180 -678q-86 -325 -188 -469
q-104 -143 -281 -143q-88 0 -141.5 48.5t-53.5 119.5q0 45 26.5 74.5t68.5 29.5q36 5 58.5 -20.5t30 -59t16 -72t18.5 -51.5q90 0 149 111q60 116 129 379l197 731h-432l-193 -721q-76 -294 -182.5 -431.5t-280.5 -137.5q-93 0 -153 48.5t-60 121.5q0 51 29 82.5t76 31.5
q40 0 64.5 -23.5t29.5 -58.5q21 -107 41 -129q86 0 146.5 109t131.5 377l197 731h-215l24 86h215q146 487 515 487q187 0 245 -104q128 158 308 158q104 0 174 -48l161 27h43l-395 -1173q-33 -95 -33 -123q0 -39 33 -39zM514 934h432q28 106 78 219q-52 9 -61 94
q-9 86 -19 99q-40 12 -74 12q-125 0 -210 -101t-146 -323z" />
    <glyph glyph-name="f_i" unicode="fi" horiz-adv-x="1165" 
d="M883 1405q-126 0 -214 -113.5t-155 -357.5h311q70 61 142 61q49 0 78.5 -29t29.5 -87q0 -67 -45 -166l-207 -477q-49 -117 15 -117q62 0 163 174l58 -17q-131 -294 -291 -294q-119 0 -119 116q0 68 43 166l209 477q46 107 -20 107h-389l-181 -678q-27 -96 -37 -131.5
t-31.5 -96t-47.5 -116.5q-42 -91 -86 -141q-48 -57 -117.5 -92t-147.5 -35q-98 0 -159.5 48.5t-61.5 121.5q0 51 30 82.5t79 31.5q26 0 44.5 -9.5t29.5 -29t17 -41t11 -53.5q8 -54 29 -78q86 0 146.5 109t131.5 377l199 731h-217l24 86h218q144 541 524 541
q126 0 206.5 -51.5t80.5 -135.5q0 -52 -27 -82t-76 -30q-73 0 -94 77q-4 18 -8.5 72t-7.5 66q-38 14 -80 14z" />
    <glyph glyph-name="f_l" unicode="fl" horiz-adv-x="1173" 
d="M829 119q90 0 228 237l55 -16q-92 -192 -171.5 -275t-170.5 -83q-57 0 -89 30.5t-32 87.5q0 59 43 189l307 907q0 2 2 4q-6 -2 -22 -2q-40 -4 -64.5 23.5t-32 63t-15 73t-15.5 45.5q-119 0 -190 -103q-77 -110 -146 -366h219l-24 -86h-219l-181 -678q-86 -324 -190 -467
q-106 -145 -285 -145q-93 0 -153 48.5t-60 121.5q0 51 29 82.5t76 31.5q40 0 64.5 -23.5t29.5 -58.5q21 -107 41 -129q86 0 146 108t134 378l197 731h-217l24 86h215q150 541 484 541q104 0 174 -48l162 27h43l-396 -1173q-32 -92 -32 -123q0 -39 32 -39z" />
    <glyph glyph-name="f_b.liga" unicode="fb" horiz-adv-x="1583" 
d="M1364 995q195 0 195 -231q0 -177 -101 -363q-100 -184 -260 -307q-159 -123 -311 -123q-89 0 -158 34.5t-106 90.5l372 1100v4q-2 -2 -16 -2q-40 -4 -64.5 23.5t-32 63t-15 73t-15.5 45.5q-119 0 -190 -103q-77 -110 -146 -366h219l-24 -86h-219l-181 -678
q-86 -324 -190 -467q-106 -145 -285 -145q-93 0 -153 48.5t-60 121.5q0 51 29 82.5t76 31.5q40 0 64.5 -23.5t29.5 -58.5q21 -107 41 -129q86 0 146 108t134 378l197 731h-217l24 86h215q150 541 484 541q105 0 172 -48l160 27h43l-183 -543q-63 -188 -225 -514h29
q173 329 282 461q113 137 240 137zM903 47q119 0 240 121q119 120 190 283q72 162 72 284q0 123 -88 123q-82 0 -203 -139q-124 -145 -213 -305q-90 -164 -137 -291q52 -76 139 -76z" />
    <glyph glyph-name="f_f_b.liga" unicode="ffb" horiz-adv-x="2166" 
d="M1948 995q194 0 194 -231q0 -179 -100 -363t-260 -307q-159 -123 -312 -123q-89 0 -158 34.5t-106 90.5l373 1100v4q-2 -2 -16 -2q-40 -4 -64.5 23.5t-32 63t-15 73t-15.5 45.5q-120 0 -191 -103q-75 -107 -145 -366h219l-25 -86h-219l-180 -678q-86 -325 -188 -469
q-104 -143 -281 -143q-88 0 -141.5 48.5t-53.5 119.5q0 45 26.5 74.5t68.5 29.5q36 5 58.5 -20.5t30 -59t16 -72t18.5 -51.5q90 0 149 111q60 116 129 379l197 731h-432l-193 -721q-76 -294 -182.5 -431.5t-280.5 -137.5q-93 0 -153 48.5t-60 121.5q0 51 29 82.5t76 31.5
q40 0 64.5 -23.5t29.5 -58.5q21 -107 41 -129q86 0 146.5 109t131.5 377l197 731h-215l24 86h215q146 487 515 487q187 0 245 -104q128 158 308 158q105 0 172 -48l159 27h43l-182 -543q-63 -188 -225 -514h28q171 326 283 461q113 137 240 137zM514 934h432q28 106 78 219
q-52 9 -61 94q-9 86 -19 99q-40 12 -74 12q-125 0 -210 -101t-146 -323zM1487 47q118 0 239 121t191 283q72 162 72 284q0 123 -88 123q-82 0 -203 -139q-124 -145 -213 -305q-90 -164 -137 -291q52 -76 139 -76z" />
    <glyph glyph-name="f_f_h.liga" unicode="ffh" horiz-adv-x="2220" 
d="M1954 995q227 0 227 -266q0 -140 -65 -317q-63 -172 -187 -308q-124 -133 -258 -133q-73 0 -117.5 38.5t-44.5 103.5q0 61 31 99t84 38q55 0 73.5 -43.5t4.5 -97.5q-13 -52 8 -78q119 40 221 252q103 214 103 385q0 190 -119 190q-128 0 -293 -229q-166 -230 -311 -629
h-135l405 1196q0 2 2 4q-4 -2 -20 -2q-40 -4 -64.5 23.5t-32 63t-15 73t-15.5 45.5q-120 0 -191 -103q-75 -107 -145 -366h219l-25 -86h-219l-180 -678q-86 -325 -188 -469q-104 -143 -281 -143q-88 0 -141.5 48.5t-53.5 119.5q0 45 26.5 74.5t68.5 29.5q36 5 58.5 -20.5
t30 -59t16 -72t18.5 -51.5q90 0 149 111q60 116 129 379l197 731h-432l-193 -721q-76 -294 -182.5 -431.5t-280.5 -137.5q-93 0 -153 48.5t-60 121.5q0 51 29 82.5t76 31.5q40 0 64.5 -23.5t29.5 -58.5q21 -107 41 -129q86 0 146.5 109t131.5 377l197 731h-215l24 86h215
q146 487 515 487q187 0 245 -104q128 158 308 158q107 0 174 -48l157 27h45l-184 -545q-69 -208 -219 -512h29q163 322 278 461q113 137 244 137zM514 934h432q28 106 78 219q-52 9 -61 94q-9 86 -19 99q-40 12 -74 12q-125 0 -210 -101t-146 -323z" />
    <glyph glyph-name="f_f_j.liga" unicode="ffj" horiz-adv-x="1728" 
d="M1466 1405q-128 0 -215 -114.5t-151 -356.5h346q64 61 139 61q113 0 113 -114q0 -54 -27 -131l-244 -711q-87 -253 -180 -367t-209 -114q-85 0 -136.5 47.5t-51.5 120.5q0 54 27.5 85t74.5 31q46 0 68.5 -35.5t30.5 -99.5q6 -58 20 -78q40 3 80 76q37 67 113 289l239 694
q29 85 29 117q0 43 -49 43h-406l-182 -678q-89 -326 -190 -469t-281 -143q-88 0 -141.5 49t-53.5 119q0 45 27.5 74.5t69.5 29.5q36 5 58 -20.5t29 -59.5t16 -72t20 -51q86 0 146.5 110t131.5 380l197 731h-432l-193 -721q-76 -294 -182.5 -431.5t-280.5 -137.5
q-93 0 -153 48.5t-60 121.5q0 51 29 82.5t76 31.5q40 0 64.5 -23.5t29.5 -58.5q21 -107 41 -129q86 0 146.5 109t131.5 377l197 731h-215l24 86h215q146 487 515 487q193 0 249 -108q134 162 347 162q128 0 207 -51t79 -128q0 -55 -28 -86.5t-78 -31.5q-74 0 -92 77
q-6 18 -10.5 73t-6.5 65q-40 12 -78 12zM514 934h434q28 113 78 219q-30 1 -45.5 25.5t-18 55t-6.5 65t-12 47.5q-40 12 -74 12q-125 0 -210 -101t-146 -323z" />
    <glyph glyph-name="f_f_k.liga" unicode="ffk" horiz-adv-x="2238" 
d="M2036 250q88 0 88 -92q0 -73 -65.5 -122.5t-157.5 -49.5q-119 0 -224.5 125t-171.5 356q-115 -206 -207 -467h-135l406 1196v2h-6q-40 -4 -64.5 23.5t-32 63t-15 73t-15.5 45.5q-120 0 -191 -103q-75 -107 -145 -366h219l-25 -86h-219l-180 -678q-86 -325 -188 -469
q-104 -143 -281 -143q-88 0 -141.5 48.5t-53.5 119.5q0 45 26.5 74.5t68.5 29.5q36 5 58.5 -20.5t30 -59t16 -72t18.5 -51.5q90 0 149 111q60 116 129 379l197 731h-432l-193 -721q-76 -294 -182.5 -431.5t-280.5 -137.5q-93 0 -153 48.5t-60 121.5q0 51 29 82.5t76 31.5
q40 0 64.5 -23.5t29.5 -58.5q21 -107 41 -129q86 0 146.5 109t131.5 377l197 731h-215l24 86h215q146 487 515 487q187 0 245 -104q128 158 308 158q112 0 172 -48l149 27h43l-184 -545q-69 -208 -219 -512h28q169 328 285 465q115 133 258 133q94 0 149.5 -50t55.5 -146
q0 -139 -135.5 -227.5t-378.5 -100.5q37 -159 114 -291q78 -134 127 -151q23 41 37 96q12 45 27 76q27 49 78 49zM514 934h432q28 106 78 219q-52 9 -61 94q-9 86 -19 99q-40 12 -74 12q-125 0 -210 -101t-146 -323zM1909 879q-82 0 -182.5 -97.5t-202.5 -279.5
q491 24 491 266q0 111 -106 111z" />
    <glyph glyph-name="f_f_t.liga" unicode="fft" horiz-adv-x="1875" 
d="M1925 848h-250l-235 -627q-15 -41 -15 -59q0 -41 37 -41q79 0 217 190l56 -14q-158 -315 -346 -315q-53 0 -88 31t-35 89q0 67 34 142l244 604h-467l-182 -678q-90 -328 -190 -469q-104 -143 -281 -143q-88 0 -141.5 48.5t-53.5 119.5q0 47 26.5 75.5t70.5 28.5
q36 5 58 -20.5t29 -59.5t16 -72t20 -51q86 0 146.5 110t131.5 380l197 731h-432l-193 -721q-76 -294 -182.5 -431.5t-280.5 -137.5q-93 0 -153 48.5t-60 121.5q0 51 29 82.5t76 31.5q40 0 64.5 -23.5t29.5 -58.5q21 -107 41 -129q86 0 146.5 109t131.5 377l197 731h-215
l24 86h215q146 487 515 487q179 0 243 -98q122 152 295 152q105 0 164 -43t59 -109q0 -58 -31.5 -94.5t-84.5 -36.5q-73 0 -88 78q-1 5 -8 59.5t-15 73.5q-111 0 -174 -100q-68 -107 -137 -369h471l69 196l172 17l-98 -213h236zM514 934h434q35 128 74 219q-28 2 -43 27
t-17 55t-6 64t-12 47q-40 12 -74 12q-125 0 -210 -101t-146 -323z" />
    <glyph glyph-name="f_h.liga" unicode="fh" horiz-adv-x="1636" 
d="M1370 995q227 0 227 -266q0 -140 -65 -317q-64 -174 -186 -308q-124 -133 -259 -133q-73 0 -117 38.5t-44 103.5q0 61 30.5 99t83.5 38q55 0 73.5 -43.5t4.5 -97.5q-13 -52 8 -78q120 41 222 252q102 212 102 385q0 190 -119 190q-128 0 -293 -229q-166 -230 -311 -629
h-135l405 1196q0 2 2 4q-4 -2 -20 -2q-40 -4 -64.5 23.5t-32 63t-15 73t-15.5 45.5q-119 0 -190 -103q-77 -110 -146 -366h219l-24 -86h-219l-181 -678q-86 -324 -190 -467q-106 -145 -285 -145q-93 0 -153 48.5t-60 121.5q0 51 29 82.5t76 31.5q40 0 64.5 -23.5t29.5 -58.5
q21 -107 41 -129q86 0 146 108t134 378l197 731h-217l24 86h215q150 541 484 541q107 0 174 -48l158 27h45l-185 -545q-69 -208 -219 -512h29q163 322 278 461q113 137 244 137z" />
    <glyph glyph-name="f_j.liga" unicode="fj" horiz-adv-x="1144" 
d="M881 1405q-127 0 -215 -116t-152 -355h348q64 61 139 61q113 0 113 -114q0 -46 -29 -131l-243 -711q-86 -252 -178.5 -366.5t-208.5 -114.5q-85 0 -138 47.5t-53 120.5q0 54 28 85t75 31t68 -35t30 -102q9 -60 20 -76q42 3 80 74q34 67 113 291l242 694q28 82 28 117
q0 43 -49 43h-407l-181 -678q-84 -313 -188 -465q-102 -147 -283 -147q-97 0 -157 48.5t-60 121.5q0 51 29 82.5t78 31.5q50 0 73 -34t33 -99q8 -51 27 -78q86 0 146.5 109t131.5 377l199 731h-217l24 86h218q144 541 524 541q128 0 207.5 -51t79.5 -128q0 -55 -28 -86.5
t-79 -31.5q-73 0 -94 77q-4 18 -7.5 72t-6.5 66q-41 12 -80 12z" />
    <glyph glyph-name="f_k.liga" unicode="fk" horiz-adv-x="1654" 
d="M1452 250q88 0 88 -92q0 -73 -65.5 -122.5t-157.5 -49.5q-119 0 -224 125t-171 356q-115 -206 -207 -467h-135l405 1196v2h-6q-40 -4 -64.5 23.5t-32 63t-15 73t-15.5 45.5q-119 0 -190 -103q-77 -110 -146 -366h219l-24 -86h-219l-181 -678q-86 -324 -190 -467
q-106 -145 -285 -145q-93 0 -153 48.5t-60 121.5q0 51 29 82.5t76 31.5q40 0 64.5 -23.5t29.5 -58.5q21 -107 41 -129q86 0 146 108t134 378l197 731h-217l24 86h215q150 541 484 541q112 0 172 -48l149 27h43l-184 -545q-69 -208 -219 -512h29q171 331 284 465
q115 133 258 133q94 0 149.5 -50t55.5 -146q0 -139 -135.5 -227.5t-378.5 -100.5q37 -156 115 -291q78 -134 127 -151q23 41 37 96q13 49 26 76q27 49 78 49zM1325 879q-82 0 -182.5 -97.5t-202.5 -279.5q492 24 492 266q0 111 -107 111z" />
    <glyph glyph-name="f_t.liga" unicode="ft" horiz-adv-x="1292" 
d="M1341 848h-251l-236 -627q-12 -35 -12 -59q0 -41 37 -41q79 0 217 190l55 -14q-163 -315 -346 -315q-82 -3 -111.5 69t21.5 193l243 604h-466l-181 -678q-89 -326 -190 -469q-104 -143 -285 -143q-93 0 -153 48.5t-60 121.5q0 51 29 82.5t76 31.5q40 0 64.5 -23.5
t29.5 -58.5q21 -107 41 -129q86 0 146.5 109t131.5 377l199 731h-217l24 86h218q75 278 188.5 409.5t277.5 131.5q105 0 163.5 -43t58.5 -109q0 -58 -31 -94.5t-84 -36.5q-73 0 -88 78q0 1 -4.5 31t-10.5 60t-10 42q-109 0 -174 -103q-68 -107 -137 -366h473l70 196l172 17
l-99 -213h236z" />
    <glyph glyph-name="f_y.liga" unicode="fy" horiz-adv-x="1558" 
d="M1378 995q140 0 140 -243q0 -184 -105 -378.5t-313 -430.5q-341 -385 -584 -385q-84 0 -138 50t-54 120q0 54 27.5 85t76.5 31q42 4 66 -24.5t29.5 -66t11.5 -75t16 -45.5q58 6 129.5 56.5t130.5 134.5q123 182 123 641q0 292 -60 383h-382l-181 -678q-89 -326 -190 -469
q-104 -143 -285 -143q-93 0 -153 48.5t-60 121.5q0 51 29 82.5t76 31.5q40 0 64.5 -23.5t29.5 -58.5q21 -107 41 -129q86 0 146.5 109t131.5 377l199 731h-217l24 86h218q75 278 188.5 409.5t277.5 131.5q105 0 163.5 -43t58.5 -109q0 -58 -31 -94.5t-84 -36.5q-76 0 -94 78
q0 2 -3 31t-7.5 59.5t-8.5 42.5q-109 0 -174 -103q-68 -107 -137 -366h283q46 61 106 61q110 0 148 -145q30 -125 30 -330q0 -336 -90 -577q399 405 434 737q-22 32 -67 65q-39 29 -51 41q-42 46 -42 96t32.5 81.5t80.5 31.5z" />
    <glyph glyph-name="g_f.liga" unicode="gf" horiz-adv-x="1570" 
d="M1745 1475q105 0 163 -43t58 -109q0 -57 -32 -94t-83 -37q-76 0 -94 78q-2 7 -6 60.5t-12 72.5q-109 0 -174 -103q-70 -110 -138 -366h220l-25 -86h-217l-170 -637q-37 -140 -76 -231t-102 -175q-61 -80 -156 -137q-205 -110 -547 -110q-213 0 -350 73q-141 77 -141 191
q0 196 377 233q-90 63 -90 135q0 97 131 152q-129 64 -129 225q0 166 110 303q98 125 248 125q113 0 180 -61h250l-25 -86h-165q18 -46 18 -107q0 -159 -111 -303q-101 -125 -243 -125q-45 0 -92 13q-37 -40 -37 -78q0 -30 28 -55q27 -24 133 -80l82 -41
q137 -73 188.5 -129.5t51.5 -137.5q0 -120 -119 -184q181 50 269 178q87 127 149 359l184 690h-204l26 86h203q75 276 190 408.5t279 132.5zM377 801q-41 -65 -67.5 -152.5t-26.5 -154.5q0 -56 27 -83.5t69 -27.5q91 0 162 127q40 65 67 154t27 153q0 56 -27 83.5t-69 27.5
q-88 0 -162 -127zM23 -176q0 -92 100 -146q100 -53 233 -53q116 0 184 42.5t68 107.5q0 51 -41 91.5t-149 94.5l-76 37q-19 8 -47 25q-142 -29 -207 -76.5t-65 -122.5z" />
    <glyph glyph-name="g_g.liga" unicode="gg" horiz-adv-x="1818" 
d="M408 315q-43 0 -84 13q-39 -39 -39 -80q0 -31 28 -53q33 -30 131 -84l82 -45q110 -59 160.5 -118t50.5 -138q0 -114 -107 -183t-294 -69q-208 0 -342 73q-131 73 -131 191q0 196 377 233q-90 63 -90 135q0 99 133 152q-131 64 -131 221q0 170 110 307q94 125 250 125
q106 0 176 -61h268l-30 -92h-176q16 -50 16 -94q0 -169 -109 -308q-94 -125 -249 -125zM1581 934h285l-31 -92h-190q16 -50 16 -94q0 -164 -111 -308q-94 -125 -250 -125q-39 0 -83 13q-39 -39 -39 -80q0 -30 28 -55t135 -80l80 -41q137 -72 189.5 -130t52.5 -137
q0 -113 -107 -180t-292 -67q-187 0 -312 73q-129 73 -129 183q0 183 326 233q-105 64 -105 143q0 99 134 152q-131 64 -131 221q0 164 110 307q94 125 248 125q106 0 176 -61zM377 801q-41 -65 -67.5 -152.5t-26.5 -154.5q0 -56 27 -83.5t69 -27.5q91 0 162 127
q40 65 67 154t27 153q0 56 -27 83.5t-69 27.5q-88 0 -162 -127zM1436 510q40 61 66 150t26 157q0 57 -26 84t-68 27q-91 0 -162 -127q-41 -65 -67.5 -152.5t-26.5 -154.5q0 -56 27 -83.5t69 -27.5q91 0 162 127zM416 -45l-76 41q-30 13 -49 27q-140 -29 -204 -76.5
t-64 -122.5q0 -90 90.5 -144.5t224.5 -54.5q112 0 176 43.5t64 108.5q0 93 -162 178zM1313 -39l-76 37q-32 16 -35 18q-221 -71 -221 -198q0 -89 92 -142q86 -51 193 -51q110 0 173.5 42.5t63.5 107.5q0 50 -41 90.5t-149 95.5z" />
    <glyph glyph-name="g_j.liga" unicode="gj" horiz-adv-x="1443" 
d="M1331 1376q27 27 66 32.5t72.5 -8t56.5 -44.5t20 -70q0 -55 -35.5 -91t-89.5 -36t-90.5 36t-36.5 91q0 53 37 90zM1294 995q119 0 119 -112q0 -63 -39 -170l-200 -582q-111 -322 -304 -448q-192 -125 -516 -125q-213 0 -350 73q-141 77 -141 191q0 196 377 233
q-90 63 -90 135q0 97 131 152q-129 64 -129 225q0 166 110 303q98 125 248 125q113 0 180 -61h277l-27 -92h-188q16 -50 16 -101q0 -159 -111 -303q-101 -125 -243 -125q-45 0 -92 13q-37 -40 -37 -78q0 -30 28 -55q27 -24 133 -80l82 -41q137 -73 188.5 -129.5t51.5 -137.5
q0 -83 -61 -141q103 43 177 145.5t140 296.5l199 586q32 95 32 131q0 35 -32 35q-58 0 -160 -170l-55 17q131 290 286 290zM377 801q-41 -65 -67.5 -152.5t-26.5 -154.5q0 -56 27 -83.5t69 -27.5q91 0 162 127q40 65 67 154t27 153q0 56 -27 83.5t-69 27.5q-88 0 -162 -127z
M23 -176q0 -92 100 -146q100 -53 233 -53q116 0 184 42.5t68 107.5q0 51 -41 91.5t-149 94.5l-76 37q-19 8 -47 25q-142 -29 -207 -76.5t-65 -122.5z" />
    <glyph glyph-name="g_p.liga" unicode="gp" horiz-adv-x="1906" 
d="M1163 -2l-61 -191q-35 -104 0 -131q39 -31 180 -45l-16 -53h-492l14 53q73 12 111 47q37 40 76 168l295 934l-250 -104l39 123l246 88l79 256l146 14l-78 -246q90 84 197 84q92 0 150.5 -72t58.5 -206q4 -127 -46.5 -260.5t-134 -237t-198 -168.5t-230.5 -61q-50 0 -86 8
zM414 313q-45 0 -92 13q-37 -40 -37 -78q0 -30 28 -55q27 -24 133 -80l82 -41q137 -73 188.5 -129.5t51.5 -137.5q0 -113 -111.5 -180t-302.5 -67q-213 0 -350 73q-141 77 -141 191q0 196 377 233q-90 63 -90 135q0 97 131 152q-129 64 -129 225q0 166 110 303
q98 125 248 125q113 0 180 -61h277l-27 -92h-188q16 -50 16 -101q0 -159 -111 -303q-101 -125 -243 -125zM377 801q-41 -65 -67.5 -152.5t-26.5 -154.5q0 -56 27 -83.5t69 -27.5q91 0 162 127q40 65 67 154t27 153q0 56 -27 83.5t-69 27.5q-88 0 -162 -127zM1432 850
l-244 -772q34 -6 65 -6q137 0 244 98q103 90 158 225q51 125 51 254q0 221 -156 221q-57 0 -118 -20zM418 -39l-76 37q-19 8 -47 25q-142 -29 -207 -76.5t-65 -122.5q0 -92 100 -146q100 -53 233 -53q116 0 184 42.5t68 107.5q0 51 -41 91.5t-149 94.5z" />
    <glyph glyph-name="g_y.liga" unicode="gy" horiz-adv-x="1818" 
d="M1636 995q142 0 142 -243q0 -375 -451 -820q-181 -176 -432.5 -275t-540.5 -99q-215 0 -350 75q-141 77 -141 193q0 192 377 229q-90 63 -90 135q0 99 133 152q-131 64 -131 221q0 170 110 307q94 125 250 125q106 0 176 -61h250l-35 -92h-153q16 -50 16 -94
q0 -169 -109 -308q-94 -125 -249 -125q-43 0 -84 13q-39 -39 -39 -80q0 -30 28 -55q27 -24 133 -80l82 -41q137 -73 188.5 -129.5t51.5 -137.5q0 -98 -84 -161q245 68 358 217q72 88 113 248.5t41 355.5q0 389 -59 389q-56 0 -111 -211l-57 16q83 336 207 336q51 0 83.5 -30
t50.5 -96t24.5 -151.5t6.5 -215.5q0 -303 -110 -547q423 435 450 725q-25 36 -65 68q-43 32 -49 38q-43 43 -43 97q0 51 31 81.5t81 30.5zM377 801q-41 -65 -67.5 -152.5t-26.5 -154.5q0 -56 27 -83.5t69 -27.5q90 0 164 127q40 61 66 150t26 157q0 56 -27 83.5t-69 27.5
q-91 0 -162 -127zM23 -176q0 -92 100 -146q100 -53 233 -53q116 0 184 42.5t68 107.5q0 50 -41 90.5t-149 95.5l-76 37q-19 8 -47 25q-142 -29 -207 -76.5t-65 -122.5z" />
    <glyph glyph-name="t_t.liga" unicode="tt" horiz-adv-x="1331" 
d="M1380 848h-250l-235 -627q-14 -38 -14 -59q0 -41 37 -41q79 0 217 190l55 -14q-158 -315 -346 -315q-82 -3 -111.5 69t21.5 193l243 604h-510l-235 -627q-12 -34 -12 -59q0 -41 34 -41q80 0 218 190l55 -14q-158 -315 -346 -315q-53 0 -88 31t-35 89t35 142l243 604h-200
l24 86h205l68 196l172 17l-99 -213h500l70 196l172 17l-99 -213h236z" />
    <glyph glyph-name=".notdef" horiz-adv-x="1742" 
d="M1550 891q226 0 164 -219l-125 -434q-71 65 -180 65q-61 0 -145 -20q-92 -21 -131 -21q-82 0 -82 72q0 18 2 22l57 183q-6 2 -35 2q-74 0 -198 -37t-172 -37q-91 0 -91 74q0 24 9 39l49 159h-13q-169 0 -401 -80l-188 -659h-74l373 1298q-33 20 -33 64q0 46 38 65t75.5 0
t37.5 -65q0 -51 -47 -72l-10 -30q166 69 326 69q274 0 207 -227q90 35 202 35q301 0 224 -256l-5 -15q98 25 166 25zM651 795q107 0 156 -27l98 344q26 90 -11 126t-140 36q-159 0 -342 -80l-138 -475q224 76 377 76zM774 1126l-133 -157l-14 -56q-8 -20 -1.5 -31t31.5 -12
l-8 -24h-149l8 24q46 9 55 43l12 50l-40 163q-6 26 -19 29q-4 2 -16 2l6 25h137l-6 -25q-46 -3 -37 -37l29 -119l96 119q27 34 -16 37l6 25h121l-7 -25q-33 -3 -55 -31zM721 522q29 0 153 37q121 37 218 37q99 0 149 -29l96 336q28 96 -15.5 137t-152.5 41q-118 0 -225 -43
l-102 -346q-3 -30 -31 -52t-60 -32t-57 -24.5t-22 -32.5q0 -29 49 -29zM1253 868q0 -86 -52 -151.5t-136 -65.5q-65 0 -105 35.5t-40 101.5q0 87 52 152.5t136 65.5q65 0 105 -36t40 -102zM1065 688q54 0 86.5 56.5t32.5 127.5q0 97 -76 97q-54 0 -87.5 -57t-33.5 -128
q0 -96 78 -96zM1559 328l104 364q41 144 -129 144q-72 0 -166 -27l-92 -317q-4 -37 -27 -57.5t-64.5 -35t-51.5 -20.5q-18 -10 -24.5 -24.5t3.5 -26t37 -11.5q29 0 117 21q81 20 141 20q97 0 152 -30zM1497 774q88 0 88 -67q0 -34 -24 -59.5t-82 -59.5l-35 -21h86l-12 -45
h-134l13 45l53 31q80 47 80 92q0 43 -47 43q-50 0 -62 -55h-28q15 96 104 96zM784 694q0 30 -59 39l-27 -94q29 9 43 14.5t28.5 16.5t14.5 24zM1214 485q0 32 -53 47l-31 -106q7 4 35.5 15.5t38.5 20.5t10 23zM1415 477q15 16 35 8.5t25.5 -25.5t-9.5 -36q-26 -23 -50 2
t-1 51z" />
    <glyph glyph-name=".null" horiz-adv-x="0" 
 />
    <glyph glyph-name="nonmarkingreturn" horiz-adv-x="681" 
 />
    <glyph glyph-name="CR" unicode="&#xd;" horiz-adv-x="1228" 
 />
    <glyph glyph-name="space" unicode=" " horiz-adv-x="428" 
 />
    <glyph glyph-name="exclam" unicode="!" horiz-adv-x="626" 
d="M473 1393h201l-340 -940h-62zM307 16q-37 -37 -90 -37t-90 37q-37 35 -37 90.5t37 92.5q37 35 90 35t90 -35q37 -37 37 -92.5t-37 -90.5z" />
    <glyph glyph-name="quotedbl" unicode="&#x22;" horiz-adv-x="772" 
d="M432 1454h166l-213 -559h-55zM729 1454h168l-213 -559h-57z" />
    <glyph glyph-name="numbersign" unicode="#" horiz-adv-x="1280" 
d="M1362 1014l-23 -74h-243l-240 -418h242l-21 -73h-262l-258 -449h-90l258 449h-338l-258 -449h-90l258 449h-236l21 73h258l240 418h-254l20 74h277l217 379h90l-217 -379h336l217 379h90l-217 -379h223zM430 522h336l240 418h-336z" />
    <glyph glyph-name="dollar" unicode="$" horiz-adv-x="1028" 
d="M913 1536l-63 -203q103 -27 199 -96l-88 -299h-74q27 219 -64 307l-170 -549l41 -39q88 -85 126 -157.5t38 -175.5q0 -147 -98 -248q-100 -103 -293 -103h-37l-63 -200h-45l63 204q-23 2 -98 21l-70 -225h-45l74 237q-108 37 -170 84l102 352h74q-30 -216 29 -321
l170 545l-11 10q-89 84 -128.5 157t-39.5 173q0 155 101 252.5t289 97.5h2l55 176h45l-55 -178q42 -2 100 -15l59 193h45zM414 1049q0 -106 90 -207l141 456q-113 -6 -172 -74t-59 -175zM549 795l69 -66l168 543q-38 20 -96 26l-153 -493q1 -1 5 -4t7 -6zM485 637l-172 -553
q40 -34 93 -43l159 518zM717 285q0 124 -117 241l-151 -491h16q123 0 187.5 69.5t64.5 180.5z" />
    <glyph glyph-name="percent" unicode="%" 
d="M758 1112q0 -146 -78 -278q-80 -132 -215 -132q-104 0 -166.5 62.5t-62.5 185.5q0 150 79 281q76 129 215 129q106 0 167 -63.5t61 -184.5zM186 0h-88l1209 1331h88zM694 1057q0 87 -50 140.5t-134 53.5q-103 0 -154 -75q-55 -76 -55 -172q0 -86 51 -139.5t133 -53.5
q101 0 156 76q53 77 53 170zM1260 383q0 -147 -78 -279q-79 -131 -215 -131q-104 0 -167 63.5t-63 184.5q0 148 80 281q77 129 215 129q106 0 167 -63.5t61 -184.5zM1194 330q0 88 -50 141t-134 53q-97 0 -154 -78q-55 -76 -55 -170q0 -88 50.5 -141t135.5 -53q97 0 154 78
q53 77 53 170z" />
    <glyph glyph-name="ampersand" unicode="&#x26;" horiz-adv-x="1402" 
d="M1180 823h260l-17 -57q-64 -6 -101 -48t-97 -163q-63 -126 -95 -176q-47 -68 -96 -107l15 -18q128 -152 202 -203l-12 -51h-207l-125 156q-156 -185 -420 -185q-200 0 -321 95.5t-121 265.5q0 160 111 257.5t313 110.5q-147 196 -147 355q0 154 108 262q107 104 301 104
q174 0 287 -82q115 -83 115 -247q0 -163 -114 -271t-323 -137l281 -342q126 182 203 481zM735 1362q-122 0 -194 -71.5t-72 -182.5q0 -81 37 -159t125 -185l22 -27q332 77 332 361q0 131 -68 197.5t-182 66.5zM537 90q185 0 323 123l-342 424l-12 14q-287 -65 -287 -289
q0 -128 87 -200t231 -72z" />
    <glyph glyph-name="quotesingle" unicode="'" horiz-adv-x="473" 
d="M432 1454h166l-213 -559h-55z" />
    <glyph glyph-name="parenleft" unicode="(" horiz-adv-x="692" 
d="M408 -406l-50 -28q-186 317 -186 686q0 268 86 512q47 138 127 272q81 134 213 263t297 229l33 -45q-171 -120 -300 -281t-198 -334q-133 -328 -133 -620q0 -358 111 -654z" />
    <glyph glyph-name="parenright" unicode=")" horiz-adv-x="694" 
d="M322 1499l51 29q186 -326 186 -686q0 -264 -84 -510q-54 -149 -129 -275q-80 -133 -213 -262t-299 -229l-33 45q171 120 300.5 280.5t199.5 333.5q131 330 131 621q0 360 -110 653z" />
    <glyph glyph-name="asterisk" unicode="*" horiz-adv-x="825" 
d="M600 1192h-33l-35 178q-15 90 54 90q64 0 49 -90zM811 1235l-162 -82l-20 27l119 137q57 69 104 16q40 -52 -41 -98zM539 1178l-21 -25l-158 84q-85 40 -38 96q42 54 100 -16zM815 1016l-166 76l10 30l179 -6q43 0 64 -19t13 -50q-7 -32 -35 -40.5t-65 9.5zM520 1090
l-166 -74q-37 -18 -64.5 -9.5t-33.5 40.5q-7 30 13.5 48.5t62.5 20.5l180 4zM569 1051l-47 -174q-21 -89 -84 -60q-65 30 -6 105l109 143zM733 817q-29 -14 -52.5 2.5t-33.5 57.5l-45 174l29 14l108 -143q53 -75 -6 -105z" />
    <glyph glyph-name="plus" unicode="+" horiz-adv-x="1187" 
d="M668 641h417v-82h-417v-418h-82v418h-418v82h418v418h82v-418z" />
    <glyph glyph-name="comma" unicode="," horiz-adv-x="622" 
d="M-14 -272l20 65q122 1 190 61.5t68 147.5q-33 -20 -74 -20q-51 0 -83.5 31t-32.5 85t37 88.5t90 34.5q63 0 103 -47t40 -131q0 -139 -94.5 -227t-263.5 -88z" />
    <glyph glyph-name="hyphen" unicode="-" horiz-adv-x="675" 
d="M104 604h533l-35 -127h-532z" />
    <glyph glyph-name="period" unicode="." horiz-adv-x="622" 
d="M293 16q-37 -37 -90 -37t-90 37q-37 35 -37 90.5t37 92.5q37 35 90 35t90 -35q37 -37 37 -92.5t-37 -90.5z" />
    <glyph glyph-name="slash" unicode="/" horiz-adv-x="1042" 
d="M-160 -143l1372 1679h111l-1372 -1679h-111z" />
    <glyph glyph-name="zero" unicode="0" horiz-adv-x="1173" 
d="M535 -29q-194 0 -305 121t-111 350q-1 114 24 243.5t78.5 260.5t127 236.5t181 172t230.5 66.5q193 0 304.5 -121t111.5 -350q0 -145 -42 -308.5t-118 -317.5q-77 -159 -205 -256t-276 -97zM582 139q112 0 207.5 70t152.5 186q55 109 85 232.5t30 236.5q0 176 -90 282.5
t-254 106.5q-112 0 -208 -70t-153 -184q-114 -231 -114 -469q0 -176 90.5 -283.5t253.5 -107.5z" />
    <glyph glyph-name="one" unicode="1" horiz-adv-x="854" 
d="M803 1393l-340 -1178q-27 -95 8 -123q38 -30 205 -33l-17 -59h-651l17 59q157 6 206 31q47 24 74 125l299 1038l-272 -159l41 139l272 160h158z" />
    <glyph glyph-name="two" unicode="2" horiz-adv-x="1079" 
d="M172 164h418q134 0 201 61t137 262h80l-140 -487h-874l43 164l309 213q290 202 419.5 357t129.5 315q0 111 -67 175t-195 64q-279 0 -350 -317h-80q24 206 141.5 328t319.5 122q171 0 290 -84q117 -86 117 -262q0 -186 -141 -342q-141 -153 -486 -387z" />
    <glyph glyph-name="three" unicode="3" horiz-adv-x="1079" 
d="M334 1393h803l-41 -164l-570 -445q185 3 312 -86q125 -91 125 -286q0 -187 -127 -314t-373 -127q-206 0 -323 75.5t-117 197.5q0 72 36 111.5t95 39.5q40 0 66.5 -23t31.5 -55q6 -30 0 -106q-6 -72 -2 -113q83 -47 205 -47q161 0 250.5 92.5t89.5 235.5q0 70 -26 122
t-71 81t-105.5 45.5t-128.5 15.5t-140 -8l34 119l607 475h-390q-75 0 -105.5 -5.5t-61.5 -31.5q-32 -27 -56.5 -75t-58.5 -146h-80z" />
    <glyph glyph-name="four" unicode="4" horiz-adv-x="1134" 
d="M862 604h268l-43 -149h-268l-131 -455h-156l132 455h-621l45 149l844 789h155zM889 1241l-682 -637h500z" />
    <glyph glyph-name="five" unicode="5" horiz-adv-x="1021" 
d="M1153 1454l-78 -225h-624l-119 -418q69 16 139 16q163 0 297 -77q74 -44 117 -126t43 -188q0 -186 -127 -325q-131 -140 -371 -140q-195 0 -309.5 76t-114.5 199q0 71 35.5 110t93.5 39q39 0 65.5 -22.5t32.5 -55.5q6 -27 0 -104q-6 -74 -2 -115q77 -47 189 -47
q168 0 255 92t87 244q0 277 -354 277q-57 0 -211 -23l213 752h551q50 0 71 12.5t39 48.5h82z" />
    <glyph glyph-name="six" unicode="6" horiz-adv-x="1146" 
d="M582 -29q-71 0 -134 15t-124 52.5t-105 95.5t-71 151.5t-27 212.5q0 389 239 655q238 268 611 268q134 0 235 -37l-24 -77q-88 26 -197 26q-286 0 -487 -223q-206 -226 -209 -573h14q48 160 151 244.5t255 84.5q154 0 264 -94q108 -94 108 -276q0 -75 -17.5 -147.5
t-57 -141.5t-96.5 -121t-141.5 -83.5t-186.5 -31.5zM582 51q153 0 241 131q86 133 86 297q0 140 -65.5 210.5t-169.5 70.5q-164 0 -256 -139q-94 -137 -94 -308q0 -126 71.5 -194t186.5 -68z" />
    <glyph glyph-name="seven" unicode="7" horiz-adv-x="948" 
d="M199 971l120 422h838l-47 -164l-907 -1229h-123l907 1229h-420q-123 0 -174 -45q-53 -46 -114 -213h-80z" />
    <glyph glyph-name="eight" unicode="8" horiz-adv-x="1064" 
d="M1118 1081q0 -147 -110 -247t-299 -136l39 -36q184 -175 184 -345q0 -164 -118 -255t-312 -91q-187 0 -309 90q-123 89 -123 254q0 147 109.5 246.5t297.5 132.5l-37 37q-94 90 -139 171.5t-45 176.5q0 164 117.5 253t312.5 89q194 0 313 -89.5t119 -250.5zM567 836
l97 -95q292 94 292 332q0 129 -77.5 198.5t-194.5 69.5q-119 0 -192.5 -64t-73.5 -169q0 -129 149 -272zM770 289q0 125 -149 268l-97 94q-293 -95 -293 -332q0 -130 77.5 -199t195.5 -69q117 0 191.5 66.5t74.5 171.5z" />
    <glyph glyph-name="nine" unicode="9" horiz-adv-x="1191" 
d="M317 -29q-144 0 -245 37l24 78q95 -27 207 -27q289 0 485 220t199 577h-14q-47 -150 -148.5 -240t-249.5 -90q-153 0 -266 101q-112 97 -112 288q0 203 125 355q124 151 350 151q68 0 129 -12t128 -48t115 -93t79.5 -156t31.5 -229q0 -251 -100 -456t-291 -329
q-195 -127 -447 -127zM606 635q79 -1 147.5 39.5t112 104t67 139t21.5 147.5q0 131 -74.5 203.5t-191.5 72.5q-153 0 -235 -131q-86 -133 -86 -284q0 -144 67.5 -217.5t171.5 -73.5z" />
    <glyph glyph-name="colon" unicode=":" horiz-adv-x="628" 
d="M397 659q-55 0 -91 35.5t-36 91.5q0 55 36.5 91t90.5 36t89.5 -36t35.5 -91t-35.5 -91t-89.5 -36zM299 16q-27 -28 -66 -34t-72.5 7t-56.5 44.5t-20 72.5q0 55 35.5 91t89.5 36q41 4 72.5 -19.5t45 -58t7.5 -74t-35 -65.5z" />
    <glyph glyph-name="semicolon" unicode=";" horiz-adv-x="622" 
d="M397 659q-56 0 -91.5 35t-35.5 90q0 56 36 91.5t91 35.5q54 0 89.5 -36t35.5 -91t-35.5 -90t-89.5 -35zM-4 -272l20 65q122 1 190 61.5t68 147.5q-33 -20 -73 -20q-51 0 -84 31t-33 85q0 55 36 89t91 34q63 0 103 -47t40 -131q0 -139 -94.5 -227t-263.5 -88z" />
    <glyph glyph-name="less" unicode="&#x3c;" horiz-adv-x="1187" 
d="M123 664l917 348v-88l-817 -306l817 -305v-88l-917 348v91z" />
    <glyph glyph-name="equal" unicode="=" horiz-adv-x="1187" 
d="M1085 733h-917v82h917v-82zM1085 385h-917v82h917v-82z" />
    <glyph glyph-name="greater" unicode="&#x3e;" horiz-adv-x="1187" 
d="M221 924v88l918 -348v-91l-918 -348v88l817 305z" />
    <glyph glyph-name="question" unicode="?" horiz-adv-x="952" 
d="M999 1145q0 -144 -108 -252q-113 -110 -348 -244l-142 -80h375l-45 -153h-516l43 153l197 119q190 115 278 212.5t88 199.5q0 87 -52 136.5t-148 49.5q-112 0 -188.5 -67.5t-102.5 -190.5h-80q58 393 412 393q157 0 247 -75t90 -201zM332 199q37 35 90 35t90 -35
q37 -37 37 -92.5t-37 -90.5q-37 -37 -90 -37t-90 37q-37 35 -37 90.5t37 92.5z" />
    <glyph glyph-name="at" unicode="@" horiz-adv-x="2025" 
d="M1366 -18q-103 0 -165 50.5t-62 149.5q0 113 139 391h-29q-194 -350 -297 -477q-101 -125 -225 -125q-82 0 -133 52.5t-51 146.5q0 149 110 338q107 186 273 326q162 137 299 137q72 0 127 -37l26 78h150l-228 -658q-28 -95 -28 -135q0 -115 133 -115q140 0 248 105
q104 98 155 250q50 145 50 301q0 146 -57.5 261t-158.5 183q-195 129 -456 129q-218 0 -409.5 -88.5t-317.5 -238.5q-124 -147 -192 -323.5t-68 -354.5q0 -219 98.5 -379.5t261.5 -233.5q153 -69 352 -69q269 0 516 110l29 -78q-302 -120 -555 -120q-333 0 -557 184
q-114 94 -178 244t-64 336q0 234 105.5 463t296.5 395q130 113 308.5 177t377.5 64q117 0 224 -21t206.5 -71t172.5 -123.5t117 -186.5t44 -253q0 -285 -137 -522q-71 -120 -189 -191t-262 -71zM778 117q96 0 215 155q119 154 320 504q-72 96 -185 105q-60 0 -165 -111
t-187 -266t-82 -271t84 -116z" />
    <glyph glyph-name="A" unicode="A" horiz-adv-x="1413" 
d="M1004 1411l118 -1110q18 -149 45 -190q25 -45 88 -48l-18 -63h-498l19 63q130 3 176 43q45 39 33 170l-21 187h-536l-142 -205q-57 -80 -57 -125q0 -64 156 -70l-21 -63h-450l18 63q67 3 113 43q41 33 147 183l688 977l-16 145h158zM874 1137l-405 -588h469z" />
    <glyph glyph-name="B" unicode="B" horiz-adv-x="1306" 
d="M1290 1094q0 -161 -126 -262t-369 -113v-6q370 -21 370 -289q0 -182 -143 -301q-144 -123 -444 -123h-627l18 63q114 3 166 37q51 29 82 140l266 925q13 50 13 74q0 53 -35.5 70.5t-126.5 19.5l16 64h481q78 0 141 -7t124.5 -27t102.5 -52.5t66 -86.5t25 -126zM532 758
h136q228 0 338 91t110 247q0 223 -297 223h-127zM985 412q0 144 -95 202t-294 58h-88l-119 -414q-10 -33 -10 -68q0 -65 53.5 -93.5t173.5 -28.5q190 0 285 102q94 101 94 242z" />
    <glyph glyph-name="C" unicode="C" horiz-adv-x="1443" 
d="M788 -29q-260 0 -440 154q-178 153 -178 446q0 165 54.5 316.5t156.5 271.5q105 123 266 192.5t354 69.5q70 0 135.5 -8.5t110.5 -21t79 -25t54 -21t23 -8.5q29 0 67 66h78l-127 -445h-84q4 54 4 80q0 299 -337 299q-155 0 -282 -67.5t-204 -182.5q-153 -229 -153 -528
q0 -253 124 -377q127 -127 306 -127q146 0 256 106t202 326h84l-116 -407q-207 -109 -433 -109z" />
    <glyph glyph-name="D" unicode="D" horiz-adv-x="1519" 
d="M502 0h-551l18 63q114 3 166 37q51 29 82 140l266 925q13 50 13 74q0 53 -35.5 70.5t-126.5 19.5l16 64h438q148 3 289.5 -36.5t245.5 -129.5q71 -64 113.5 -168.5t42.5 -233.5q5 -162 -72 -332.5t-233 -295.5q-110 -89 -286 -143t-386 -54zM557 74q143 0 264.5 46
t205 122t143 174.5t87 203.5t27.5 209q0 138 -43.5 242t-118.5 156q-139 92 -317 92h-113l-297 -1030q-14 -46 -14 -88q0 -127 176 -127z" />
    <glyph glyph-name="E" unicode="E" horiz-adv-x="1353" 
d="M334 1329l16 64h1100l-102 -353h-86q18 80 18 131q0 86 -50.5 117t-176.5 31h-361l-164 -571h238q153 0 203 36q53 38 102 174h78l-139 -495h-80q14 66 14 117q0 65 -39 79q-40 15 -164 15h-233l-119 -416q-12 -47 -12 -80q0 -104 133 -104h242q146 0 221 63
q71 62 174 279h84l-144 -416h-1136l18 63q114 3 166 37q51 29 82 140l266 925q13 50 13 74q0 53 -35.5 70.5t-126.5 19.5z" />
    <glyph glyph-name="F" unicode="F" horiz-adv-x="1271" 
d="M334 1329l16 64h1100l-102 -353h-86q18 80 18 131q0 86 -50.5 117t-176.5 31h-361l-164 -571h240q151 0 201 36q53 38 102 174h78l-139 -495h-80q14 66 14 117q0 65 -39 79q-40 15 -162 15h-235l-115 -400q-18 -62 -18 -98q0 -61 52.5 -84.5t193.5 -28.5l-17 -63h-653
l18 63q114 3 166 37q51 29 82 140l266 925q13 50 13 74q0 53 -35.5 70.5t-126.5 19.5z" />
    <glyph glyph-name="G" unicode="G" horiz-adv-x="1529" 
d="M782 -29q-275 0 -446 154q-170 153 -170 432q0 164 54 317t155 277q100 126 260.5 198t353.5 72q67 0 132 -8.5t111 -21t82 -25t57.5 -21t25.5 -8.5q16 0 27.5 12.5t37.5 53.5h80l-129 -445h-84q6 46 6 89q0 148 -86 219t-260 71q-158 0 -284.5 -71t-198.5 -193
q-144 -242 -144 -512q0 -265 117 -385q118 -121 299 -121q284 0 336 211l43 162q10 52 10 68q0 57 -55 75q-71 18 -225 21l22 72h594l-20 -72q-74 -6 -107.5 -44.5t-64.5 -150.5l-88 -307q-204 -119 -441 -119z" />
    <glyph glyph-name="H" unicode="H" horiz-adv-x="1597" 
d="M1178 1329l18 64h530l-18 -64q-111 -3 -149 -35q-44 -38 -70 -135l-266 -923q-13 -54 -13 -80q0 -50 38.5 -71t135.5 -22l-18 -63h-553l16 63q115 3 158 37q46 36 72 136l127 440h-676l-131 -459q-10 -42 -10 -57q0 -48 39 -72t129 -25l-19 -63h-565l18 63q112 6 166 37
q51 29 82 140l266 925q13 50 13 76q0 53 -35.5 69.5t-128.5 18.5l16 64h535l-19 -64q-111 -3 -149 -35q-41 -35 -68 -133l-114 -399h675l115 397q14 55 14 82q0 45 -36 66t-125 22z" />
    <glyph glyph-name="I" unicode="I" horiz-adv-x="759" 
d="M528 0h-577l18 63q114 3 166 37q51 29 82 140l262 909q17 73 17 90q0 53 -35.5 70.5t-126.5 19.5l16 64h541l-17 -64q-118 -3 -155 -35q-43 -34 -70 -125l-272 -948q-10 -38 -10 -59q0 -51 41 -74.5t139 -24.5z" />
    <glyph glyph-name="J" unicode="J" horiz-adv-x="729" 
d="M-102 -442q-101 0 -168.5 48.5t-67.5 133.5q0 56 30 89.5t83 33.5q52 0 77.5 -36t38.5 -106q15 -65 33 -92q162 0 297 477l291 1012q16 69 16 99q0 65 -51 85t-201 25l17 66h606l-18 -64q-93 -3 -127 -37q-40 -37 -66 -133l-274 -960q-97 -336 -222 -488.5t-294 -152.5z
" />
    <glyph glyph-name="K" unicode="K" horiz-adv-x="1476" 
d="M1667 1393l-16 -64q-69 -12 -135 -49q-91 -48 -216 -137l-507 -350l321 -537q61 -102 105.5 -140.5t111.5 -49.5l-18 -66h-520l16 66q160 6 160 73q0 38 -33 88l-277 473l-182 -127l-98 -337q-12 -43 -12 -76q0 -49 40 -72.5t134 -24.5l-19 -63h-571l18 63q114 3 166 37
q51 29 82 140l266 925q13 50 13 74q0 53 -35.5 70.5t-126.5 19.5l16 64h531l-17 -64q-111 -3 -151 -37q-41 -35 -68 -133l-131 -450l674 460q106 75 106 115q0 42 -139 45l19 64h493z" />
    <glyph glyph-name="L" unicode="L" horiz-adv-x="1308" 
d="M1065 0h-1114l18 63q114 3 166 37q51 29 82 140l266 925q13 50 13 74q0 53 -35.5 70.5t-126.5 19.5l16 64h520l-16 -64q-105 -3 -141 -31q-38 -27 -68 -139l-248 -868q-18 -64 -18 -109q0 -108 143 -108h234q111 0 200 92q85 88 209 321h84z" />
    <glyph glyph-name="M" unicode="M" horiz-adv-x="1935" 
d="M858 190l744 1203h325l-18 -64q-95 -3 -129 -37q-40 -36 -54 -143l-124 -891q-17 -118 7.5 -156t123.5 -39l-19 -63h-547l19 63q136 3 188 43t70 162l125 895l-723 -1167h-129l-101 1180l-329 -897q-49 -122 -19 -166q27 -47 185 -50l-19 -63h-491l18 63q99 6 139 46
q40 37 90 170l318 870q45 106 25 142.5t-136 37.5l17 64h344z" />
    <glyph glyph-name="N" unicode="N" horiz-adv-x="1501" 
d="M1165 1329l19 64h506l-19 -64q-95 -3 -135 -37q-44 -35 -78 -159l-328 -1137h-126l-467 1094l-230 -797q-28 -106 -28 -143q0 -50 39.5 -66t164.5 -21l-18 -63h-526l18 63q129 3 170 41q40 37 84 189l266 928q-31 60 -68.5 81t-115.5 27l18 64h285l500 -1182l264 922
q20 73 20 108q0 54 -41.5 70t-173.5 18z" />
    <glyph glyph-name="O" unicode="O" horiz-adv-x="1546" 
d="M743 -29q-251 0 -417 146q-164 144 -164 415q0 315 184 590q92 137 243 218t335 81q252 0 417 -143q164 -144 164 -418q0 -318 -182 -590q-92 -137 -244 -218t-336 -81zM735 55q142 0 259.5 82t185.5 217q133 263 133 543q0 208 -102.5 324t-278.5 116q-142 0 -259.5 -82
t-185.5 -217q-133 -263 -133 -542q0 -208 103 -324.5t278 -116.5z" />
    <glyph glyph-name="P" unicode="P" horiz-adv-x="1204" 
d="M350 1393h516q434 0 434 -326q0 -176 -143 -295q-145 -121 -409 -121h-246l-107 -368q-18 -65 -18 -105q0 -64 53 -87t197 -28l-19 -63h-657l18 63q114 3 166 37q51 29 82 140l266 925q13 50 13 74q0 53 -35.5 70.5t-126.5 19.5zM522 725h197q196 0 301.5 96t105.5 248
q0 250 -297 250h-137z" />
    <glyph glyph-name="Q" unicode="Q" horiz-adv-x="1460" 
d="M989 1421q208 0 344 -118q140 -122 140 -357q0 -160 -65.5 -329t-174.5 -310q-127 -158 -286 -247t-333 -89q-43 0 -55 2q-31 -42 -31 -106q0 -168 183 -168q95 0 173.5 41.5t170.5 144.5l55 -37q-95 -150 -202 -220t-246 -70q-117 0 -190 61.5t-73 165.5q0 123 99 197
q-170 32 -268.5 150.5t-98.5 313.5q0 162 65 332t175 307q125 158 284.5 247t333.5 89zM1090 424q247 317 247 590q0 145 -79 225t-211 80q-262 0 -535 -350q-248 -318 -248 -590q0 -145 80.5 -225t212.5 -80q260 0 533 350z" />
    <glyph glyph-name="R" unicode="R" horiz-adv-x="1495" 
d="M897 719l305 -526q65 -115 144 -130l-15 -63h-219l-395 709h-201l-135 -471q-14 -55 -14 -82q0 -52 39.5 -70t146.5 -23l-18 -63h-584l18 63q114 3 166 37q51 29 82 140l266 925q13 50 13 74q0 53 -35.5 70.5t-126.5 19.5l16 64h545q405 0 405 -297q0 -152 -106.5 -251.5
t-296.5 -125.5zM860 1319h-166l-155 -537h200q95 0 166.5 20t112.5 50.5t66.5 73.5t33.5 81t8 80q0 232 -266 232z" />
    <glyph glyph-name="S" unicode="S" horiz-adv-x="1114" 
d="M518 -29q-83 0 -164.5 21t-130 42t-51.5 21q-27 0 -68 -65h-77l141 497h84q-34 -229 35 -330.5t231 -101.5q124 0 195 66t71 164q0 141 -151 274l-162 143q-95 83 -139.5 165t-44.5 190q0 163 112 263.5t314 100.5q83 0 164.5 -21t130 -42t51.5 -21q26 0 67 66h78
l-127 -445h-84q47 379 -278 379q-120 0 -191 -66.5t-71 -164.5q0 -75 36 -134t115 -130l162 -144q184 -163 184 -354q0 -157 -110 -264q-112 -109 -322 -109z" />
    <glyph glyph-name="T" unicode="T" horiz-adv-x="1310" 
d="M1436 1434h80l-103 -414h-84q19 108 19 158q0 84 -37 112.5t-133 28.5h-205l-301 -1059q-19 -78 -19 -98q0 -52 47 -75t166 -24l-16 -63h-651l18 63q136 4 197 45.5t92 147.5l301 1063h-211q-118 0 -180 -59q-63 -60 -127 -240h-86l137 414h78q0 -26 14.5 -33.5
t59.5 -7.5h845q46 0 66 8t33 33z" />
    <glyph glyph-name="U" unicode="U" horiz-adv-x="1413" 
d="M651 -29q-190 0 -319 97q-127 95 -127 286q0 131 45 267l151 520q27 95 27 121q0 37 -24 51t-85 16l19 64h491l-18 -64q-119 -3 -158 -31q-38 -26 -69 -139l-170 -584q-33 -112 -33 -198q0 -136 82 -208.5t217 -72.5q323 0 440 408l174 618q27 88 27 121q0 52 -36 68
t-140 18l18 64h432l-18 -64q-75 -3 -111 -31t-63 -133l-189 -667q-34 -119 -73 -203t-101 -160q-133 -164 -389 -164z" />
    <glyph glyph-name="V" unicode="V" horiz-adv-x="1327" 
d="M1135 1329l18 64h403l-18 -64q-62 -3 -98 -31q-38 -30 -101 -135l-710 -1171h-129l-103 1098q-15 162 -35 198q-21 38 -90 41l19 64h463l-19 -64q-57 -2 -88.5 -8t-54 -22.5t-30 -43.5t-7.5 -73q0 -44 8 -123l78 -873l573 944q58 98 58 138q0 58 -137 61z" />
    <glyph glyph-name="W" unicode="W" horiz-adv-x="1968" 
d="M1757 1329l17 64h413l-18 -64q-30 -1 -46 -5.5t-40 -25.5t-50.5 -62.5t-68.5 -117.5l-588 -1126h-127l-102 835l-488 -835h-129l-145 1163q-15 116 -33 143q-19 28 -69 31l18 64h424l-18 -64q-108 -5 -140 -31.5t-22 -111.5l121 -1004l462 793l-24 201q-12 102 -31 127
q-20 23 -100 26l18 64h477l-18 -64q-119 -5 -155.5 -36t-24.5 -128l112 -966l484 940q51 96 51 133q0 31 -34.5 43.5t-125.5 13.5z" />
    <glyph glyph-name="X" unicode="X" horiz-adv-x="1427" 
d="M1110 1329l18 64h484l-19 -64q-61 -8 -114 -39q-65 -43 -164 -139l-459 -440l191 -426q65 -144 94 -181q25 -38 90 -41l-19 -63h-479l17 63q163 3 163 84q0 41 -30 105l-152 340l-366 -352q-66 -63 -66 -107q0 -67 139 -70l-18 -63h-483l18 63q69 10 117 41
q46 26 164 138l456 438l-190 428q-60 134 -92 182q-29 36 -93 39l19 64h481l-18 -64q-164 -3 -164 -84q0 -31 31 -104l151 -340l367 352q65 59 65 107q0 66 -139 69z" />
    <glyph glyph-name="Y" unicode="Y" horiz-adv-x="1273" 
d="M1096 1329l16 64h391l-16 -64q-38 -3 -82 -35q-39 -29 -141 -149l-516 -594l-91 -313q-14 -49 -14 -80q0 -48 41 -71t139 -24l-18 -63h-584l19 63q121 4 173 42.5t79 132.5l90 313l-193 592q-40 121 -59 153q-24 30 -58 33l19 64h432l-18 -64q-168 -6 -168 -86
q0 -21 18 -92l154 -508l469 539q49 55 49 90q0 54 -131 57z" />
    <glyph glyph-name="Z" unicode="Z" horiz-adv-x="1335" 
d="M567 1393h856l-47 -164l-1200 -1073h578q148 0 215 61q65 59 159 270h84l-168 -487h-1050l43 164l1198 1073h-582q-133 0 -184 -51q-56 -56 -119 -228h-86l139 486h80q5 -30 21.5 -40.5t62.5 -10.5z" />
    <glyph glyph-name="bracketleft" unicode="[" horiz-adv-x="612" 
d="M281 -422h-326l555 1938h326l-17 -58h-196l-523 -1823h197z" />
    <glyph glyph-name="backslash" unicode="\" horiz-adv-x="927" 
d="M322 1536h86l319 -1679h-86z" />
    <glyph glyph-name="bracketright" unicode="]" horiz-adv-x="614" 
d="M369 1516h325l-555 -1938h-325l14 57h197l522 1823h-197z" />
    <glyph glyph-name="asciicircum" unicode="^" horiz-adv-x="1187" 
d="M932 1393l160 -504h-113l-131 411l-377 -411h-145l471 504h135z" />
    <glyph glyph-name="underscore" unicode="_" horiz-adv-x="1009" 
d="M-225 -336h989l-25 -86h-989z" />
    <glyph glyph-name="grave" unicode="`" horiz-adv-x="1228" 
d="M504 1393l88 -299h-80l-150 299h142z" />
    <glyph glyph-name="a" unicode="a" horiz-adv-x="1044" 
d="M756 119q60 0 162 172l53 -15q-59 -135 -132.5 -213.5t-150.5 -78.5q-117 0 -117 114q0 86 199 475h-31q-202 -342 -309 -469q-112 -133 -231 -133q-80 0 -127 52.5t-47 154.5q0 148 110 334q110 191 271 324q164 135 296 135q77 0 132 -37l24 78h148l-267 -783
q-40 -110 17 -110zM258 119q92 0 216 154t319 501q-70 102 -185 105q-65 -3 -166 -113q-100 -106 -186 -268q-84 -159 -84 -273q0 -106 86 -106z" />
    <glyph glyph-name="b" unicode="b" horiz-adv-x="1005" 
d="M309 -29q-89 0 -158 34.5t-106 90.5l373 1100q25 75 8 111.5t-78 40.5l-78 6l13 47l317 53h43l-182 -543q-63 -188 -225 -514h28q171 326 283 461q113 137 239 137q195 0 195 -231q0 -179 -100 -363t-260 -307q-159 -123 -312 -123zM326 47q118 0 239 121t191 283
q71 160 71 284q0 123 -88 123q-81 0 -202 -139q-124 -145 -213 -305q-93 -170 -138 -291q52 -76 140 -76z" />
    <glyph glyph-name="c" unicode="c" horiz-adv-x="821" 
d="M319 -29q-122 0 -192 72t-70 211q0 157 76 328q76 169 211 292q133 121 279 121q102 0 161.5 -48.5t59.5 -123.5q0 -62 -30.5 -97.5t-84.5 -35.5q-85 0 -94 80q-2 6 -2 68q-3 61 -17 86q-109 -3 -206 -103t-154 -241q-55 -137 -55 -267q0 -98 46.5 -146t125.5 -48
q151 0 258 192l55 -16q-133 -324 -367 -324z" />
    <glyph glyph-name="d" unicode="d" horiz-adv-x="1044" 
d="M756 119q60 0 162 172l53 -15q-59 -135 -132.5 -213.5t-150.5 -78.5q-54 0 -86.5 28.5t-32.5 85.5q0 95 199 475h-29q-203 -345 -307 -469q-112 -133 -233 -133q-80 0 -127 52.5t-47 154.5q0 148 110 334q110 191 271 324q164 135 296 135q80 0 132 -37l90 260
q27 75 8.5 111.5t-86.5 37.5l-111 7l15 51l358 53h41l-416 -1235q-29 -100 23 -100zM260 119q90 0 211.5 151.5t321.5 503.5q-70 102 -185 105q-65 -3 -166 -113q-100 -106 -186 -268q-84 -159 -84 -273q0 -106 88 -106z" />
    <glyph glyph-name="e" unicode="e" horiz-adv-x="837" 
d="M842 836q0 -145 -170 -256q-172 -111 -453 -117q-20 -67 -20 -146q0 -198 178 -198q152 0 260 190l57 -16q-132 -322 -368 -322q-127 0 -199 71.5t-72 213.5q0 152 78 328q75 167 217 290q139 121 287 121q205 0 205 -159zM588 909q-97 0 -197 -112q-99 -111 -153 -271
q194 18 317 111q117 91 117 190q0 82 -84 82z" />
    <glyph glyph-name="f" unicode="f" horiz-adv-x="659" 
d="M831 1475q105 0 163.5 -43t58.5 -109q0 -58 -31 -94.5t-84 -36.5q-73 0 -88 78q0 1 -4.5 31t-10.5 60t-10 42q-109 0 -174 -103q-68 -107 -137 -366h221l-24 -86h-219l-181 -678q-89 -326 -190 -469q-104 -143 -285 -143q-93 0 -153 48.5t-60 121.5q0 51 29 82.5t76 31.5
q40 0 64.5 -23.5t29.5 -58.5q21 -107 41 -129q86 0 146.5 109t131.5 377l199 731h-217l24 86h218q75 278 188.5 409.5t277.5 131.5z" />
    <glyph glyph-name="g" unicode="g" horiz-adv-x="923" 
d="M690 934h277l-27 -92h-188q16 -50 16 -101q0 -159 -111 -303q-101 -125 -243 -125q-45 0 -92 13q-37 -40 -37 -78q0 -30 28 -55q27 -24 133 -80l82 -41q137 -73 188.5 -129.5t51.5 -137.5q0 -113 -111.5 -180t-302.5 -67q-213 0 -350 73q-141 77 -141 191q0 196 377 233
q-90 63 -90 135q0 97 131 152q-129 64 -129 225q0 166 110 303q98 125 248 125q113 0 180 -61zM541 510q40 65 67 154t27 153q0 56 -27 83.5t-69 27.5q-88 0 -162 -127q-41 -65 -67.5 -152.5t-26.5 -154.5q0 -56 27 -83.5t69 -27.5q91 0 162 127zM418 -39l-76 37
q-19 8 -47 25q-142 -29 -207 -76.5t-65 -122.5q0 -92 100 -146q100 -53 233 -53q116 0 184 42.5t68 107.5q0 51 -41 91.5t-149 94.5z" />
    <glyph glyph-name="h" unicode="h" horiz-adv-x="1056" 
d="M508 -29q-73 0 -117.5 38.5t-44.5 103.5q0 61 31 99t84 38q55 0 73.5 -43.5t4.5 -97.5q-13 -52 8 -78q119 40 221 252t102 385q0 190 -118 190q-128 0 -293 -229q-168 -233 -312 -629h-135l406 1196q25 75 9 111.5t-79 40.5l-78 6l13 47l315 53h45l-184 -545
q-69 -208 -219 -512h28q162 319 279 461q113 137 244 137q227 0 227 -266q0 -137 -66 -317q-64 -174 -186 -308q-124 -133 -258 -133z" />
    <glyph glyph-name="i" unicode="i" horiz-adv-x="606" 
d="M623 1196q-26 -28 -65 -34t-73.5 7t-58 44.5t-20.5 72.5q0 54 36 89.5t90 35.5t89.5 -35.5t35.5 -89.5q0 -56 -34 -90zM209 -18q-53 0 -85 29t-32 87q0 68 43 166l207 477q52 117 -14 117q-63 0 -164 -174l-58 16q135 295 293 295q119 0 119 -116q0 -64 -45 -166
l-207 -477q-50 -117 15 -117q62 0 163 174l58 -17q-66 -147 -136 -220.5t-157 -73.5z" />
    <glyph glyph-name="j" unicode="j" horiz-adv-x="538" 
d="M606 1196q-26 -28 -65 -34t-73.5 7t-58 44.5t-20.5 72.5q0 54 36.5 89.5t90.5 35.5t89.5 -35.5t35.5 -89.5q0 -55 -35 -90zM-182 -442q-91 0 -150 49t-59 119q0 54 27.5 85t74.5 31q51 0 74 -33t33 -98q9 -56 28 -82q60 1 114 93.5t130 310.5l227 659q17 50 24.5 81
t7.5 50.5t-7.5 27t-24.5 7.5q-57 0 -159 -170l-58 17q67 143 136 216.5t153 73.5q121 0 121 -112q0 -52 -41 -170l-215 -635q-179 -520 -436 -520z" />
    <glyph glyph-name="k" unicode="k" horiz-adv-x="1087" 
d="M885 250q88 0 88 -92q0 -73 -65.5 -122.5t-157.5 -49.5q-119 0 -224.5 125t-171.5 356q-115 -206 -207 -467h-135l406 1196q25 75 9 111.5t-79 40.5l-78 6l13 47l317 53h43l-184 -545q-69 -208 -219 -512h28q169 328 285 465q115 133 258 133q94 0 149.5 -50t55.5 -146
q0 -139 -135.5 -227.5t-378.5 -100.5q38 -159 114 -291q78 -134 127 -151q23 41 37 96q12 45 27 76q27 49 78 49zM758 879q-82 0 -182.5 -97.5t-202.5 -279.5q491 24 491 266q0 111 -106 111z" />
    <glyph glyph-name="l" unicode="l" horiz-adv-x="606" 
d="M203 -18q-57 0 -89 30.5t-32 87.5q0 59 43 189l307 907q26 75 9.5 111.5t-79.5 40.5l-77 6l14 47l315 53h43l-395 -1173q-33 -95 -33 -123q0 -39 33 -39q89 0 227 237l56 -16q-92 -192 -171.5 -275t-170.5 -83z" />
    <glyph glyph-name="m" unicode="m" horiz-adv-x="1509" 
d="M1137 -18q-41 2 -69 18t-43 48t-5.5 88.5t45.5 131.5l180 402q45 96 45 139q0 49 -55 49q-62 0 -164 -135q-110 -145 -199 -328q-90 -176 -174 -395h-135l219 668q31 98 31 135q0 55 -53 55q-104 0 -244 -248q-143 -248 -272 -610h-135l215 721q22 86 22 102q0 35 -33 35
q-57 0 -159 -170l-58 17q131 290 291 290q105 0 105 -108q0 -87 -166 -488h28q152 326 250 459q98 137 215 137q131 0 131 -129q0 -46 -30 -135q-34 -101 -132 -334h29q153 326 260 459q112 139 223 139q64 0 104 -33t40 -94q0 -66 -55 -188l-181 -404q-37 -81 -37 -118
q0 -39 35 -39q60 0 162 172l55 -17q-132 -292 -286 -292z" />
    <glyph glyph-name="n" unicode="n" horiz-adv-x="1134" 
d="M764 -18q-53 0 -87 31.5t-34 86.5q0 53 41 156l160 377q41 100 41 151q0 74 -76 74q-87 0 -199 -139q-108 -134 -204 -330q-89 -182 -162 -389h-135l215 719q22 86 22 104q0 35 -33 35q-60 0 -159 -170l-58 17q131 290 293 290q107 0 107 -110q0 -58 -33 -148
q-36 -99 -139 -340h30q159 326 275 459q118 139 239 139q82 0 128 -39.5t46 -115.5t-53 -203l-149 -352q-41 -96 -41 -127q0 -39 35 -39q59 0 161 172l56 -17q-132 -292 -287 -292z" />
    <glyph glyph-name="o" unicode="o" horiz-adv-x="974" 
d="M360 -29q-140 0 -218.5 78t-78.5 232q0 229 160 471q169 243 389 243q139 0 217 -77.5t78 -231.5q0 -232 -157 -471q-170 -244 -390 -244zM342 45q153 0 297 285q119 247 119 430q0 162 -127 162q-159 0 -297 -285q-119 -241 -119 -432q0 -160 127 -160z" />
    <glyph glyph-name="p" unicode="p" horiz-adv-x="983" 
d="M240 -2l-62 -191q-35 -104 0 -131q39 -31 180 -45l-16 -53h-510l14 53q85 12 123 47q35 33 80 168l297 934l-252 -104l41 123l244 88l82 256l145 14l-78 -246q90 84 195 84q95 0 153 -71.5t58 -206.5q4 -127 -46.5 -260.5t-133.5 -237t-197.5 -168.5t-230.5 -61
q-50 0 -86 8zM510 854l-246 -776q35 -6 64 -6q138 0 245 98q103 90 158 225q51 125 51 254q0 110 -44.5 167.5t-121.5 57.5q-53 0 -106 -20z" />
    <glyph glyph-name="q" unicode="q" horiz-adv-x="956" 
d="M1006 1012l-428 -1254q-26 -69 -8.5 -94.5t100.5 -32.5l-15 -53h-485l14 53q138 9 183 35t75 109l109 301q85 226 219 497h-29q-195 -329 -309 -469q-109 -133 -231 -133q-81 0 -128.5 53t-47.5 154q0 148 110 334q108 188 273 324q164 135 297 135q73 0 126 -35l27 76
h148zM172 225q0 -106 90 -106q89 0 213 157q122 154 320 498q-70 102 -185 105q-64 -3 -168 -113q-104 -113 -186 -268q-84 -159 -84 -273z" />
    <glyph glyph-name="r" unicode="r" horiz-adv-x="864" 
d="M244 0h-135l213 715q24 83 24 108q0 35 -33 35q-57 0 -159 -170l-58 17q131 290 291 290q115 0 115 -110q0 -50 -33 -135q-54 -139 -145 -355h28q190 377 305 510q78 90 152 90q54 0 90.5 -33.5t36.5 -93.5q0 -56 -30.5 -92.5t-80.5 -36.5q-42 0 -61 31q-2 2 -19 37
t-28 45q-100 -75 -238 -324q-144 -261 -235 -528z" />
    <glyph glyph-name="s" unicode="s" horiz-adv-x="739" 
d="M231 -29q-98 0 -160.5 40t-62.5 108q0 50 28 81t77 31q59 0 94 -77q1 -2 18.5 -53t36.5 -74q72 6 119 48.5t47 102.5q0 59 -90 205l-51 84q-59 96 -81 148t-22 106q0 123 99 199q93 75 235 75q99 0 161 -39.5t62 -107.5q0 -51 -27 -82t-77 -31q-59 0 -94 78q-5 11 -19 53
q-13 41 -39 74q-69 -6 -116 -49t-47 -103q0 -36 17 -74t73 -130l53 -84q98 -157 98 -254q0 -121 -96 -199q-94 -76 -236 -76z" />
    <glyph glyph-name="t" unicode="t" horiz-adv-x="690" 
d="M737 848h-250l-235 -627q-12 -34 -12 -59q0 -41 34 -41q80 0 218 190l55 -14q-158 -315 -346 -315q-53 0 -88 31t-35 89t35 142l243 604h-200l24 86h205l68 196l172 17l-99 -213h236z" />
    <glyph glyph-name="u" unicode="u" horiz-adv-x="1128" 
d="M283 -29q-79 0 -124.5 43.5t-45.5 122.5q0 78 55 197l174 385q31 73 31 102q0 37 -35 37q-62 0 -164 -170l-55 17q131 290 291 290q120 0 120 -112q0 -67 -51 -172l-174 -385q-41 -90 -41 -142q0 -71 76 -71q93 0 207 141q111 137 205 330q88 180 161 387h134l-220 -723
q-18 -70 -18 -92q0 -37 37 -37q56 0 155 170l58 -19q-131 -290 -287 -290q-49 0 -79.5 29t-30.5 81q0 51 28 137q34 100 139 346h-28q-166 -328 -277 -462q-119 -140 -241 -140z" />
    <glyph glyph-name="v" unicode="v" horiz-adv-x="1183" 
d="M1018 995q57 0 84.5 -48t27.5 -173q0 -137 -36.5 -277t-102.5 -257q-68 -122 -173.5 -195.5t-225.5 -73.5q-133 0 -212 75.5t-79 203.5q0 235 295 446q-158 162 -279 162q-111 0 -149 -141q22 -2 48 0t58 6t37 4q62 0 62 -65q0 -62 -36 -100t-97 -38q-65 0 -106.5 42
t-41.5 114q0 109 84 213q82 102 211 102q124 0 264 -125l60 101h125q-206 -273 -297 -426q-84 -144 -84 -250q0 -89 53 -135.5t143 -46.5q145 0 256 159q112 157 142 390q-17 30 -76 98q-64 67 -64 127q0 51 29 79.5t80 28.5z" />
    <glyph glyph-name="w" unicode="w" horiz-adv-x="1585" 
d="M1417 995q57 0 84 -46.5t27 -164.5q0 -193 -55.5 -374.5t-163.5 -307.5q-113 -131 -254 -131q-134 0 -211 92q-127 -92 -260 -92q-129 0 -206 72.5t-77 194.5q0 231 295 456q-156 164 -279 164q-113 0 -151 -141q15 -9 74 0q62 10 71 10q60 0 60 -68q0 -61 -36 -98
t-97 -37q-64 0 -106 42.5t-42 113.5q0 106 84 213q82 102 211 102q125 0 264 -127l64 103h121q-204 -272 -289 -418q-88 -149 -88 -264q0 -89 50 -136t138 -47q74 0 148 44q-37 93 -37 227q0 141 37.5 279t109.5 237q73 102 170 102q125 0 125 -174q0 -154 -68 -340
q-67 -186 -182 -319q57 -60 148 -60q66 -1 130 49.5t111 130t77 178.5t34 193q-14 34 -74 107q-59 71 -59 127q0 50 28.5 79t73.5 29zM1063 860q-72 0 -127 -137q-57 -134 -57 -311q0 -104 24 -168q96 110 154 258q57 146 57 268q0 90 -51 90z" />
    <glyph glyph-name="x" unicode="x" horiz-adv-x="1093" 
d="M1018 995q50 0 77 -28t27 -74q0 -75 -45 -135q-47 -62 -100 -62q-29 0 -41.5 10t-11.5 33q0 5 10.5 52t7.5 63q-63 -12 -324 -344l54 -238q19 -87 37 -121t47 -34q69 0 145 196l55 -14q-38 -142 -103.5 -229.5t-152.5 -87.5q-66 0 -98.5 54t-66.5 202l-33 141
q-169 -239 -260 -318q-89 -77 -162 -77q-52 0 -78.5 28t-26.5 74q0 77 48 137q47 62 98 62q53 0 53 -41q0 -1 -10 -53t-8 -66q66 12 327 344l-51 223q-21 95 -39 131.5t-47 36.5q-68 0 -147 -196l-54 14q38 142 103.5 229.5t152.5 87.5q69 0 101.5 -56t66.5 -214l29 -125
q174 242 262 318q89 77 158 77z" />
    <glyph glyph-name="y" unicode="y" horiz-adv-x="974" 
d="M791 995q141 0 141 -243q0 -376 -418 -809q-361 -385 -649 -385q-94 0 -150.5 50t-56.5 124q0 50 27.5 81t74.5 31q44 0 68.5 -29t28.5 -64t9 -71.5t15 -46.5q208 27 336 211q131 192 131 621q0 389 -76 389q-63 0 -127 -211l-57 16q89 336 234 336q48 0 82 -32
t53.5 -95.5t28 -147.5t8.5 -198q0 -341 -88 -577q399 411 434 731q-17 28 -68 69q-39 29 -51 41q-41 38 -41 97q0 51 30.5 81.5t80.5 30.5z" />
    <glyph glyph-name="z" unicode="z" horiz-adv-x="1095" 
d="M750 389q25 26 65 31.5t76 -7.5t60 -46.5t20 -79.5q0 -99 -78 -209q-76 -107 -217 -107q-54 -3 -122.5 26t-125 64.5t-129 62t-133.5 19.5q16 -32 16 -63q0 -44 -26 -71t-74 -27q-94 0 -94 102q0 15 4 47l858 651l-8 11q-45 -32 -96.5 -38.5t-91.5 6t-72 36.5
q-136 104 -195 104q-50 0 -96 -49q-44 -50 -53 -96q27 -6 44 -5.5t47 4t42 3.5q51 0 51 -58q0 -54 -32.5 -88t-86.5 -34q-58 0 -94.5 37t-36.5 98q0 99 84 192q84 90 227 90q162 0 416 -157l195 178l88 -72l-979 -735l8 -14q91 64 184 55q92 -13 148 -51q43 -30 121 -86
q60 -45 96 -45q44 0 90 55q44 53 53 108q-27 6 -44 5.5t-46 -4t-41 -3.5q-28 0 -41.5 14.5t-13.5 51.5q0 61 33 94z" />
    <glyph glyph-name="braceleft" unicode="{" horiz-adv-x="724" 
d="M391 -422h-43q-196 0 -196 174q0 108 114 328q113 216 113 293q0 142 -195 151l21 66q109 2 170 25t94 81t45.5 122.5t20.5 197.5q19 273 92.5 386.5t224.5 113.5h94l-18 -58h-33q-64 0 -115 -38t-71 -103q-22 -69 -43 -238q-22 -161 -43 -243q-35 -138 -116 -204
t-222 -77l-2 -8q97 -10 139.5 -56.5t42.5 -138.5q0 -100 -92 -307q-94 -207 -94 -299q0 -111 106 -111h25z" />
    <glyph glyph-name="bar" unicode="|" horiz-adv-x="565" 
d="M-20 -422l561 1958h84l-562 -1958h-83z" />
    <glyph glyph-name="braceright" unicode="}" horiz-adv-x="724" 
d="M369 1516h43q196 0 196 -175q0 -111 -112 -325q-115 -222 -115 -295q0 -143 194 -152l-20 -65q-108 -2 -168.5 -25.5t-93.5 -81.5t-45.5 -122.5t-20.5 -196.5q-20 -273 -93.5 -386.5t-223.5 -113.5h-94l18 57h33q64 0 114 38.5t70 103.5q25 81 47 241q18 149 39 240
q36 139 116.5 204.5t221.5 76.5l2 8q-97 10 -139.5 56t-42.5 138q0 103 94 310q94 204 94 297q0 110 -108 110h-25z" />
    <glyph glyph-name="asciitilde" unicode="~" horiz-adv-x="1187" 
d="M885 651q-92 0 -230 99q-140 96 -209 96q-123 0 -194 -176h-47q79 272 276 272q92 0 232 -96q137 -98 205 -98q122 0 196 176h47q-83 -273 -276 -273z" />
    <glyph glyph-name="uni00A0" unicode="&#xa0;" horiz-adv-x="428" 
 />
    <glyph glyph-name="exclamdown" unicode="&#xa1;" horiz-adv-x="626" 
d="M344 956q25 27 64 33t73 -7.5t57.5 -45.5t20.5 -72q0 -56 -35.5 -91.5t-91.5 -35.5q-40 -4 -71.5 19.5t-44.5 58t-7 74.5t35 67zM176 -422h-199l338 940h62z" />
    <glyph glyph-name="cent" unicode="&#xa2;" horiz-adv-x="819" 
d="M676 1188l-58 -193q92 0 151.5 -49.5t59.5 -122.5q0 -56 -27.5 -87t-76.5 -31q-75 0 -90 81q-1 6 -3 42.5t-6 62.5t-12 45q-12 0 -14 -2l-244 -811q8 -2 35 -2q145 0 250 190l57 -16q-133 -324 -368 -324h-19l-59 -198h-45l61 202q-207 41 -207 291q0 151 66.5 310
t185.5 278q121 121 260 139l60 195h43zM315 133l238 793q-141 -43 -244 -232q-102 -188 -102 -368q0 -152 108 -193z" />
    <glyph glyph-name="sterling" unicode="&#xa3;" horiz-adv-x="1206" 
d="M1167 1360q99 0 164.5 -47.5t65.5 -120.5q0 -52 -28 -84.5t-77 -32.5q-81 0 -96 86q-2 10 -9 65.5t-13 78.5q-86 7 -171 -81t-182 -266l-211 -397h305l-28 -45h-301l-27 -49q-157 -291 -346 -422l137 -111q156 -129 287 -129q145 0 278 195h62q-84 -177 -174.5 -259.5
t-212.5 -82.5q-156 0 -326 203l-117 145q-72 -35 -135 -35q-118 0 -118 80q0 36 28.5 59t75.5 23q84 0 164 -51q75 75 244 391l22 43h-283l29 45h279l227 422q205 377 487 377z" />
    <glyph glyph-name="currency" unicode="&#xa4;" horiz-adv-x="1505" 
d="M1360 1194l-191 -188q103 -133 103 -324t-103 -324l177 -174l-39 -39l-172 172q-131 -131 -326 -131t-326 131l-188 -188l-39 41l190 190q-100 129 -100 322q0 191 103 324l-179 176l39 39l174 -174q131 131 326 131t326 -131l186 188zM532 420q107 -101 277 -101
q169 0 276 101t107 262t-107 262q-106 100 -276 100q-171 0 -277 -100t-106 -262t106 -262z" />
    <glyph glyph-name="yen" unicode="&#xa5;" horiz-adv-x="1153" 
d="M1001 1272l17 59h346l-16 -59q-38 -3 -74 -31q-38 -30 -131 -145l-475 -570l-9 -24h361l-12 -45h-361l-33 -117h359l-12 -43h-359l-20 -72q-15 -53 -15 -78q0 -44 36 -65.5t124 -22.5l-18 -59h-519l19 59q108 6 153.5 41.5t71.5 124.5l21 72h-365l12 43h365l35 117h-365
l13 45h364l8 28l-164 564q-33 114 -51 147q-16 28 -51 31l18 59h385l-16 -59q-85 -1 -120.5 -20.5t-35.5 -59.5q0 -24 9 -51l141 -531l438 520q49 61 49 93q0 46 -123 49z" />
    <glyph glyph-name="brokenbar" unicode="&#xa6;" horiz-adv-x="567" 
d="M377 668h-84l248 868h84zM229 446h84l-247 -868h-84z" />
    <glyph glyph-name="section" unicode="&#xa7;" horiz-adv-x="927" 
d="M887 1362q81 0 128.5 -40.5t47.5 -98.5q0 -50 -33 -84.5t-78 -34.5q-37 -3 -63.5 20t-38 53.5t-25.5 61t-28 37.5q-40 -3 -66 -10q-133 -118 -133 -271q0 -38 25 -166l86 -378q28 -128 28 -215q0 -144 -77 -278.5t-197 -221.5q-109 -79 -232 -131q-121 -47 -205.5 -45.5
t-130 38.5t-45.5 99q0 50 33 84.5t78 34.5q37 3 63.5 -19.5t38 -53t25.5 -61t27 -38.5q41 3 67 10q131 113 131 270q0 47 -22 166l-86 379q-29 116 -29 215q0 144 77 278.5t198 221.5q115 83 232 130.5t204 47.5zM483 883q0 237 201 370q-154 -50 -264 -178
q-113 -128 -113 -313q0 -81 33 -227l72 -340q18 -105 18 -158q0 -242 -203 -371q154 50 267 178q110 128 110 314q0 78 -31 227l-71 340q-19 111 -19 158z" />
    <glyph glyph-name="dieresis" unicode="&#xa8;" horiz-adv-x="1228" 
d="M442 1182q-65 -3 -92.5 51.5t0 109.5t92.5 52q44 0 74.5 -31.5t30.5 -75.5t-30.5 -75t-74.5 -31zM881 1212q-31 -31 -76 -30.5t-74 32.5q-31 31 -31 74.5t31 75.5q29 31 74 31t76 -31q29 -31 29 -76t-29 -76z" />
    <glyph glyph-name="copyright" unicode="&#xa9;" horiz-adv-x="2099" 
d="M1204 1620q125 0 242.5 -25t229.5 -83.5t194.5 -145t133 -219t50.5 -295.5q0 -186 -64.5 -365t-185.5 -331q-126 -158 -329.5 -250t-448.5 -92q-124 0 -241.5 25.5t-229 84t-194.5 145t-133 218t-50 293.5q0 227 93.5 442.5t271.5 370.5q120 105 292 166t369 61z
M1028 -84q209 0 387 81.5t289 219.5q109 135 168 297.5t59 329.5q0 174 -62 309t-171 213q-213 152 -496 152q-172 0 -320.5 -54.5t-253.5 -146.5t-180.5 -212t-112 -252t-36.5 -265q0 -101 22 -189.5t61.5 -156t94 -122.5t118.5 -92.5t136.5 -63t146.5 -37t150 -11.5z
M1034 201q-178 0 -293 106q-118 103 -118 314q0 241 157 430q155 186 420 186q61 0 123.5 -15.5t100.5 -30.5t40 -15q23 0 47 47h62l-90 -318h-72q4 62 4 64q0 194 -203 194q-188 0 -299 -166q-110 -168 -110 -385q0 -164 67.5 -251t176.5 -87q96 0 168 72t133 223h71
l-84 -293q-141 -75 -301 -75z" />
    <glyph glyph-name="ordfeminine" unicode="&#xaa;" horiz-adv-x="835" 
d="M756 750q42 0 112 116l43 -12q-95 -215 -215 -215q-94 0 -94 86q0 69 143 328h-24q-144 -239 -225 -330q-80 -92 -172 -92q-66 0 -102 39.5t-36 111.5q0 165 174 357t328 192q56 0 96 -24l19 53h125l-187 -537q-27 -73 15 -73zM373 750q65 0 153.5 103t225.5 329
q-57 72 -140 75q-73 -6 -188 -163q-115 -160 -115 -273q0 -71 64 -71zM756 440h-662l25 80h661z" />
    <glyph glyph-name="guillemotleft" unicode="&#xab;" horiz-adv-x="952" 
d="M465 887h117l-400 -422l170 -402h-116l-203 412zM827 887h117l-399 -422l170 -402h-117l-203 412z" />
    <glyph glyph-name="logicalnot" unicode="&#xac;" horiz-adv-x="1187" 
d="M154 807h917v-504h-82v422h-835v82z" />
    <glyph glyph-name="uni00AD" unicode="&#xad;" horiz-adv-x="675" 
d="M104 604h533l-35 -127h-532z" />
    <glyph glyph-name="registered" unicode="&#xae;" horiz-adv-x="1234" 
d="M805 1599q205 0 334 -129t129 -331q0 -203 -129 -332t-334 -129q-203 0 -332 129q-131 128 -131 332q0 203 131 331q129 129 332 129zM524 854q108 -111 281 -111q172 0 280 111q109 109 109 285q0 174 -109 286q-109 109 -280 109q-172 0 -281 -109q-108 -111 -108 -286
q0 -177 108 -285zM971 1274q0 -90 -90 -125l159 -234v-28h-100l-152 248h-43v-154q0 -37 12 -51t50 -15v-28h-215v28q38 1 49.5 15.5t11.5 56.5v307q0 39 -11.5 54t-47.5 16v29h223q154 0 154 -119zM745 1358v-187h29q107 0 107 99q0 88 -93 88h-43z" />
    <glyph glyph-name="overscore" unicode="&#xaf;" horiz-adv-x="1228" 
d="M307 1200l23 80h540l-22 -80h-541z" />
    <glyph glyph-name="degree" unicode="&#xb0;" horiz-adv-x="704" 
d="M774 1081q-74 -77 -194 -77q-122 0 -193 77q-74 77 -74 199t73 198t194 76t193.5 -76t72.5 -198q0 -121 -72 -199zM436 1153q49 -49 144 -49q93 0 145 49q49 49 49 127q0 77 -51.5 126.5t-142.5 49.5t-143 -49.5t-52 -126.5q0 -79 51 -127z" />
    <glyph glyph-name="plusminus" unicode="&#xb1;" horiz-adv-x="1187" 
d="M633 1022v-266h418v-82h-418v-266h-82v266h-418v82h418v266h82zM1051 207h-918v82h918v-82z" />
    <glyph glyph-name="two.sups" unicode="&#xb2;" horiz-adv-x="897" 
d="M324 780h307q101 0 149 39q50 41 99 174h63l-98 -342h-668l33 129l240 150q201 129 293 232t92 212q0 78 -52 123t-145 45q-206 0 -252 -211h-63q14 145 101.5 230.5t242.5 85.5q141 0 228 -64t87 -188q0 -125 -104 -234.5t-347 -255.5z" />
    <glyph glyph-name="three.sups" unicode="&#xb3;" horiz-adv-x="884" 
d="M434 1626h610l-30 -129l-418 -295q146 2 239 -67.5t93 -200.5q0 -134 -99 -218.5t-278 -84.5q-153 0 -244.5 55t-91.5 143q0 50 27 78.5t71 28.5q30 0 51.5 -16t26.5 -37q5 -18 2 -76q-4 -69 -2 -82q62 -33 150 -33q119 0 183 59t64 154q0 218 -352 178l25 95l442 319
h-291q-88 0 -123 -24q-34 -24 -75 -142h-66z" />
    <glyph glyph-name="acute" unicode="&#xb4;" horiz-adv-x="1228" 
d="M367 1094h-91l254 299h170z" />
    <glyph glyph-name="uni00B5" unicode="&#xb5;" horiz-adv-x="1001" 
d="M815 965q18 13 63.5 18.5t84.5 -5.5t36 -40q-224 -299 -327 -467q-94 -155 -94 -233q0 -101 104 -101q66 0 114.5 30.5t112.5 106.5h21q-70 -164 -135 -233.5t-162 -69.5q-70 0 -118 47.5t-48 124.5q-66 -91 -128 -131.5t-146 -40.5q-131 0 -175 103q-26 -95 -26 -178
q0 -176 123 -258q-8 -32 -39.5 -56t-71.5 -24q-59 0 -95 56.5t-36 137.5q0 193 133 453q15 103 96 272q85 175 254 473q15 12 47.5 19.5t66 8t58 -11.5t23.5 -36q-240 -288 -344 -445q-105 -156 -105 -245q0 -109 140 -109q134 0 235 98q45 187 338 736z" />
    <glyph glyph-name="paragraph" unicode="&#xb6;" horiz-adv-x="1148" 
d="M221 -442q-132 0 -206 54.5t-74 147.5q0 66 38 104t95 38q85 0 112 -86q3 -11 10 -85t11 -91q18 -11 55 -11q133 0 234.5 101.5t160.5 302.5l353 1235h-103l-202 -715h-166q-153 0 -244.5 86.5t-91.5 234.5q0 179 121 318t346 139h630l-18 -63q-121 -3 -162 -33t-71 -141
l-297 -1053q-135 -483 -531 -483z" />
    <glyph glyph-name="middot" unicode="&#xb7;" horiz-adv-x="620" 
d="M379 604q-54 0 -89.5 35t-35.5 90t35.5 91t89.5 36q55 0 91 -36t36 -91t-35.5 -90t-91.5 -35z" />
    <glyph glyph-name="cedilla" unicode="&#xb8;" horiz-adv-x="1228" 
d="M174 10l-84 -121q65 -14 105.5 -56t40.5 -107q0 -71 -50 -119.5t-139 -48.5q-75 0 -124.5 32.5t-49.5 87.5q0 27 16 47.5t41 20.5q51 0 54 -61v-68q23 -10 51 -10q52 0 81 27t29 67q0 101 -163 119l131 190h61z" />
    <glyph glyph-name="one.sups" unicode="&#xb9;" horiz-adv-x="690" 
d="M768 1626l-233 -811q-18 -71 6 -92q22 -22 147 -25l-12 -47h-502l12 47q122 3 158 25q34 18 55 92l203 703l-205 -115l31 108l205 115h135z" />
    <glyph glyph-name="ordmasculine" unicode="&#xba;" horiz-adv-x="782" 
d="M449 631q-112 0 -174 57t-62 170q0 163 111 316q116 174 294 174q109 0 171.5 -57.5t62.5 -170.5q0 -150 -109 -315q-125 -174 -294 -174zM432 692q112 0 211 199q82 165 82 289q0 106 -92 106q-117 0 -211 -199q-82 -171 -82 -288q0 -107 92 -107zM125 520h575l-24 -80
h-578z" />
    <glyph glyph-name="guillemotright" unicode="&#xbb;" horiz-adv-x="950" 
d="M231 887h117l203 -412l-432 -412h-117l399 422zM594 887h117l202 -412l-432 -412h-116l399 422z" />
    <glyph glyph-name="onequarter" unicode="&#xbc;" horiz-adv-x="1277" 
d="M504 762l-10 -37h-344l10 37q79 1 102.5 15t40.5 69l133 465l-135 -78l23 82l137 78h104l-157 -547q-22 -44 -2.5 -63.5t98.5 -20.5zM-6 0l1208 1331h88l-1208 -1331h-88zM1067 668h104l-106 -373h127l-27 -88h-127l-59 -207h-102l59 207h-305l24 88zM1042 578l-315 -283
h234z" />
    <glyph glyph-name="onehalf" unicode="&#xbd;" horiz-adv-x="1318" 
d="M504 762l-10 -37h-344l10 37q79 1 102.5 15t40.5 69l133 465l-135 -78l23 82l137 78h104l-157 -547q-22 -44 -2.5 -63.5t98.5 -20.5zM-6 0l1208 1331h88l-1208 -1331h-88zM1212 510q0 -83 -67.5 -155t-229.5 -173l-143 -86h199q70 0 103 26t63 111h47l-68 -233h-454
l24 96l168 105q129 86 187.5 152.5t58.5 138.5q0 51 -34 80.5t-95 29.5q-127 0 -162 -135h-45q11 101 69 158t166 57q93 0 153 -44t60 -128z" />
    <glyph glyph-name="threequarters" unicode="&#xbe;" horiz-adv-x="1411" 
d="M408 711q-100 0 -162 38.5t-62 100.5q0 35 19.5 55.5t50.5 20.5q43 0 55 -39q4 -5 0.5 -51.5t-2.5 -55.5q42 -22 96 -22q77 0 119.5 38.5t42.5 100.5q0 142 -229 115l18 73l291 213h-194q-54 -1 -67 -9q-22 -12 -48 -74q-5 -10 -10 -23h-47l59 201h414l-25 -95l-276 -196
q96 2 156.5 -44t60.5 -136q0 -94 -67.5 -152.5t-192.5 -58.5zM127 0l1208 1331h88l-1208 -1331h-88zM1200 668h105l-107 -373h127l-27 -88h-127l-59 -207h-102l59 207h-305l24 88zM1176 578l-316 -283h234z" />
    <glyph glyph-name="questiondown" unicode="&#xbf;" horiz-adv-x="802" 
d="M586 793q-35 -34 -84 -34t-84 34t-35 85t35 85t84 34t84 -34t35 -85t-35 -85zM285 -307q243 0 290 201h80q-26 -176 -126 -256t-285 -80q-157 0 -247.5 75t-90.5 201q0 145 110 252q109 109 346 244l142 80h-375l45 153h516l-43 -153l-196 -119q-190 -115 -278.5 -212.5
t-88.5 -199.5q0 -87 52.5 -136.5t148.5 -49.5z" />
    <glyph glyph-name="Agrave" unicode="&#xc0;" horiz-adv-x="1413" 
d="M846 1677l131 -196h-98l-168 196h135zM1004 1411l118 -1110q18 -149 45 -190q25 -45 88 -48l-18 -63h-498l19 63q130 3 176 43q45 39 33 170l-21 187h-536l-142 -205q-57 -80 -57 -125q0 -64 156 -70l-21 -63h-450l18 63q67 3 113 43q41 33 147 183l688 977l-16 145h158z
M874 1137l-405 -588h469z" />
    <glyph glyph-name="Aacute" unicode="&#xc1;" horiz-adv-x="1413" 
d="M1151 1677h164l-309 -196h-132zM1004 1411l118 -1110q18 -149 45 -190q25 -45 88 -48l-18 -63h-498l19 63q130 3 176 43q45 39 33 170l-21 187h-536l-142 -205q-57 -80 -57 -125q0 -64 156 -70l-21 -63h-450l18 63q67 3 113 43q41 33 147 183l688 977l-16 145h158z
M874 1137l-405 -588h469z" />
    <glyph glyph-name="Acircumflex" unicode="&#xc2;" horiz-adv-x="1413" 
d="M1122 1481l-133 141l-227 -141h-107l250 196h174l140 -196h-97zM1004 1411l118 -1110q18 -149 45 -190q25 -45 88 -48l-18 -63h-498l19 63q130 3 176 43q45 39 33 170l-21 187h-536l-142 -205q-57 -80 -57 -125q0 -64 156 -70l-21 -63h-450l18 63q67 3 113 43
q41 33 147 183l688 977l-16 145h158zM874 1137l-405 -588h469z" />
    <glyph glyph-name="Atilde" unicode="&#xc3;" horiz-adv-x="1413" 
d="M821 1583q-89 0 -135 -102h-45q58 196 215 196q68 0 154 -51t127 -51q87 0 133 102h45q-58 -196 -215 -196q-69 0 -152 51q-86 51 -127 51zM1004 1411l118 -1110q18 -149 45 -190q25 -45 88 -48l-18 -63h-498l19 63q130 3 176 43q45 39 33 170l-21 187h-536l-142 -205
q-57 -80 -57 -125q0 -64 156 -70l-21 -63h-450l18 63q67 3 113 43q41 33 147 183l688 977l-16 145h158zM874 1137l-405 -588h469z" />
    <glyph glyph-name="Adieresis" unicode="&#xc4;" horiz-adv-x="1413" 
d="M795 1513q-29 -31 -71.5 -31t-70.5 29t-28 72.5t28 71.5t70.5 27.5t71.5 -29.5t29 -70t-29 -70zM1155 1483q-62 -4 -87.5 48.5t0 104t87.5 45.5q42 0 70 -28t28 -70q0 -43 -27.5 -71.5t-70.5 -28.5zM1004 1411l118 -1110q18 -149 45 -190q25 -45 88 -48l-18 -63h-498
l19 63q130 3 176 43q45 39 33 170l-21 187h-536l-142 -205q-57 -80 -57 -125q0 -64 156 -70l-21 -63h-450l18 63q67 3 113 43q41 33 147 183l688 977l-16 145h158zM874 1137l-405 -588h469z" />
    <glyph glyph-name="Aring" unicode="&#xc5;" horiz-adv-x="1413" 
d="M1092 1516q-52 -52 -138 -52q-83 0 -135 52q-53 53 -53 133t53 133q51 51 135 51q87 0 138 -51t51 -133t-51 -133zM954 1772q-57 0 -91 -33.5t-34 -89.5t34 -89.5t91 -33.5q56 0 90.5 34t34.5 89t-34.5 89t-90.5 34zM1004 1411l118 -1110q18 -149 45 -190q25 -45 88 -48
l-18 -63h-498l19 63q130 3 176 43q45 39 33 170l-21 187h-536l-142 -205q-57 -80 -57 -125q0 -64 156 -70l-21 -63h-450l18 63q67 3 113 43q41 33 147 183l688 977l-16 145h158zM874 1137l-405 -588h469z" />
    <glyph glyph-name="AE" unicode="&#xc6;" horiz-adv-x="1968" 
d="M897 1393h1167l-102 -353h-84q18 80 18 131q0 86 -50.5 117t-176.5 31h-272l-164 -571h149q151 0 201 36q53 38 105 174h77l-141 -495h-78q15 86 15 117q0 65 -39 79q-40 15 -162 15h-148l-118 -416q-15 -53 -15 -80q0 -104 138 -104h155q145 0 217 63q71 62 174 279h84
l-143 -416h-1030l16 63q120 3 162 31q40 27 70 137l65 232h-526l-160 -180q-102 -114 -102 -160q0 -54 153 -60l-16 -63h-440l18 63q47 3 106 52q69 58 183 188l809 905q41 47 41 70q0 51 -174 51zM537 549h477l223 780h-8z" />
    <glyph glyph-name="Ccedilla" unicode="&#xc7;" horiz-adv-x="1443" 
d="M1470 1403h78l-127 -445h-84q4 54 4 80q0 299 -337 299q-155 0 -282 -67.5t-204 -182.5q-153 -229 -153 -528q0 -253 124 -377q127 -127 306 -127q146 0 256 106t202 326h84l-116 -407q-196 -106 -418 -109l-58 -82q65 -14 105.5 -56t40.5 -107q0 -71 -50 -119.5
t-139 -48.5q-75 0 -124.5 32.5t-49.5 87.5q0 27 16.5 47.5t41.5 20.5q50 0 53 -61q0 -5 -0.5 -21.5t-0.5 -29.5t1 -17q23 -10 51 -10q52 0 81.5 27t29.5 67q0 101 -164 119l106 153q-244 12 -409 166q-164 153 -164 432q0 165 54.5 316.5t156.5 271.5q105 123 266 192.5
t354 69.5q70 0 135.5 -8.5t110.5 -21t79 -25t54 -21t23 -8.5q29 0 67 66z" />
    <glyph glyph-name="Egrave" unicode="&#xc8;" horiz-adv-x="1353" 
d="M885 1677l131 -196h-98l-168 196h135zM334 1329l16 64h1100l-102 -353h-86q18 80 18 131q0 86 -50.5 117t-176.5 31h-361l-164 -571h238q153 0 203 36q53 38 102 174h78l-139 -495h-80q14 66 14 117q0 65 -39 79q-40 15 -164 15h-233l-119 -416q-12 -47 -12 -80
q0 -104 133 -104h242q146 0 221 63q71 62 174 279h84l-144 -416h-1136l18 63q114 3 166 37q51 29 82 140l266 925q13 50 13 74q0 53 -35.5 70.5t-126.5 19.5z" />
    <glyph glyph-name="Eacute" unicode="&#xc9;" horiz-adv-x="1353" 
d="M1190 1677h164l-310 -196h-131zM334 1329l16 64h1100l-102 -353h-86q18 80 18 131q0 86 -50.5 117t-176.5 31h-361l-164 -571h238q153 0 203 36q53 38 102 174h78l-139 -495h-80q14 66 14 117q0 65 -39 79q-40 15 -164 15h-233l-119 -416q-12 -47 -12 -80
q0 -104 133 -104h242q146 0 221 63q71 62 174 279h84l-144 -416h-1136l18 63q114 3 166 37q51 29 82 140l266 925q13 50 13 74q0 53 -35.5 70.5t-126.5 19.5z" />
    <glyph glyph-name="Ecircumflex" unicode="&#xca;" horiz-adv-x="1353" 
d="M1163 1481l-133 141l-227 -141h-107l250 196h174l140 -196h-97zM334 1329l16 64h1100l-102 -353h-86q18 80 18 131q0 86 -50.5 117t-176.5 31h-361l-164 -571h238q153 0 203 36q53 38 102 174h78l-139 -495h-80q14 66 14 117q0 65 -39 79q-40 15 -164 15h-233l-119 -416
q-12 -47 -12 -80q0 -104 133 -104h242q146 0 221 63q71 62 174 279h84l-144 -416h-1136l18 63q114 3 166 37q51 29 82 140l266 925q13 50 13 74q0 53 -35.5 70.5t-126.5 19.5z" />
    <glyph glyph-name="Edieresis" unicode="&#xcb;" horiz-adv-x="1353" 
d="M836 1513q-29 -31 -71.5 -31t-70.5 29t-28 72.5t28 71.5t70.5 27.5t71.5 -29.5t29 -70t-29 -70zM1196 1483q-62 -4 -87.5 48.5t0 104t87.5 45.5q42 0 70 -28t28 -70q0 -43 -27.5 -71.5t-70.5 -28.5zM334 1329l16 64h1100l-102 -353h-86q18 80 18 131q0 86 -50.5 117
t-176.5 31h-361l-164 -571h238q153 0 203 36q53 38 102 174h78l-139 -495h-80q14 66 14 117q0 65 -39 79q-40 15 -164 15h-233l-119 -416q-12 -47 -12 -80q0 -104 133 -104h242q146 0 221 63q71 62 174 279h84l-144 -416h-1136l18 63q114 3 166 37q51 29 82 140l266 925
q13 50 13 74q0 53 -35.5 70.5t-126.5 19.5z" />
    <glyph glyph-name="Igrave" unicode="&#xcc;" horiz-adv-x="759" 
d="M684 1481h-98l-168 196h135zM528 0h-577l18 63q114 3 166 37q51 29 82 140l262 909q17 73 17 90q0 53 -35.5 70.5t-126.5 19.5l16 64h541l-17 -64q-118 -3 -155 -35q-43 -34 -70 -125l-272 -948q-10 -38 -10 -59q0 -51 41 -74.5t139 -24.5z" />
    <glyph glyph-name="Iacute" unicode="&#xcd;" horiz-adv-x="759" 
d="M858 1677h164l-309 -196h-131zM528 0h-577l18 63q114 3 166 37q51 29 82 140l262 909q17 73 17 90q0 53 -35.5 70.5t-126.5 19.5l16 64h541l-17 -64q-118 -3 -155 -35q-43 -34 -70 -125l-272 -948q-10 -38 -10 -59q0 -51 41 -74.5t139 -24.5z" />
    <glyph glyph-name="Icircumflex" unicode="&#xce;" horiz-adv-x="759" 
d="M831 1481l-133 141l-227 -141h-106l249 196h174l140 -196h-97zM334 1329l16 64h541l-17 -64q-118 -3 -155 -35q-43 -34 -70 -125l-272 -948q-10 -38 -10 -59q0 -51 41 -74.5t139 -24.5l-19 -63h-577l18 63q114 3 166 37q51 29 82 140l262 909q17 73 17 90
q0 53 -35.5 70.5t-126.5 19.5z" />
    <glyph glyph-name="Idieresis" unicode="&#xcf;" horiz-adv-x="759" 
d="M504 1513q-29 -31 -71.5 -31t-70.5 29t-28 72.5t28 71.5t70.5 27.5t71.5 -29.5t29 -70t-29 -70zM864 1483q-62 -4 -87.5 48.5t0 104t87.5 45.5q42 0 70.5 -28.5t28.5 -69.5q0 -43 -28 -71.5t-71 -28.5zM528 0h-577l18 63q114 3 166 37q51 29 82 140l262 909q17 73 17 90
q0 53 -35.5 70.5t-126.5 19.5l16 64h541l-17 -64q-118 -3 -155 -35q-43 -34 -70 -125l-272 -948q-10 -38 -10 -59q0 -51 41 -74.5t139 -24.5z" />
    <glyph glyph-name="Eth" unicode="&#xd0;" horiz-adv-x="1519" 
d="M350 1393h438q148 3 289.5 -36.5t245.5 -129.5q71 -64 113.5 -168.5t42.5 -233.5q5 -162 -72 -332.5t-233 -295.5q-110 -89 -286 -143t-386 -54h-551l18 63q114 3 166 37q51 29 82 140l123 426h-174l20 63h172l125 436q13 50 13 74q0 53 -35.5 70.5t-126.5 19.5zM557 74
q143 0 264.5 46t205 122t143 174.5t87 203.5t27.5 209q0 138 -43.5 242t-118.5 156q-139 92 -317 92h-113l-170 -590h436l-20 -63h-434l-109 -377q-14 -46 -14 -88q0 -127 176 -127z" />
    <glyph glyph-name="Ntilde" unicode="&#xd1;" horiz-adv-x="1501" 
d="M895 1583q-89 0 -135 -102h-45q58 196 215 196q67 0 153 -51t127 -51q86 0 133 102h46q-58 -196 -215 -196q-69 0 -152 51q-86 51 -127 51zM1165 1329l19 64h506l-19 -64q-95 -3 -135 -37q-44 -35 -78 -159l-328 -1137h-126l-467 1094l-230 -797q-28 -106 -28 -143
q0 -50 39.5 -66t164.5 -21l-18 -63h-526l18 63q129 3 170 41q40 37 84 189l266 928q-31 60 -68.5 81t-115.5 27l18 64h285l500 -1182l264 922q20 73 20 108q0 54 -41.5 70t-173.5 18z" />
    <glyph glyph-name="Ograve" unicode="&#xd2;" horiz-adv-x="1546" 
d="M1016 1481h-98l-168 196h135zM743 -29q-251 0 -417 146q-164 144 -164 415q0 315 184 590q92 137 243 218t335 81q252 0 417 -143q164 -144 164 -418q0 -318 -182 -590q-92 -137 -244 -218t-336 -81zM735 55q142 0 259.5 82t185.5 217q133 263 133 543q0 208 -102.5 324
t-278.5 116q-142 0 -259.5 -82t-185.5 -217q-133 -263 -133 -542q0 -208 103 -324.5t278 -116.5z" />
    <glyph glyph-name="Oacute" unicode="&#xd3;" horiz-adv-x="1546" 
d="M1190 1677h164l-310 -196h-131zM743 -29q-251 0 -417 146q-164 144 -164 415q0 315 184 590q92 137 243 218t335 81q252 0 417 -143q164 -144 164 -418q0 -318 -182 -590q-92 -137 -244 -218t-336 -81zM735 55q142 0 259.5 82t185.5 217q133 263 133 543
q0 208 -102.5 324t-278.5 116q-142 0 -259.5 -82t-185.5 -217q-133 -263 -133 -542q0 -208 103 -324.5t278 -116.5z" />
    <glyph glyph-name="Ocircumflex" unicode="&#xd4;" horiz-adv-x="1546" 
d="M1163 1481l-133 141l-227 -141h-107l250 196h174l140 -196h-97zM924 1421q252 0 417 -143q164 -144 164 -418q0 -318 -182 -590q-92 -137 -244 -218t-336 -81q-251 0 -417 146q-164 144 -164 415q0 315 184 590q92 137 243 218t335 81zM735 55q142 0 259.5 82t185.5 217
q133 263 133 543q0 208 -102.5 324t-278.5 116q-142 0 -259.5 -82t-185.5 -217q-133 -263 -133 -542q0 -208 103 -324.5t278 -116.5z" />
    <glyph glyph-name="Otilde" unicode="&#xd5;" horiz-adv-x="1546" 
d="M895 1677q-157 0 -215 -196h45q47 102 135 102q41 0 127 -51q83 -51 152 -51q157 0 215 196h-45q-47 -102 -133 -102q-41 0 -127 51t-154 51zM743 -29q-251 0 -417 146q-164 144 -164 415q0 315 184 590q92 137 243 218t335 81q252 0 417 -143q164 -144 164 -418
q0 -318 -182 -590q-92 -137 -244 -218t-336 -81zM735 55q142 0 259.5 82t185.5 217q133 263 133 543q0 208 -102.5 324t-278.5 116q-142 0 -259.5 -82t-185.5 -217q-133 -263 -133 -542q0 -208 103 -324.5t278 -116.5z" />
    <glyph glyph-name="Odieresis" unicode="&#xd6;" horiz-adv-x="1546" 
d="M836 1513q-29 -31 -71.5 -31t-70.5 29t-28 72.5t28 71.5t70.5 27.5t71.5 -29.5t29 -70t-29 -70zM1196 1483q-62 -4 -87.5 48.5t0 104t87.5 45.5q42 0 70 -28t28 -70q0 -43 -27.5 -71.5t-70.5 -28.5zM743 -29q-251 0 -417 146q-164 144 -164 415q0 315 184 590
q92 137 243 218t335 81q252 0 417 -143q164 -144 164 -418q0 -318 -182 -590q-92 -137 -244 -218t-336 -81zM735 55q142 0 259.5 82t185.5 217q133 263 133 543q0 208 -102.5 324t-278.5 116q-142 0 -259.5 -82t-185.5 -217q-133 -263 -133 -542q0 -208 103 -324.5
t278 -116.5z" />
    <glyph glyph-name="multiply" unicode="&#xd7;" horiz-adv-x="1187" 
d="M952 983l58 -57l-326 -326l326 -326l-58 -57l-325 326l-326 -326l-57 57l325 326l-325 326l57 57l326 -326z" />
    <glyph glyph-name="Oslash" unicode="&#xd8;" horiz-adv-x="1546" 
d="M1489 1393l-123 -142q139 -151 139 -391q0 -318 -182 -590q-92 -137 -244 -218t-336 -81q-238 0 -387 119l-80 -90h-92l119 137q-141 147 -141 395q0 315 184 590q92 137 243 218t335 81q236 0 389 -123l82 95h94zM354 496q0 -146 49 -244l826 948q-101 137 -297 137
q-142 0 -259.5 -82t-185.5 -217q-133 -263 -133 -542zM735 55q142 0 259.5 82t185.5 217q133 263 133 543q0 137 -47 240l-824 -947q99 -135 293 -135z" />
    <glyph glyph-name="Ugrave" unicode="&#xd9;" horiz-adv-x="1413" 
d="M997 1481h-98l-168 196h135zM651 -29q-190 0 -319 97q-127 95 -127 286q0 131 45 267l151 520q27 95 27 121q0 37 -24 51t-85 16l19 64h491l-18 -64q-119 -3 -158 -31q-38 -26 -69 -139l-170 -584q-33 -112 -33 -198q0 -136 82 -208.5t217 -72.5q323 0 440 408l174 618
q27 88 27 121q0 52 -36 68t-140 18l18 64h432l-18 -64q-75 -3 -111 -31t-63 -133l-189 -667q-34 -119 -73 -203t-101 -160q-133 -164 -389 -164z" />
    <glyph glyph-name="Uacute" unicode="&#xda;" horiz-adv-x="1413" 
d="M1171 1677h164l-309 -196h-131zM651 -29q-190 0 -319 97q-127 95 -127 286q0 131 45 267l151 520q27 95 27 121q0 37 -24 51t-85 16l19 64h491l-18 -64q-119 -3 -158 -31q-38 -26 -69 -139l-170 -584q-33 -112 -33 -198q0 -136 82 -208.5t217 -72.5q323 0 440 408
l174 618q27 88 27 121q0 52 -36 68t-140 18l18 64h432l-18 -64q-75 -3 -111 -31t-63 -133l-189 -667q-34 -119 -73 -203t-101 -160q-133 -164 -389 -164z" />
    <glyph glyph-name="Ucircumflex" unicode="&#xdb;" horiz-adv-x="1413" 
d="M1145 1481l-133 141l-228 -141h-106l250 196h174l139 -196h-96zM1145 1329l18 64h432l-18 -64q-75 -3 -111 -31t-63 -133l-189 -667q-34 -119 -73 -203t-101 -160q-133 -164 -389 -164q-190 0 -319 97q-127 95 -127 286q0 131 45 267l151 520q27 95 27 121q0 37 -24 51
t-85 16l19 64h491l-18 -64q-119 -3 -158 -31q-38 -26 -69 -139l-170 -584q-33 -112 -33 -198q0 -136 82 -208.5t217 -72.5q323 0 440 408l174 618q27 88 27 121q0 52 -36 68t-140 18z" />
    <glyph glyph-name="Udieresis" unicode="&#xdc;" horiz-adv-x="1413" 
d="M817 1513q-29 -31 -71 -31t-70 29t-28 72.5t28 71.5t70 27.5t71 -29.5t29 -70t-29 -70zM1178 1483q-43 0 -72.5 31t-29 69.5t29.5 71.5q21 21 52 25t57.5 -6.5t45 -35t15.5 -55.5q0 -43 -27.5 -71.5t-70.5 -28.5zM651 -29q-190 0 -319 97q-127 95 -127 286q0 131 45 267
l151 520q27 95 27 121q0 37 -24 51t-85 16l19 64h491l-18 -64q-119 -3 -158 -31q-38 -26 -69 -139l-170 -584q-33 -112 -33 -198q0 -136 82 -208.5t217 -72.5q323 0 440 408l174 618q27 88 27 121q0 52 -36 68t-140 18l18 64h432l-18 -64q-75 -3 -111 -31t-63 -133
l-189 -667q-34 -119 -73 -203t-101 -160q-133 -164 -389 -164z" />
    <glyph glyph-name="Yacute" unicode="&#xdd;" horiz-adv-x="1273" 
d="M1126 1677h164l-309 -196h-131zM1096 1329l16 64h391l-16 -64q-38 -3 -82 -35q-39 -29 -141 -149l-516 -594l-91 -313q-14 -49 -14 -80q0 -48 41 -71t139 -24l-18 -63h-584l19 63q121 4 173 42.5t79 132.5l90 313l-193 592q-40 121 -59 153q-24 30 -58 33l19 64h432
l-18 -64q-168 -6 -168 -86q0 -21 18 -92l154 -508l469 539q49 55 49 90q0 54 -131 57z" />
    <glyph glyph-name="Thorn" unicode="&#xde;" horiz-adv-x="1214" 
d="M635 1118h162q436 0 436 -325q0 -176 -143 -295q-145 -121 -410 -121h-258l-45 -156q-10 -38 -10 -59q0 -51 41 -74.5t139 -24.5l-19 -63h-577l18 63q114 3 166 37q51 29 82 140l262 909q17 73 17 90q0 53 -35.5 70.5t-126.5 19.5l16 64h541l-17 -64q-118 -3 -155 -35
q-43 -34 -70 -125zM442 451h209q196 0 302 96t106 248q0 249 -297 249h-150z" />
    <glyph glyph-name="germandbls" unicode="&#xdf;" horiz-adv-x="1142" 
d="M901 711q-98 -40 -98 -111q0 -30 53 -133l29 -51q67 -125 67 -195q0 -106 -85 -178t-212 -72q-96 0 -153.5 38.5t-57.5 109.5q0 50 29 81t76 31q38 0 52 -22.5t28 -85.5q10 -51 41 -100q62 6 101.5 49t39.5 108q0 49 -53 152l-31 51q-68 124 -68 182q0 123 175 193
q247 101 247 372q0 134 -58 200.5t-157 66.5q-125 0 -204 -97q-77 -95 -148 -370l-203 -760q-89 -326 -190 -469q-104 -143 -285 -143q-93 0 -153 48.5t-60 121.5q0 51 29 82.5t76 31.5q40 0 64.5 -23.5t29.5 -58.5q21 -107 41 -129q86 0 146.5 109t131.5 377l197 731h-215
l24 86h215l5 16q74 275 197 400t308 125q155 0 271 -84q112 -81 112 -252q0 -287 -354 -428z" />
    <glyph glyph-name="agrave" unicode="&#xe0;" horiz-adv-x="1044" 
d="M666 1393l88 -299h-80l-150 299h142zM756 119q60 0 162 172l53 -15q-59 -135 -132.5 -213.5t-150.5 -78.5q-117 0 -117 114q0 86 199 475h-31q-202 -342 -309 -469q-112 -133 -231 -133q-80 0 -127 52.5t-47 154.5q0 148 110 334q110 191 271 324q164 135 296 135
q77 0 132 -37l24 78h148l-267 -783q-40 -110 17 -110zM258 119q92 0 216 154t319 501q-70 102 -185 105q-65 -3 -166 -113q-100 -106 -186 -268q-84 -159 -84 -273q0 -106 86 -106z" />
    <glyph glyph-name="aacute" unicode="&#xe1;" horiz-adv-x="1044" 
d="M924 1393h170l-334 -299h-90zM858 1012h148l-267 -783q-40 -110 17 -110q60 0 162 172l53 -15q-59 -135 -132.5 -213.5t-150.5 -78.5q-117 0 -117 114q0 86 199 475h-31q-202 -342 -309 -469q-112 -133 -231 -133q-80 0 -127 52.5t-47 154.5q0 148 110 334
q110 191 271 324q164 135 296 135q77 0 132 -37zM258 119q92 0 216 154t319 501q-70 102 -185 105q-65 -3 -166 -113q-100 -106 -186 -268q-84 -159 -84 -273q0 -106 86 -106z" />
    <glyph glyph-name="acircumflex" unicode="&#xe2;" horiz-adv-x="1044" 
d="M862 1094l-69 221l-224 -221h-92l266 299h127l74 -299h-82zM756 119q60 0 162 172l53 -15q-59 -135 -132.5 -213.5t-150.5 -78.5q-117 0 -117 114q0 86 199 475h-31q-202 -342 -309 -469q-112 -133 -231 -133q-80 0 -127 52.5t-47 154.5q0 148 110 334q110 191 271 324
q164 135 296 135q77 0 132 -37l24 78h148l-267 -783q-40 -110 17 -110zM258 119q92 0 216 154t319 501q-70 102 -185 105q-65 -3 -166 -113q-100 -106 -186 -268q-84 -159 -84 -273q0 -106 86 -106z" />
    <glyph glyph-name="atilde" unicode="&#xe3;" horiz-adv-x="1044" 
d="M604 1239q-72 0 -121 -106h-45q20 101 72 155.5t129 54.5q66 0 143 -59q74 -59 115 -59q69 0 121 106h45q-49 -211 -203 -211q-66 0 -141 60q-77 59 -115 59zM858 1012h148l-267 -783q-40 -110 17 -110q60 0 162 172l53 -15q-59 -135 -132.5 -213.5t-150.5 -78.5
q-117 0 -117 114q0 86 199 475h-31q-202 -342 -309 -469q-112 -133 -231 -133q-80 0 -127 52.5t-47 154.5q0 148 110 334q110 191 271 324q164 135 296 135q77 0 132 -37zM258 119q92 0 216 154t319 501q-70 102 -185 105q-65 -3 -166 -113q-100 -106 -186 -268
q-84 -159 -84 -273q0 -106 86 -106z" />
    <glyph glyph-name="adieresis" unicode="&#xe4;" horiz-adv-x="1044" 
d="M569 1182q-65 -3 -92.5 51.5t0 109.5t92.5 52q44 0 74.5 -31.5t30.5 -75.5t-30.5 -75t-74.5 -31zM1008 1212q-31 -31 -76 -30.5t-74 32.5q-31 31 -31 74.5t31 75.5q29 31 74 31t76 -31q29 -31 29 -76t-29 -76zM858 1012h148l-267 -783q-40 -110 17 -110q60 0 162 172
l53 -15q-59 -135 -132.5 -213.5t-150.5 -78.5q-117 0 -117 114q0 86 199 475h-31q-202 -342 -309 -469q-112 -133 -231 -133q-80 0 -127 52.5t-47 154.5q0 148 110 334q110 191 271 324q164 135 296 135q77 0 132 -37zM258 119q92 0 216 154t319 501q-70 102 -185 105
q-65 -3 -166 -113q-100 -106 -186 -268q-84 -159 -84 -273q0 -106 86 -106z" />
    <glyph glyph-name="aring" unicode="&#xe5;" horiz-adv-x="1044" 
d="M860 1130q-53 -53 -139 -53t-139 53q-54 54 -54 136q0 83 54 137q51 51 139 51t139 -51q53 -53 53 -137q0 -83 -53 -136zM815 1358q-35 35 -94 35t-94 -35q-35 -37 -35 -92t35 -90q35 -37 94 -37t94 37q35 35 35 90t-35 92zM756 119q60 0 162 172l53 -15
q-59 -135 -132.5 -213.5t-150.5 -78.5q-117 0 -117 114q0 86 199 475h-31q-202 -342 -309 -469q-112 -133 -231 -133q-80 0 -127 52.5t-47 154.5q0 148 110 334q110 191 271 324q164 135 296 135q77 0 132 -37l24 78h148l-267 -783q-40 -110 17 -110zM258 119q92 0 216 154
t319 501q-70 102 -185 105q-65 -3 -166 -113q-100 -106 -186 -268q-84 -159 -84 -273q0 -106 86 -106z" />
    <glyph glyph-name="ae" unicode="&#xe6;" horiz-adv-x="1421" 
d="M1423 836q0 -145 -170 -256q-172 -111 -452 -117q-21 -76 -21 -152q0 -98 47 -145t127 -47q157 0 265 190l57 -16q-51 -118 -119 -203q-95 -119 -254 -119q-119 0 -188.5 66.5t-69.5 193.5q0 103 60 232h-23q-145 -258 -250 -379q-98 -113 -223 -113q-86 0 -135 52
t-49 149q0 153 110 342q108 188 273 324q165 133 297 133q75 0 126 -39l27 80h131l-47 -133q128 116 285 116q91 0 143.5 -39t52.5 -120zM1169 909q-105 0 -198 -112q-99 -114 -152 -271q196 18 318 111q118 90 118 190q0 82 -86 82zM256 119q95 0 223 156.5t318 496.5
q-72 104 -191 107q-64 -3 -166 -111q-103 -109 -186 -266q-84 -159 -84 -275q0 -108 86 -108z" />
    <glyph glyph-name="ccedilla" unicode="&#xe7;" horiz-adv-x="821" 
d="M623 995q102 0 161.5 -48.5t59.5 -123.5q0 -62 -30.5 -97.5t-84.5 -35.5q-85 0 -94 80q-2 6 -2 68q-3 61 -17 86q-109 -3 -206 -103t-154 -241q-55 -137 -55 -267q0 -98 46.5 -146t125.5 -48q151 0 258 192l55 -16q-133 -324 -367 -324h-24l-57 -82q65 -14 105 -56
t40 -107q0 -71 -50 -119.5t-138 -48.5q-75 0 -125 32.5t-50 87.5q0 27 16.5 47.5t41.5 20.5q50 0 53 -61v-68q23 -10 51 -10q52 0 81.5 27t29.5 67q0 101 -164 119l111 160q-183 47 -183 274q0 157 76 328q76 169 211 292q133 121 279 121z" />
    <glyph glyph-name="egrave" unicode="&#xe8;" horiz-adv-x="837" 
d="M610 1393l88 -299h-80l-149 299h141zM842 836q0 -145 -170 -256q-172 -111 -453 -117q-20 -67 -20 -146q0 -198 178 -198q152 0 260 190l57 -16q-132 -322 -368 -322q-127 0 -199 71.5t-72 213.5q0 152 78 328q75 167 217 290q139 121 287 121q205 0 205 -159zM588 909
q-97 0 -197 -112q-99 -111 -153 -271q194 18 317 111q117 91 117 190q0 82 -84 82z" />
    <glyph glyph-name="eacute" unicode="&#xe9;" horiz-adv-x="837" 
d="M868 1393h170l-333 -299h-91zM637 995q205 0 205 -159q0 -145 -170 -256q-172 -111 -453 -117q-20 -67 -20 -146q0 -198 178 -198q152 0 260 190l57 -16q-132 -322 -368 -322q-127 0 -199 71.5t-72 213.5q0 152 78 328q75 167 217 290q139 121 287 121zM238 526
q194 18 317 111q117 91 117 190q0 82 -84 82q-97 0 -197 -112q-99 -111 -153 -271z" />
    <glyph glyph-name="ecircumflex" unicode="&#xea;" horiz-adv-x="837" 
d="M807 1094l-70 221l-223 -221h-92l266 299h127l74 -299h-82zM637 995q205 0 205 -159q0 -145 -170 -256q-172 -111 -453 -117q-20 -67 -20 -146q0 -198 178 -198q152 0 260 190l57 -16q-132 -322 -368 -322q-127 0 -199 71.5t-72 213.5q0 152 78 328q75 167 217 290
q139 121 287 121zM238 526q194 18 317 111q117 91 117 190q0 82 -84 82q-97 0 -197 -112q-99 -111 -153 -271z" />
    <glyph glyph-name="edieresis" unicode="&#xeb;" horiz-adv-x="837" 
d="M514 1182q-65 -3 -92.5 51.5t0 109.5t92.5 52q44 0 74 -31t30 -76q0 -44 -30 -75t-74 -31zM803 1364q29 31 73.5 31t75.5 -31q29 -31 29 -76t-29 -76q-31 -31 -75.5 -30.5t-73.5 32.5q-31 31 -31 74.5t31 75.5zM637 995q205 0 205 -159q0 -145 -170 -256
q-172 -111 -453 -117q-20 -67 -20 -146q0 -198 178 -198q152 0 260 190l57 -16q-132 -322 -368 -322q-127 0 -199 71.5t-72 213.5q0 152 78 328q75 167 217 290q139 121 287 121zM238 526q194 18 317 111q117 91 117 190q0 82 -84 82q-97 0 -197 -112q-99 -111 -153 -271z
" />
    <glyph glyph-name="igrave" unicode="&#xec;" horiz-adv-x="606" 
d="M428 1393l88 -299h-80l-149 299h141zM209 -18q-53 0 -85 29t-32 87q0 68 43 166l207 477q52 117 -14 117q-63 0 -164 -174l-58 16q135 295 293 295q119 0 119 -116q0 -64 -45 -166l-207 -477q-50 -117 15 -117q62 0 163 174l58 -17q-66 -147 -136 -220.5t-157 -73.5z" />
    <glyph glyph-name="iacute" unicode="&#xed;" horiz-adv-x="606" 
d="M520 1094h-90l254 299h170zM209 -18q-53 0 -85 29t-32 87q0 68 43 166l207 477q52 117 -14 117q-63 0 -164 -174l-58 16q135 295 293 295q119 0 119 -116q0 -64 -45 -166l-207 -477q-50 -117 15 -117q62 0 163 174l58 -17q-66 -147 -136 -220.5t-157 -73.5z" />
    <glyph glyph-name="icircumflex" unicode="&#xee;" horiz-adv-x="606" 
d="M631 1393l74 -299h-82l-70 221l-223 -221h-92l266 299h127zM473 713l-207 -477q-50 -117 15 -117q62 0 163 174l58 -17q-66 -147 -136 -220.5t-157 -73.5q-53 0 -85 29t-32 87q0 68 43 166l207 477q52 117 -14 117q-63 0 -164 -174l-58 16q135 295 293 295
q119 0 119 -116q0 -64 -45 -166z" />
    <glyph glyph-name="idieresis" unicode="&#xef;" horiz-adv-x="606" 
d="M330 1182q-65 -3 -92.5 51.5t0 109.5t92.5 52q44 0 74 -31t30 -76q0 -44 -30 -75t-74 -31zM768 1212q-31 -31 -76 -30.5t-74 32.5q-31 31 -31 74.5t31 75.5q29 31 74 31t76 -31q29 -31 29 -76t-29 -76zM209 -18q-53 0 -85 29t-32 87q0 68 43 166l207 477q52 117 -14 117
q-63 0 -164 -174l-58 16q135 295 293 295q119 0 119 -116q0 -64 -45 -166l-207 -477q-50 -117 15 -117q62 0 163 174l58 -17q-66 -147 -136 -220.5t-157 -73.5z" />
    <glyph glyph-name="eth" unicode="&#xf0;" horiz-adv-x="1017" 
d="M846 1317l188 55l-24 -84l-127 -37q80 -154 80 -387q0 -204 -72 -411q-70 -201 -211 -342q-140 -140 -307 -140q-135 0 -220 87.5t-85 226.5q0 99 35 217.5t98 230.5q64 115 168 188.5t221 73.5q111 0 174.5 -59.5t64.5 -175.5h19q2 18 2 86q0 220 -68 377l-364 -107
l24 84l306 88q-85 134 -230 187l33 63q192 -73 295 -221zM358 49q100 0 203 127q97 123 154 287q55 155 55 270q0 84 -42 129t-107 45q-100 0 -195 -127q-91 -124 -145 -288q-54 -168 -54 -281q0 -80 34.5 -121t96.5 -41z" />
    <glyph glyph-name="ntilde" unicode="&#xf1;" horiz-adv-x="1134" 
d="M664 1343q-77 0 -129 -54.5t-72 -155.5h45q49 106 121 106q37 0 114 -59q75 -60 142 -60q153 0 202 211h-45q-52 -106 -120 -106q-41 0 -115 59q-77 59 -143 59zM764 -18q-53 0 -87 31.5t-34 86.5q0 53 41 156l160 377q41 100 41 151q0 74 -76 74q-87 0 -199 -139
q-108 -134 -204 -330q-89 -182 -162 -389h-135l215 719q22 86 22 104q0 35 -33 35q-60 0 -159 -170l-58 17q131 290 293 290q107 0 107 -110q0 -58 -33 -148q-36 -99 -139 -340h30q159 326 275 459q118 139 239 139q82 0 128 -39.5t46 -115.5t-53 -203l-149 -352
q-41 -96 -41 -127q0 -39 35 -39q59 0 161 172l56 -17q-132 -292 -287 -292z" />
    <glyph glyph-name="ograve" unicode="&#xf2;" horiz-adv-x="974" 
d="M612 1393l88 -299h-79l-150 299h141zM360 -29q-140 0 -218.5 78t-78.5 232q0 229 160 471q169 243 389 243q139 0 217 -77.5t78 -231.5q0 -232 -157 -471q-170 -244 -390 -244zM342 45q153 0 297 285q119 247 119 430q0 162 -127 162q-159 0 -297 -285
q-119 -241 -119 -432q0 -160 127 -160z" />
    <glyph glyph-name="oacute" unicode="&#xf3;" horiz-adv-x="974" 
d="M707 1094h-91l254 299h170zM360 -29q-140 0 -218.5 78t-78.5 232q0 229 160 471q169 243 389 243q139 0 217 -77.5t78 -231.5q0 -232 -157 -471q-170 -244 -390 -244zM342 45q153 0 297 285q119 247 119 430q0 162 -127 162q-159 0 -297 -285q-119 -241 -119 -432
q0 -160 127 -160z" />
    <glyph glyph-name="ocircumflex" unicode="&#xf4;" horiz-adv-x="974" 
d="M809 1094l-70 221l-223 -221h-92l266 299h127l74 -299h-82zM612 995q139 0 217 -77.5t78 -231.5q0 -232 -157 -471q-170 -244 -390 -244q-140 0 -218.5 78t-78.5 232q0 229 160 471q169 243 389 243zM639 330q119 247 119 430q0 162 -127 162q-159 0 -297 -285
q-119 -241 -119 -432q0 -160 127 -160q153 0 297 285z" />
    <glyph glyph-name="otilde" unicode="&#xf5;" horiz-adv-x="974" 
d="M586 1343q-77 0 -129 -54.5t-72 -155.5h45q49 106 121 106q38 0 115 -59q75 -60 141 -60q154 0 203 211h-45q-52 -106 -121 -106q-41 0 -115 59q-77 59 -143 59zM360 -29q-140 0 -218.5 78t-78.5 232q0 229 160 471q169 243 389 243q139 0 217 -77.5t78 -231.5
q0 -232 -157 -471q-170 -244 -390 -244zM342 45q153 0 297 285q119 247 119 430q0 162 -127 162q-159 0 -297 -285q-119 -241 -119 -432q0 -160 127 -160z" />
    <glyph glyph-name="odieresis" unicode="&#xf6;" horiz-adv-x="974" 
d="M516 1182q-65 -3 -92.5 51.5t0 109.5t92.5 52q44 0 74.5 -31.5t30.5 -75.5t-30.5 -75t-74.5 -31zM954 1212q-31 -31 -75.5 -30.5t-73.5 32.5q-31 31 -31 74.5t31 75.5q29 31 73.5 31t75.5 -31q29 -31 29 -76t-29 -76zM360 -29q-140 0 -218.5 78t-78.5 232q0 229 160 471
q169 243 389 243q139 0 217 -77.5t78 -231.5q0 -232 -157 -471q-170 -244 -390 -244zM342 45q153 0 297 285q119 247 119 430q0 162 -127 162q-159 0 -297 -285q-119 -241 -119 -432q0 -160 127 -160z" />
    <glyph glyph-name="divide" unicode="&#xf7;" horiz-adv-x="1187" 
d="M707 807q-23 -25 -58 -30.5t-65.5 6.5t-51 40t-16.5 62q0 50 31 81t80 31t79.5 -31t30.5 -81q0 -48 -30 -78zM1085 559h-917v82h917v-82zM707 240q-23 -25 -58 -30.5t-65.5 6t-51 39.5t-16.5 64q0 48 31 78.5t80 30.5t79.5 -30.5t30.5 -78.5q0 -49 -30 -79z" />
    <glyph glyph-name="oslash" unicode="&#xf8;" horiz-adv-x="974" 
d="M913 971h91l-125 -129q28 -67 28 -156q0 -232 -157 -471q-170 -244 -390 -244q-157 0 -231 95l-63 -66h-91l117 121q-29 73 -29 160q0 229 160 471q169 243 389 243q156 0 234 -96zM334 637q-102 -215 -117 -387l537 557q-18 115 -123 115q-159 0 -297 -285zM639 330
q99 208 117 385l-537 -557q18 -113 123 -113q153 0 297 285z" />
    <glyph glyph-name="ugrave" unicode="&#xf9;" horiz-adv-x="1128" 
d="M696 1393l88 -299h-79l-150 299h141zM283 -29q-79 0 -124.5 43.5t-45.5 122.5q0 78 55 197l174 385q31 73 31 102q0 37 -35 37q-62 0 -164 -170l-55 17q131 290 291 290q120 0 120 -112q0 -67 -51 -172l-174 -385q-41 -90 -41 -142q0 -71 76 -71q93 0 207 141
q111 137 205 330q88 180 161 387h134l-220 -723q-18 -70 -18 -92q0 -37 37 -37q56 0 155 170l58 -19q-131 -290 -287 -290q-49 0 -79.5 29t-30.5 81q0 51 28 137q34 100 139 346h-28q-166 -328 -277 -462q-119 -140 -241 -140z" />
    <glyph glyph-name="uacute" unicode="&#xfa;" horiz-adv-x="1128" 
d="M791 1094h-91l254 299h170zM283 -29q-79 0 -124.5 43.5t-45.5 122.5q0 78 55 197l174 385q31 73 31 102q0 37 -35 37q-62 0 -164 -170l-55 17q131 290 291 290q120 0 120 -112q0 -67 -51 -172l-174 -385q-41 -90 -41 -142q0 -71 76 -71q93 0 207 141q111 137 205 330
q88 180 161 387h134l-220 -723q-18 -70 -18 -92q0 -37 37 -37q56 0 155 170l58 -19q-131 -290 -287 -290q-49 0 -79.5 29t-30.5 81q0 51 28 137q34 100 139 346h-28q-166 -328 -277 -462q-119 -140 -241 -140z" />
    <glyph glyph-name="ucircumflex" unicode="&#xfb;" horiz-adv-x="1128" 
d="M893 1094l-70 221l-223 -221h-92l266 299h127l74 -299h-82zM1001 289l58 -19q-131 -290 -287 -290q-49 0 -79.5 29t-30.5 81q0 51 28 137q34 100 139 346h-28q-166 -328 -277 -462q-119 -140 -241 -140q-79 0 -124.5 43.5t-45.5 122.5q0 78 55 197l174 385q31 73 31 102
q0 37 -35 37q-62 0 -164 -170l-55 17q131 290 291 290q120 0 120 -112q0 -67 -51 -172l-174 -385q-41 -90 -41 -142q0 -71 76 -71q93 0 207 141q111 137 205 330q88 180 161 387h134l-220 -723q-18 -70 -18 -92q0 -37 37 -37q56 0 155 170z" />
    <glyph glyph-name="udieresis" unicode="&#xfc;" horiz-adv-x="1128" 
d="M600 1182q-65 -3 -92.5 51.5t0 109.5t92.5 52q44 0 74.5 -31.5t30.5 -75.5t-30.5 -75t-74.5 -31zM1038 1212q-31 -31 -75.5 -30.5t-73.5 32.5q-31 31 -31 74.5t31 75.5q29 31 73.5 31t75.5 -31q29 -31 29 -76t-29 -76zM283 -29q-79 0 -124.5 43.5t-45.5 122.5
q0 78 55 197l174 385q31 73 31 102q0 37 -35 37q-62 0 -164 -170l-55 17q131 290 291 290q120 0 120 -112q0 -67 -51 -172l-174 -385q-41 -90 -41 -142q0 -71 76 -71q93 0 207 141q111 137 205 330q88 180 161 387h134l-220 -723q-18 -70 -18 -92q0 -37 37 -37q56 0 155 170
l58 -19q-131 -290 -287 -290q-49 0 -79.5 29t-30.5 81q0 51 28 137q34 100 139 346h-28q-166 -328 -277 -462q-119 -140 -241 -140z" />
    <glyph glyph-name="yacute" unicode="&#xfd;" horiz-adv-x="974" 
d="M809 1393h170l-334 -299h-90zM791 995q141 0 141 -243q0 -376 -418 -809q-361 -385 -649 -385q-94 0 -150.5 50t-56.5 124q0 50 27.5 81t74.5 31q44 0 68.5 -29t28.5 -64t9 -71.5t15 -46.5q208 27 336 211q131 192 131 621q0 389 -76 389q-63 0 -127 -211l-57 16
q89 336 234 336q48 0 82 -32t53.5 -95.5t28 -147.5t8.5 -198q0 -341 -88 -577q399 411 434 731q-17 28 -68 69q-39 29 -51 41q-41 38 -41 97q0 51 30.5 81.5t80.5 30.5z" />
    <glyph glyph-name="thorn" unicode="&#xfe;" horiz-adv-x="983" 
d="M238 -2l-60 -191q-35 -104 0 -131q39 -31 180 -45l-16 -53h-510l14 53q85 12 123 47q35 33 80 168l297 934l-252 -104l41 123l244 88l98 309q24 75 8 111.5t-77 40.5l-78 6l12 47l311 53h45l-172 -543h4q84 84 191 84q95 0 154 -71.5t59 -206.5q4 -127 -46.5 -260.5
t-133.5 -237t-197.5 -168.5t-230.5 -61q-49 0 -88 8zM616 874q-55 0 -108 -20l-244 -776q35 -6 64 -6q138 0 245 98q103 90 158 225q51 125 51 254q0 110 -44.5 167.5t-121.5 57.5z" />
    <glyph glyph-name="ydieresis" unicode="&#xff;" horiz-adv-x="974" 
d="M455 1182q-65 -3 -92.5 51.5t0 109.5t92.5 52q44 0 74 -31t30 -76q0 -44 -30 -75t-74 -31zM893 1212q-31 -31 -76 -30.5t-74 32.5q-31 31 -31 74.5t31 75.5q29 31 74 31t76 -31q29 -31 29 -76t-29 -76zM791 995q141 0 141 -243q0 -376 -418 -809q-361 -385 -649 -385
q-94 0 -150.5 50t-56.5 124q0 50 27.5 81t74.5 31q44 0 68.5 -29t28.5 -64t9 -71.5t15 -46.5q208 27 336 211q131 192 131 621q0 389 -76 389q-63 0 -127 -211l-57 16q89 336 234 336q48 0 82 -32t53.5 -95.5t28 -147.5t8.5 -198q0 -341 -88 -577q399 411 434 731
q-17 28 -68 69q-39 29 -51 41q-41 38 -41 97q0 51 30.5 81.5t80.5 30.5z" />
    <glyph glyph-name="Amacron" unicode="&#x100;" horiz-adv-x="1413" 
d="M711 1618h540l-22 -80h-541zM1004 1411l118 -1110q18 -149 45 -190q25 -45 88 -48l-18 -63h-498l19 63q130 3 176 43q45 39 33 170l-21 187h-536l-142 -205q-57 -80 -57 -125q0 -64 156 -70l-21 -63h-450l18 63q67 3 113 43q41 33 147 183l688 977l-16 145h158zM874 1137
l-405 -588h469z" />
    <glyph glyph-name="amacron" unicode="&#x101;" horiz-adv-x="1044" 
d="M477 1200l23 80h540l-22 -80h-541zM858 1012h148l-267 -783q-40 -110 17 -110q60 0 162 172l53 -15q-59 -135 -132.5 -213.5t-150.5 -78.5q-117 0 -117 114q0 86 199 475h-31q-202 -342 -309 -469q-112 -133 -231 -133q-80 0 -127 52.5t-47 154.5q0 148 110 334
q110 191 271 324q164 135 296 135q77 0 132 -37zM258 119q92 0 216 154t319 501q-70 102 -185 105q-65 -3 -166 -113q-100 -106 -186 -268q-84 -159 -84 -273q0 -106 86 -106z" />
    <glyph glyph-name="Abreve" unicode="&#x102;" horiz-adv-x="1413" 
d="M963 1481q-122 0 -182.5 50t-35.5 146h82q-13 -60 23.5 -89t114.5 -29q161 0 204 118h86q-61 -196 -292 -196zM1004 1411l118 -1110q18 -149 45 -190q25 -45 88 -48l-18 -63h-498l19 63q130 3 176 43q45 39 33 170l-21 187h-536l-142 -205q-57 -80 -57 -125
q0 -64 156 -70l-21 -63h-450l18 63q67 3 113 43q41 33 147 183l688 977l-16 145h158zM874 1137l-405 -588h469z" />
    <glyph glyph-name="abreve" unicode="&#x103;" horiz-adv-x="1044" 
d="M729 1094q-125 0 -174 79.5t-8 219.5h84q-30 -106 -3 -160.5t107 -54.5q82 0 145 56t93 159h84q-86 -299 -328 -299zM858 1012h148l-267 -783q-40 -110 17 -110q60 0 162 172l53 -15q-59 -135 -132.5 -213.5t-150.5 -78.5q-117 0 -117 114q0 86 199 475h-31
q-202 -342 -309 -469q-112 -133 -231 -133q-80 0 -127 52.5t-47 154.5q0 148 110 334q110 191 271 324q164 135 296 135q77 0 132 -37zM258 119q92 0 216 154t319 501q-70 102 -185 105q-65 -3 -166 -113q-100 -106 -186 -268q-84 -159 -84 -273q0 -106 86 -106z" />
    <glyph glyph-name="Aogonek" unicode="&#x104;" horiz-adv-x="1411" 
d="M1235 0h-201q-172 -153 -172 -256q0 -72 78 -72q88 0 190 176l56 -14q-62 -142 -125.5 -209t-145.5 -67q-81 0 -124 39.5t-43 113.5q0 163 243 307l-47 445h-534l-142 -205q-57 -80 -57 -125q0 -35 35.5 -50t118.5 -20l-19 -63h-450l18 63q67 3 113 43q41 33 147 183
l686 977l-14 145h158l118 -1110q18 -150 43 -192q26 -43 88 -46zM874 1135l-405 -586h467z" />
    <glyph glyph-name="aogonek" unicode="&#x105;" horiz-adv-x="1044" 
d="M772 8q-180 -162 -180 -264q0 -72 78 -72q88 0 190 176l55 -14q-62 -142 -125 -209t-145 -67q-81 0 -124.5 39.5t-43.5 113.5q0 147 191 273q-97 9 -97 114q0 86 199 475h-31q-202 -342 -309 -469q-112 -133 -231 -133q-80 0 -127 52.5t-47 154.5q0 148 110 334
q110 191 271 324q164 135 296 135q77 0 132 -37l24 78h148l-267 -783q-40 -110 17 -110q60 0 162 172l53 -15q-88 -203 -199 -268zM258 119q92 0 216 154t319 501q-70 102 -185 105q-65 -3 -166 -113q-100 -106 -186 -268q-84 -159 -84 -273q0 -106 86 -106z" />
    <glyph glyph-name="Cacute" unicode="&#x106;" horiz-adv-x="1443" 
d="M1231 1677h164l-310 -196h-131zM788 -29q-260 0 -440 154q-178 153 -178 446q0 165 54.5 316.5t156.5 271.5q105 123 266 192.5t354 69.5q70 0 135.5 -8.5t110.5 -21t79 -25t54 -21t23 -8.5q29 0 67 66h78l-127 -445h-84q4 54 4 80q0 299 -337 299q-155 0 -282 -67.5
t-204 -182.5q-153 -229 -153 -528q0 -253 124 -377q127 -127 306 -127q146 0 256 106t202 326h84l-116 -407q-207 -109 -433 -109z" />
    <glyph glyph-name="cacute" unicode="&#x107;" horiz-adv-x="821" 
d="M676 1094h-90l254 299h170zM319 -29q-122 0 -192 72t-70 211q0 157 76 328q76 169 211 292q133 121 279 121q102 0 161.5 -48.5t59.5 -123.5q0 -62 -30.5 -97.5t-84.5 -35.5q-85 0 -94 80q-2 6 -2 68q-3 61 -17 86q-109 -3 -206 -103t-154 -241q-55 -137 -55 -267
q0 -98 46.5 -146t125.5 -48q151 0 258 192l55 -16q-133 -324 -367 -324z" />
    <glyph glyph-name="Ccircumflex" unicode="&#x108;" horiz-adv-x="1443" 
d="M1204 1481l-133 141l-227 -141h-107l250 196h174l139 -196h-96zM1470 1403h78l-127 -445h-84q4 54 4 80q0 299 -337 299q-155 0 -282 -67.5t-204 -182.5q-153 -229 -153 -528q0 -253 124 -377q127 -127 306 -127q146 0 256 106t202 326h84l-116 -407q-207 -109 -433 -109
q-260 0 -440 154q-178 153 -178 446q0 165 54.5 316.5t156.5 271.5q105 123 266 192.5t354 69.5q70 0 135.5 -8.5t110.5 -21t79 -25t54 -21t23 -8.5q29 0 67 66z" />
    <glyph glyph-name="ccircumflex" unicode="&#x109;" horiz-adv-x="821" 
d="M778 1094l-69 221l-224 -221h-92l266 299h127l74 -299h-82zM623 995q102 0 161.5 -48.5t59.5 -123.5q0 -62 -30.5 -97.5t-84.5 -35.5q-85 0 -94 80q-2 6 -2 68q-3 61 -17 86q-109 -3 -206 -103t-154 -241q-55 -137 -55 -267q0 -98 46.5 -146t125.5 -48q151 0 258 192
l55 -16q-133 -324 -367 -324q-122 0 -192 72t-70 211q0 157 76 328q76 169 211 292q133 121 279 121z" />
    <glyph glyph-name="Cdotaccent" unicode="&#x10a;" horiz-adv-x="1443" 
d="M1094 1513q-22 -25 -56 -30.5t-63.5 6.5t-50 40t-17.5 62q0 47 32 78t77 31q34 3 61.5 -17t39 -49.5t6.5 -63.5t-29 -57zM788 -29q-260 0 -440 154q-178 153 -178 446q0 165 54.5 316.5t156.5 271.5q105 123 266 192.5t354 69.5q70 0 135.5 -8.5t110.5 -21t79 -25t54 -21
t23 -8.5q29 0 67 66h78l-127 -445h-84q4 54 4 80q0 299 -337 299q-155 0 -282 -67.5t-204 -182.5q-153 -229 -153 -528q0 -253 124 -377q127 -127 306 -127q146 0 256 106t202 326h84l-116 -407q-207 -109 -433 -109z" />
    <glyph glyph-name="cdotaccent" unicode="&#x10b;" horiz-adv-x="821" 
d="M778 1196q-26 -28 -65 -34t-73.5 7t-58 44.5t-20.5 72.5q0 54 36.5 89.5t90.5 35.5t89.5 -35.5t35.5 -89.5q0 -55 -35 -90zM319 -29q-122 0 -192 72t-70 211q0 157 76 328q76 169 211 292q133 121 279 121q102 0 161.5 -48.5t59.5 -123.5q0 -62 -30.5 -97.5t-84.5 -35.5
q-85 0 -94 80q-2 6 -2 68q-3 61 -17 86q-109 -3 -206 -103t-154 -241q-55 -137 -55 -267q0 -98 46.5 -146t125.5 -48q151 0 258 192l55 -16q-133 -324 -367 -324z" />
    <glyph glyph-name="Ccaron" unicode="&#x10c;" horiz-adv-x="1443" 
d="M1104 1481h-174l-137 196h94l133 -141l227 141h109zM1470 1403h78l-127 -445h-84q4 54 4 80q0 299 -337 299q-155 0 -282 -67.5t-204 -182.5q-153 -229 -153 -528q0 -253 124 -377q127 -127 306 -127q146 0 256 106t202 326h84l-116 -407q-207 -109 -433 -109
q-260 0 -440 154q-178 153 -178 446q0 165 54.5 316.5t156.5 271.5q105 123 266 192.5t354 69.5q70 0 135.5 -8.5t110.5 -21t79 -25t54 -21t23 -8.5q29 0 67 66z" />
    <glyph glyph-name="ccaron" unicode="&#x10d;" horiz-adv-x="821" 
d="M684 1094h-129l-72 299h80l72 -222l221 222h94zM623 995q102 0 161.5 -48.5t59.5 -123.5q0 -62 -30.5 -97.5t-84.5 -35.5q-85 0 -94 80q-2 6 -2 68q-3 61 -17 86q-109 -3 -206 -103t-154 -241q-55 -137 -55 -267q0 -98 46.5 -146t125.5 -48q151 0 258 192l55 -16
q-133 -324 -367 -324q-122 0 -192 72t-70 211q0 157 76 328q76 169 211 292q133 121 279 121z" />
    <glyph glyph-name="Dcaron" unicode="&#x10e;" horiz-adv-x="1519" 
d="M987 1481h-174l-137 196h94l133 -141l227 141h109zM350 1393h438q148 3 289.5 -36.5t245.5 -129.5q71 -64 113.5 -168.5t42.5 -233.5q5 -162 -72 -332.5t-233 -295.5q-110 -89 -286 -143t-386 -54h-551l18 63q114 3 166 37q51 29 82 140l266 925q13 50 13 74
q0 53 -35.5 70.5t-126.5 19.5zM557 74q143 0 264.5 46t205 122t143 174.5t87 203.5t27.5 209q0 138 -43.5 242t-118.5 156q-139 92 -317 92h-113l-297 -1030q-14 -46 -14 -88q0 -127 176 -127z" />
    <glyph glyph-name="dcaron" unicode="&#x10f;" horiz-adv-x="1044" 
d="M756 119q60 0 162 172l53 -15q-59 -135 -132.5 -213.5t-150.5 -78.5q-54 0 -86.5 28.5t-32.5 85.5q0 95 199 475h-29q-203 -345 -307 -469q-112 -133 -233 -133q-80 0 -127 52.5t-47 154.5q0 148 110 334q110 191 271 324q164 135 296 135q80 0 132 -37l90 260
q27 75 8.5 111.5t-86.5 37.5l-111 7l15 51l358 53h41l-416 -1235q-29 -100 23 -100zM1110 1059l188 395h134l-265 -395h-57zM260 119q90 0 211.5 151.5t321.5 503.5q-70 102 -185 105q-65 -3 -166 -113q-100 -106 -186 -268q-84 -159 -84 -273q0 -106 88 -106z" />
    <glyph glyph-name="Dcroat" unicode="&#x110;" horiz-adv-x="1519" 
d="M350 1393h438q148 3 289.5 -36.5t245.5 -129.5q71 -64 113.5 -168.5t42.5 -233.5q5 -162 -72 -332.5t-233 -295.5q-110 -89 -286 -143t-386 -54h-551l18 63q114 3 166 37q51 29 82 140l123 424h-174l18 65h174l125 436q13 50 13 74q0 53 -35.5 70.5t-126.5 19.5zM557 74
q143 0 264.5 46t205 122t143 174.5t87 203.5t27.5 209q0 138 -43.5 242t-118.5 156q-139 92 -317 92h-113l-170 -590h434l-18 -65h-434l-109 -375q-14 -46 -14 -88q0 -127 176 -127z" />
    <glyph glyph-name="dslash" unicode="&#x111;" horiz-adv-x="1044" 
d="M1186 1106h-154l-299 -887q-29 -100 23 -100q60 0 162 172l53 -15q-59 -135 -132.5 -213.5t-150.5 -78.5q-54 0 -86.5 28.5t-32.5 85.5q0 95 199 475h-29q-203 -345 -307 -469q-112 -133 -233 -133q-80 0 -127 52.5t-47 154.5q0 148 110 334q110 191 271 324
q164 135 296 135q80 0 132 -37l59 172h-307l16 63h313l9 25q27 75 8.5 111.5t-86.5 37.5l-111 7l15 51l358 53h41l-96 -285h149zM260 119q90 0 211.5 151.5t321.5 503.5q-70 102 -185 105q-65 -3 -166 -113q-100 -106 -186 -268q-84 -159 -84 -273q0 -106 88 -106z" />
    <glyph glyph-name="Emacron" unicode="&#x112;" horiz-adv-x="1353" 
d="M750 1618h540l-22 -80h-541zM334 1329l16 64h1100l-102 -353h-86q18 80 18 131q0 86 -50.5 117t-176.5 31h-361l-164 -571h238q153 0 203 36q53 38 102 174h78l-139 -495h-80q14 66 14 117q0 65 -39 79q-40 15 -164 15h-233l-119 -416q-12 -47 -12 -80q0 -104 133 -104
h242q146 0 221 63q71 62 174 279h84l-144 -416h-1136l18 63q114 3 166 37q51 29 82 140l266 925q13 50 13 74q0 53 -35.5 70.5t-126.5 19.5z" />
    <glyph glyph-name="emacron" unicode="&#x113;" horiz-adv-x="837" 
d="M422 1200l22 80h541l-22 -80h-541zM637 995q205 0 205 -159q0 -145 -170 -256q-172 -111 -453 -117q-20 -67 -20 -146q0 -198 178 -198q152 0 260 190l57 -16q-132 -322 -368 -322q-127 0 -199 71.5t-72 213.5q0 152 78 328q75 167 217 290q139 121 287 121zM238 526
q194 18 317 111q117 91 117 190q0 82 -84 82q-97 0 -197 -112q-99 -111 -153 -271z" />
    <glyph glyph-name="Ebreve" unicode="&#x114;" horiz-adv-x="1353" 
d="M1001 1481q-122 0 -182 50t-35 146h82q-13 -60 23.5 -89t114.5 -29q161 0 204 118h86q-61 -196 -293 -196zM334 1329l16 64h1100l-102 -353h-86q18 80 18 131q0 86 -50.5 117t-176.5 31h-361l-164 -571h238q153 0 203 36q53 38 102 174h78l-139 -495h-80q14 66 14 117
q0 65 -39 79q-40 15 -164 15h-233l-119 -416q-12 -47 -12 -80q0 -104 133 -104h242q146 0 221 63q71 62 174 279h84l-144 -416h-1136l18 63q114 3 166 37q51 29 82 140l266 925q13 50 13 74q0 53 -35.5 70.5t-126.5 19.5z" />
    <glyph glyph-name="ebreve" unicode="&#x115;" horiz-adv-x="837" 
d="M918 1393h83q-86 -299 -327 -299q-125 0 -174 79.5t-8 219.5h83q-30 -106 -2.5 -160.5t107.5 -54.5q82 0 145 56t93 159zM637 995q205 0 205 -159q0 -145 -170 -256q-172 -111 -453 -117q-20 -67 -20 -146q0 -198 178 -198q152 0 260 190l57 -16q-132 -322 -368 -322
q-127 0 -199 71.5t-72 213.5q0 152 78 328q75 167 217 290q139 121 287 121zM238 526q194 18 317 111q117 91 117 190q0 82 -84 82q-97 0 -197 -112q-99 -111 -153 -271z" />
    <glyph glyph-name="Edotaccent" unicode="&#x116;" horiz-adv-x="1353" 
d="M1051 1513q-31 -32 -78 -32t-78 32q-31 31 -31 78t31 78t78 31t78 -31t31 -78t-31 -78zM334 1329l16 64h1100l-102 -353h-86q18 80 18 131q0 86 -50.5 117t-176.5 31h-361l-164 -571h238q153 0 203 36q53 38 102 174h78l-139 -495h-80q14 66 14 117q0 65 -39 79
q-40 15 -164 15h-233l-119 -416q-12 -47 -12 -80q0 -104 133 -104h242q146 0 221 63q71 62 174 279h84l-144 -416h-1136l18 63q114 3 166 37q51 29 82 140l266 925q13 50 13 74q0 53 -35.5 70.5t-126.5 19.5z" />
    <glyph glyph-name="edotaccent" unicode="&#x117;" horiz-adv-x="837" 
d="M805 1196q-26 -28 -65 -34t-73.5 7t-58 44.5t-20.5 72.5q0 54 36.5 89.5t90.5 35.5t89.5 -35.5t35.5 -89.5q0 -55 -35 -90zM842 836q0 -145 -170 -256q-172 -111 -453 -117q-20 -67 -20 -146q0 -198 178 -198q152 0 260 190l57 -16q-132 -322 -368 -322q-127 0 -199 71.5
t-72 213.5q0 152 78 328q75 167 217 290q139 121 287 121q205 0 205 -159zM588 909q-97 0 -197 -112q-99 -111 -153 -271q194 18 317 111q117 91 117 190q0 82 -84 82z" />
    <glyph glyph-name="Eogonek" unicode="&#x118;" horiz-adv-x="1353" 
d="M334 1329l16 64h1100l-102 -353h-86q18 80 18 131q0 86 -50.5 117t-176.5 31h-361l-164 -571h238q153 0 203 36q53 38 102 174h78l-139 -495h-80q14 66 14 117q0 65 -39 79q-40 15 -164 15h-233l-119 -416q-12 -47 -12 -80q0 -104 133 -104h242q146 0 221 63
q71 62 174 279h84l-144 -416h-188q-172 -153 -172 -256q0 -72 78 -72q88 0 190 176l56 -14q-62 -142 -125.5 -209t-145.5 -67q-81 0 -124.5 39.5t-43.5 113.5q0 154 215 289h-876l18 63q114 3 166 37q51 29 82 140l266 925q13 50 13 74q0 53 -35.5 70.5t-126.5 19.5z" />
    <glyph glyph-name="eogonek" unicode="&#x119;" horiz-adv-x="837" 
d="M842 836q0 -145 -170 -256q-172 -111 -453 -117q-20 -67 -20 -146q0 -198 178 -198q152 0 260 190l57 -16q-84 -203 -213 -281q-186 -162 -186 -268q0 -72 78 -72q88 0 190 176l55 -14q-62 -142 -125 -209t-145 -67q-81 0 -124.5 39.5t-43.5 113.5q0 137 174 262
q-6 -2 -28 -2q-127 0 -199 71.5t-72 213.5q0 152 78 328q75 167 217 290q139 121 287 121q205 0 205 -159zM588 909q-97 0 -197 -112q-99 -111 -153 -271q194 18 317 111q117 91 117 190q0 82 -84 82z" />
    <glyph glyph-name="Ecaron" unicode="&#x11a;" horiz-adv-x="1353" 
d="M1063 1481h-174l-137 196h94l133 -141l227 141h109zM334 1329l16 64h1100l-102 -353h-86q18 80 18 131q0 86 -50.5 117t-176.5 31h-361l-164 -571h238q153 0 203 36q53 38 102 174h78l-139 -495h-80q14 66 14 117q0 65 -39 79q-40 15 -164 15h-233l-119 -416
q-12 -47 -12 -80q0 -104 133 -104h242q146 0 221 63q71 62 174 279h84l-144 -416h-1136l18 63q114 3 166 37q51 29 82 140l266 925q13 50 13 74q0 53 -35.5 70.5t-126.5 19.5z" />
    <glyph glyph-name="ecaron" unicode="&#x11b;" horiz-adv-x="837" 
d="M711 1094h-129l-72 299h80l72 -222l221 222h94zM637 995q205 0 205 -159q0 -145 -170 -256q-172 -111 -453 -117q-20 -67 -20 -146q0 -198 178 -198q152 0 260 190l57 -16q-132 -322 -368 -322q-127 0 -199 71.5t-72 213.5q0 152 78 328q75 167 217 290q139 121 287 121z
M238 526q194 18 317 111q117 91 117 190q0 82 -84 82q-97 0 -197 -112q-99 -111 -153 -271z" />
    <glyph glyph-name="Gcircumflex" unicode="&#x11c;" horiz-adv-x="1529" 
d="M1204 1481l-133 141l-227 -141h-107l250 196h174l139 -196h-96zM887 592l22 72h594l-20 -72q-74 -6 -107.5 -44.5t-64.5 -150.5l-88 -307q-204 -119 -441 -119q-275 0 -446 154q-170 153 -170 432q0 164 54 317t155 277q100 126 260.5 198t353.5 72q67 0 132 -8.5
t111 -21t82 -25t57.5 -21t25.5 -8.5q16 0 27.5 12.5t37.5 53.5h80l-129 -445h-84q6 46 6 89q0 148 -86 219t-260 71q-158 0 -284.5 -71t-198.5 -193q-144 -242 -144 -512q0 -265 117 -385q118 -121 299 -121q284 0 336 211l43 162q10 52 10 68q0 57 -55 75q-71 18 -225 21z
" />
    <glyph glyph-name="gcircumflex" unicode="&#x11d;" horiz-adv-x="923" 
d="M748 1094l-70 221l-223 -221h-93l267 299h127l73 -299h-81zM690 934h277l-27 -92h-188q16 -50 16 -101q0 -159 -111 -303q-101 -125 -243 -125q-45 0 -92 13q-37 -40 -37 -78q0 -30 28 -55q27 -24 133 -80l82 -41q137 -73 188.5 -129.5t51.5 -137.5q0 -113 -111.5 -180
t-302.5 -67q-213 0 -350 73q-141 77 -141 191q0 196 377 233q-90 63 -90 135q0 97 131 152q-129 64 -129 225q0 166 110 303q98 125 248 125q113 0 180 -61zM541 510q40 65 67 154t27 153q0 56 -27 83.5t-69 27.5q-88 0 -162 -127q-41 -65 -67.5 -152.5t-26.5 -154.5
q0 -56 27 -83.5t69 -27.5q91 0 162 127zM418 -39l-76 37q-19 8 -47 25q-142 -29 -207 -76.5t-65 -122.5q0 -92 100 -146q100 -53 233 -53q116 0 184 42.5t68 107.5q0 51 -41 91.5t-149 94.5z" />
    <glyph glyph-name="Gbreve" unicode="&#x11e;" horiz-adv-x="1529" 
d="M1044 1481q-122 0 -182 50t-35 146h82q-13 -60 23.5 -89t114.5 -29q161 0 204 118h86q-61 -196 -293 -196zM782 -29q-275 0 -446 154q-170 153 -170 432q0 164 54 317t155 277q100 126 260.5 198t353.5 72q67 0 132 -8.5t111 -21t82 -25t57.5 -21t25.5 -8.5
q16 0 27.5 12.5t37.5 53.5h80l-129 -445h-84q6 46 6 89q0 148 -86 219t-260 71q-158 0 -284.5 -71t-198.5 -193q-144 -242 -144 -512q0 -265 117 -385q118 -121 299 -121q284 0 336 211l43 162q10 52 10 68q0 57 -55 75q-71 18 -225 21l22 72h594l-20 -72
q-74 -6 -107.5 -44.5t-64.5 -150.5l-88 -307q-204 -119 -441 -119z" />
    <glyph glyph-name="gbreve" unicode="&#x11f;" horiz-adv-x="923" 
d="M616 1094q-125 0 -174 79.5t-8 219.5h84q-30 -106 -2.5 -160.5t107.5 -54.5q82 0 144 55.5t93 159.5h84q-86 -299 -328 -299zM690 934h277l-27 -92h-188q16 -50 16 -101q0 -159 -111 -303q-101 -125 -243 -125q-45 0 -92 13q-37 -40 -37 -78q0 -30 28 -55q27 -24 133 -80
l82 -41q137 -73 188.5 -129.5t51.5 -137.5q0 -113 -111.5 -180t-302.5 -67q-213 0 -350 73q-141 77 -141 191q0 196 377 233q-90 63 -90 135q0 97 131 152q-129 64 -129 225q0 166 110 303q98 125 248 125q113 0 180 -61zM541 510q40 65 67 154t27 153q0 56 -27 83.5
t-69 27.5q-88 0 -162 -127q-41 -65 -67.5 -152.5t-26.5 -154.5q0 -56 27 -83.5t69 -27.5q91 0 162 127zM418 -39l-76 37q-19 8 -47 25q-142 -29 -207 -76.5t-65 -122.5q0 -92 100 -146q100 -53 233 -53q116 0 184 42.5t68 107.5q0 51 -41 91.5t-149 94.5z" />
    <glyph glyph-name="Gdotaccent" unicode="&#x120;" horiz-adv-x="1529" 
d="M1094 1513q-22 -25 -56 -30.5t-63.5 6.5t-50 40t-17.5 62q0 47 32 78t77 31q34 3 61.5 -17t39 -49.5t6.5 -63.5t-29 -57zM782 -29q-275 0 -446 154q-170 153 -170 432q0 164 54 317t155 277q100 126 260.5 198t353.5 72q67 0 132 -8.5t111 -21t82 -25t57.5 -21t25.5 -8.5
q16 0 27.5 12.5t37.5 53.5h80l-129 -445h-84q6 46 6 89q0 148 -86 219t-260 71q-158 0 -284.5 -71t-198.5 -193q-144 -242 -144 -512q0 -265 117 -385q118 -121 299 -121q284 0 336 211l43 162q10 52 10 68q0 57 -55 75q-71 18 -225 21l22 72h594l-20 -72
q-74 -6 -107.5 -44.5t-64.5 -150.5l-88 -307q-204 -119 -441 -119z" />
    <glyph glyph-name="gdotaccent" unicode="&#x121;" horiz-adv-x="923" 
d="M748 1196q-26 -28 -65.5 -34t-74 7t-58 44.5t-20.5 72.5q0 54 36.5 89.5t90.5 35.5t89.5 -35.5t35.5 -89.5q0 -56 -34 -90zM690 934h277l-27 -92h-188q16 -50 16 -101q0 -159 -111 -303q-101 -125 -243 -125q-45 0 -92 13q-37 -40 -37 -78q0 -30 28 -55q27 -24 133 -80
l82 -41q137 -73 188.5 -129.5t51.5 -137.5q0 -113 -111.5 -180t-302.5 -67q-213 0 -350 73q-141 77 -141 191q0 196 377 233q-90 63 -90 135q0 97 131 152q-129 64 -129 225q0 166 110 303q98 125 248 125q113 0 180 -61zM541 510q40 65 67 154t27 153q0 56 -27 83.5
t-69 27.5q-88 0 -162 -127q-41 -65 -67.5 -152.5t-26.5 -154.5q0 -56 27 -83.5t69 -27.5q91 0 162 127zM418 -39l-76 37q-19 8 -47 25q-142 -29 -207 -76.5t-65 -122.5q0 -92 100 -146q100 -53 233 -53q116 0 184 42.5t68 107.5q0 51 -41 91.5t-149 94.5z" />
    <glyph glyph-name="uni0122" unicode="&#x122;" horiz-adv-x="1529" 
d="M782 -29q-275 0 -446 154q-170 153 -170 432q0 164 54 317t155 277q100 126 260.5 198t353.5 72q67 0 132 -8.5t111 -21t82 -25t57.5 -21t25.5 -8.5q16 0 27.5 12.5t37.5 53.5h80l-129 -445h-84q6 46 6 89q0 148 -86 219t-260 71q-158 0 -284.5 -71t-198.5 -193
q-144 -242 -144 -512q0 -265 117 -385q118 -121 299 -121q284 0 336 211l43 162q10 52 10 68q0 57 -55 75q-71 18 -225 21l22 72h594l-20 -72q-74 -6 -107.5 -44.5t-64.5 -150.5l-88 -307q-204 -119 -441 -119zM588 -436l20 49q83 -11 129.5 26t46.5 101q-38 -27 -75 -27
q-43 0 -70 25t-27 67q0 47 30 75t81 28q57 0 89 -39.5t32 -108.5q0 -101 -65 -154.5t-191 -41.5z" />
    <glyph glyph-name="uni0123" unicode="&#x123;" horiz-adv-x="923" 
d="M573 1094q-56 0 -90 37t-34 104q0 107 69 176q71 71 215 47l-14 -51q-56 8 -97.5 -1.5t-63 -31.5t-31.5 -44t-13 -46q29 16 68 16q44 0 74 -26.5t30 -69.5q0 -52 -32 -81t-81 -29zM690 934h277l-27 -92h-188q16 -50 16 -101q0 -159 -111 -303q-101 -125 -243 -125
q-45 0 -92 13q-37 -40 -37 -78q0 -30 28 -55q27 -24 133 -80l82 -41q137 -73 188.5 -129.5t51.5 -137.5q0 -113 -111.5 -180t-302.5 -67q-213 0 -350 73q-141 77 -141 191q0 196 377 233q-90 63 -90 135q0 97 131 152q-129 64 -129 225q0 166 110 303q98 125 248 125
q113 0 180 -61zM541 510q40 65 67 154t27 153q0 56 -27 83.5t-69 27.5q-88 0 -162 -127q-41 -65 -67.5 -152.5t-26.5 -154.5q0 -56 27 -83.5t69 -27.5q91 0 162 127zM418 -39l-76 37q-19 8 -47 25q-142 -29 -207 -76.5t-65 -122.5q0 -92 100 -146q100 -53 233 -53
q116 0 184 42.5t68 107.5q0 51 -41 91.5t-149 94.5z" />
    <glyph glyph-name="Hcircumflex" unicode="&#x124;" horiz-adv-x="1597" 
d="M1233 1481l-133 141l-228 -141h-106l250 196h174l139 -196h-96zM1178 1329l18 64h530l-18 -64q-111 -3 -149 -35q-44 -38 -70 -135l-266 -923q-13 -54 -13 -80q0 -50 38.5 -71t135.5 -22l-18 -63h-553l16 63q115 3 158 37q46 36 72 136l127 440h-676l-131 -459
q-10 -42 -10 -57q0 -48 39 -72t129 -25l-19 -63h-565l18 63q112 6 166 37q51 29 82 140l266 925q13 50 13 76q0 53 -35.5 69.5t-128.5 18.5l16 64h535l-19 -64q-111 -3 -149 -35q-41 -35 -68 -133l-114 -399h675l115 397q14 55 14 82q0 45 -36 66t-125 22z" />
    <glyph glyph-name="hcircumflex" unicode="&#x125;" horiz-adv-x="1056" 
d="M719 1481l-133 141l-228 -141h-106l250 196h174l139 -196h-96zM791 995q227 0 227 -266q0 -137 -66 -317q-64 -174 -186 -308q-124 -133 -258 -133q-73 0 -117.5 38.5t-44.5 103.5q0 61 31 99t84 38q55 0 73.5 -43.5t4.5 -97.5q-13 -52 8 -78q119 40 221 252t102 385
q0 190 -118 190q-128 0 -293 -229q-168 -233 -312 -629h-135l406 1196q25 75 9 111.5t-79 40.5l-78 6l13 47l315 53h45l-184 -545q-69 -208 -219 -512h28q162 319 279 461q113 137 244 137z" />
    <glyph glyph-name="Hbar" unicode="&#x126;" horiz-adv-x="1597" 
d="M1726 1393l-18 -64q-111 -3 -149 -35q-44 -38 -70 -135l-39 -135h190l-18 -63h-190l-209 -725q-13 -54 -13 -80q0 -50 38.5 -71t135.5 -22l-18 -63h-553l16 63q115 3 158 37q46 36 72 136l127 440h-676l-131 -459q-10 -42 -10 -57q0 -48 39 -72t129 -25l-19 -63h-565
l18 63q112 6 166 37q51 29 82 140l207 721h-188l18 63h188l41 141q13 50 13 76q0 53 -35.5 69.5t-128.5 18.5l16 64h535l-19 -64q-111 -3 -149 -35q-41 -35 -68 -133l-39 -137h676l39 135q14 55 14 82q0 45 -36 66t-125 22l18 64h530zM535 762h675l58 199h-676z" />
    <glyph glyph-name="hbar" unicode="&#x127;" horiz-adv-x="1056" 
d="M791 995q227 0 227 -266q0 -137 -66 -317q-64 -174 -186 -308q-124 -133 -258 -133q-73 0 -117.5 38.5t-44.5 103.5q0 61 31 99t84 38q55 0 73.5 -43.5t4.5 -97.5q-13 -52 8 -78q119 40 221 252t102 385q0 190 -118 190q-128 0 -293 -229q-168 -233 -312 -629h-135
l375 1106h-151l16 63h158l8 27q25 75 9 111.5t-79 40.5l-78 6l13 47l315 53h45l-96 -285h305l-16 -63h-312l-65 -197q-69 -208 -219 -512h28q162 319 279 461q113 137 244 137z" />
    <glyph glyph-name="Itilde" unicode="&#x128;" horiz-adv-x="759" 
d="M565 1677q-157 0 -215 -196h45q47 102 135 102q41 0 127 -51q83 -51 152 -51q157 0 215 196h-45q-46 -102 -133 -102q-41 0 -127 51t-154 51zM528 0h-577l18 63q114 3 166 37q51 29 82 140l262 909q17 73 17 90q0 53 -35.5 70.5t-126.5 19.5l16 64h541l-17 -64
q-118 -3 -155 -35q-43 -34 -70 -125l-272 -948q-10 -38 -10 -59q0 -51 41 -74.5t139 -24.5z" />
    <glyph glyph-name="itilde" unicode="&#x129;" horiz-adv-x="606" 
d="M401 1343q-77 0 -128.5 -54.5t-71.5 -155.5h45q49 106 121 106q37 0 114 -59q75 -60 142 -60q153 0 202 211h-45q-52 -106 -121 -106q-40 0 -114 59q-77 59 -144 59zM209 -18q-53 0 -85 29t-32 87q0 68 43 166l207 477q52 117 -14 117q-63 0 -164 -174l-58 16
q135 295 293 295q119 0 119 -116q0 -64 -45 -166l-207 -477q-50 -117 15 -117q62 0 163 174l58 -17q-66 -147 -136 -220.5t-157 -73.5z" />
    <glyph glyph-name="Imacron" unicode="&#x12a;" horiz-adv-x="759" 
d="M397 1538l23 80h541l-23 -80h-541zM528 0h-577l18 63q114 3 166 37q51 29 82 140l262 909q17 73 17 90q0 53 -35.5 70.5t-126.5 19.5l16 64h541l-17 -64q-118 -3 -155 -35q-43 -34 -70 -125l-272 -948q-10 -38 -10 -59q0 -51 41 -74.5t139 -24.5z" />
    <glyph glyph-name="imacron" unicode="&#x12b;" horiz-adv-x="606" 
d="M238 1200l22 80h541l-23 -80h-540zM209 -18q-53 0 -85 29t-32 87q0 68 43 166l207 477q52 117 -14 117q-63 0 -164 -174l-58 16q135 295 293 295q119 0 119 -116q0 -64 -45 -166l-207 -477q-50 -117 15 -117q62 0 163 174l58 -17q-66 -147 -136 -220.5t-157 -73.5z" />
    <glyph glyph-name="Ibreve" unicode="&#x12c;" horiz-adv-x="759" 
d="M672 1481q-122 0 -182 50t-35 146h82q-13 -60 23 -89t114 -29q162 0 205 118h86q-61 -196 -293 -196zM528 0h-577l18 63q114 3 166 37q51 29 82 140l262 909q17 73 17 90q0 53 -35.5 70.5t-126.5 19.5l16 64h541l-17 -64q-118 -3 -155 -35q-43 -34 -70 -125l-272 -948
q-10 -38 -10 -59q0 -51 41 -74.5t139 -24.5z" />
    <glyph glyph-name="ibreve" unicode="&#x12d;" horiz-adv-x="606" 
d="M492 1094q-125 0 -174.5 79.5t-8.5 219.5h84q-30 -106 -2.5 -160.5t107.5 -54.5q82 0 144 55.5t93 159.5h84q-86 -299 -327 -299zM209 -18q-53 0 -85 29t-32 87q0 68 43 166l207 477q52 117 -14 117q-63 0 -164 -174l-58 16q135 295 293 295q119 0 119 -116
q0 -64 -45 -166l-207 -477q-50 -117 15 -117q62 0 163 174l58 -17q-66 -147 -136 -220.5t-157 -73.5z" />
    <glyph glyph-name="Iogonek" unicode="&#x12e;" horiz-adv-x="759" 
d="M334 1329l16 64h541l-17 -64q-118 -3 -155 -35q-43 -34 -70 -125l-272 -948q-10 -38 -10 -59q0 -51 41 -74.5t139 -24.5l-19 -63h-258q-172 -153 -172 -256q0 -72 78 -72q89 0 191 176l55 -14q-62 -142 -125 -209t-145 -67q-81 0 -124.5 39.5t-43.5 113.5q0 154 215 289
h-248l18 63q114 3 166 37q51 29 82 140l262 909q17 73 17 90q0 53 -35.5 70.5t-126.5 19.5z" />
    <glyph glyph-name="iogonek" unicode="&#x12f;" horiz-adv-x="606" 
d="M442 1376q27 27 66 32.5t72.5 -8t56.5 -44.5t20 -70q0 -55 -35.5 -91t-89.5 -36t-90 36t-36 91q0 54 36 90zM473 713l-207 -477q-50 -117 15 -117q62 0 163 174l58 -17q-93 -203 -189 -264q-186 -162 -186 -268q0 -72 78 -72q88 0 190 176l56 -14q-62 -142 -125.5 -209
t-145.5 -67q-81 0 -124.5 39.5t-43.5 113.5q0 145 187 271q-107 9 -107 116q0 68 43 166l207 477q52 117 -14 117q-63 0 -164 -174l-58 16q135 295 293 295q119 0 119 -116q0 -64 -45 -166z" />
    <glyph glyph-name="Idot" unicode="&#x130;" horiz-adv-x="759" 
d="M721 1513q-22 -25 -56 -30.5t-63.5 6.5t-49.5 40t-17 62q0 47 31.5 78t76.5 31q34 3 61.5 -17t39 -49.5t6.5 -63.5t-29 -57zM528 0h-577l18 63q114 3 166 37q51 29 82 140l262 909q17 73 17 90q0 53 -35.5 70.5t-126.5 19.5l16 64h541l-17 -64q-118 -3 -155 -35
q-43 -34 -70 -125l-272 -948q-10 -38 -10 -59q0 -51 41 -74.5t139 -24.5z" />
    <glyph glyph-name="dotlessi" unicode="&#x131;" horiz-adv-x="606" 
d="M209 -18q-53 0 -85 29t-32 87q0 68 43 166l207 477q52 117 -14 117q-63 0 -164 -174l-58 16q135 295 293 295q119 0 119 -116q0 -64 -45 -166l-207 -477q-50 -117 15 -117q62 0 163 174l58 -17q-66 -147 -136 -220.5t-157 -73.5z" />
    <glyph glyph-name="IJ" unicode="&#x132;" horiz-adv-x="1488" 
d="M528 0h-577l18 63q114 3 166 37q51 29 82 140l262 909q17 73 17 90q0 53 -35.5 70.5t-126.5 19.5l16 64h541l-17 -64q-118 -3 -155 -35q-43 -34 -70 -125l-272 -948q-10 -38 -10 -59q0 -51 41 -74.5t139 -24.5zM657 -442q-101 0 -168 48.5t-67 133.5q0 56 30 89.5
t83 33.5q52 0 77.5 -35.5t40.5 -106.5q12 -63 31 -92q162 0 297 477l291 1012q16 69 16 99q0 65 -51 85t-201 25l17 66h606l-19 -64q-93 -3 -127 -37q-38 -35 -65 -133l-274 -960q-97 -336 -222.5 -488.5t-294.5 -152.5z" />
    <glyph glyph-name="ij" unicode="&#x133;" horiz-adv-x="1144" 
d="M623 1196q-26 -28 -65 -34t-73.5 7t-58 44.5t-20.5 72.5q0 54 36 89.5t90 35.5t89.5 -35.5t35.5 -89.5q0 -56 -34 -90zM1212 1196q-26 -28 -65 -34t-73.5 7t-58 44.5t-20.5 72.5q0 54 36.5 89.5t90.5 35.5t89.5 -35.5t35.5 -89.5q0 -55 -35 -90zM209 -18q-53 0 -85 29
t-32 87q0 68 43 166l207 477q52 117 -14 117q-63 0 -164 -174l-58 16q135 295 293 295q119 0 119 -116q0 -64 -45 -166l-207 -477q-50 -117 15 -117q62 0 163 174l58 -17q-66 -147 -136 -220.5t-157 -73.5zM424 -442q-91 0 -150 49t-59 119q0 54 27.5 85t74.5 31
q51 0 75 -33.5t34 -97.5q9 -58 27 -82q60 1 113.5 93t129.5 311l228 659q17 50 24.5 81t7.5 50.5t-7.5 27t-24.5 7.5q-58 0 -160 -170l-57 17q67 144 135.5 217t152.5 73q121 0 121 -112q0 -52 -41 -170l-215 -635q-179 -520 -436 -520z" />
    <glyph glyph-name="Jcircumflex" unicode="&#x134;" horiz-adv-x="729" 
d="M815 1481l-133 141l-227 -141h-107l250 196h174l139 -196h-96zM276 1327l17 66h606l-18 -64q-93 -3 -127 -37q-40 -37 -66 -133l-274 -960q-97 -336 -222 -488.5t-294 -152.5q-101 0 -168.5 48.5t-67.5 133.5q0 56 30 89.5t83 33.5q52 0 77.5 -36t38.5 -106
q15 -65 33 -92q162 0 297 477l291 1012q16 69 16 99q0 65 -51 85t-201 25z" />
    <glyph glyph-name="jcircumflex" unicode="&#x135;" horiz-adv-x="538" 
d="M616 1393l74 -299h-82l-69 221l-224 -221h-92l266 299h127zM389 995q121 0 121 -112q0 -52 -41 -170l-215 -635q-179 -520 -436 -520q-91 0 -150 49t-59 119q0 54 27.5 85t74.5 31q51 0 74 -33t33 -98q9 -56 28 -82q60 1 114 93.5t130 310.5l227 659q17 50 24.5 81
t7.5 50.5t-7.5 27t-24.5 7.5q-57 0 -159 -170l-58 17q67 143 136 216.5t153 73.5z" />
    <glyph glyph-name="uni0136" unicode="&#x136;" horiz-adv-x="1476" 
d="M1667 1393l-16 -64q-69 -12 -135 -49q-91 -48 -216 -137l-507 -350l321 -537q61 -102 105.5 -140.5t111.5 -49.5l-18 -66h-520l16 66q160 6 160 73q0 38 -33 88l-277 473l-182 -127l-98 -337q-12 -43 -12 -76q0 -49 40 -72.5t134 -24.5l-19 -63h-571l18 63q114 3 166 37
q51 29 82 140l266 925q13 50 13 74q0 53 -35.5 70.5t-126.5 19.5l16 64h531l-17 -64q-111 -3 -151 -37q-41 -35 -68 -133l-131 -450l674 460q106 75 106 115q0 42 -139 45l19 64h493zM606 -92q57 0 89 -39.5t32 -108.5q0 -101 -65 -154.5t-191 -41.5l21 49q83 -11 129.5 26
t46.5 101q-37 -27 -76 -27q-43 0 -69.5 25t-26.5 67q0 47 29.5 75t80.5 28z" />
    <glyph glyph-name="uni0137" unicode="&#x137;" horiz-adv-x="1087" 
d="M885 250q88 0 88 -92q0 -73 -65.5 -122.5t-157.5 -49.5q-119 0 -224.5 125t-171.5 356q-115 -206 -207 -467h-135l406 1196q25 75 9 111.5t-79 40.5l-78 6l13 47l317 53h43l-184 -545q-69 -208 -219 -512h28q169 328 285 465q115 133 258 133q94 0 149.5 -50t55.5 -146
q0 -139 -135.5 -227.5t-378.5 -100.5q38 -159 114 -291q78 -134 127 -151q23 41 37 96q12 45 27 76q27 49 78 49zM758 879q-82 0 -182.5 -97.5t-202.5 -279.5q491 24 491 266q0 111 -106 111zM379 -92q57 0 89 -39.5t32 -108.5q0 -101 -65 -154.5t-191 -41.5l20 49
q83 -11 129.5 26t46.5 101q-38 -27 -75 -27q-43 0 -70 25t-27 67q0 47 30 75t81 28z" />
    <glyph glyph-name="kgreenlandic" unicode="&#x138;" horiz-adv-x="1138" 
d="M860 205q30 42 72 45t70 -25.5t22 -66.5q0 -73 -66.5 -122.5t-158.5 -49.5q-120 0 -227 119.5t-181 345.5q-96 -171 -203 -451h-137l246 725q26 75 9.5 109.5t-79.5 39.5l-77 7l12 47l315 53h45l-22 -66q-55 -176 -219 -518h28q156 320 277 459t266 139q92 0 148.5 -50.5
t56.5 -145.5q0 -148 -137 -241t-379 -105q54 -157 129 -275q79 -123 127 -137q10 18 32.5 85t30.5 79zM805 858q-82 0 -182 -93t-203 -265q495 18 495 250q0 108 -110 108z" />
    <glyph glyph-name="Lacute" unicode="&#x139;" horiz-adv-x="1308" 
d="M850 1677h164l-309 -196h-132zM1065 0h-1114l18 63q114 3 166 37q51 29 82 140l266 925q13 50 13 74q0 53 -35.5 70.5t-126.5 19.5l16 64h520l-16 -64q-105 -3 -141 -31q-38 -27 -68 -139l-248 -868q-18 -64 -18 -109q0 -108 143 -108h234q111 0 200 92q85 88 209 321h84
z" />
    <glyph glyph-name="lacute" unicode="&#x13a;" horiz-adv-x="591" 
d="M766 1677h164l-307 -155h-138zM203 -18q-57 0 -89 30.5t-32 87.5q0 59 43 189l307 907q26 75 9.5 111.5t-79.5 40.5l-77 6l14 47l315 53h43l-395 -1173q-33 -95 -33 -123q0 -39 33 -39q89 0 227 237l56 -16q-92 -192 -171.5 -275t-170.5 -83z" />
    <glyph glyph-name="uni013B" unicode="&#x13b;" horiz-adv-x="1308" 
d="M1065 0h-1114l18 63q114 3 166 37q51 29 82 140l266 925q13 50 13 74q0 53 -35.5 70.5t-126.5 19.5l16 64h520l-16 -64q-105 -3 -141 -31q-38 -27 -68 -139l-248 -868q-18 -64 -18 -109q0 -108 143 -108h234q111 0 200 92q85 88 209 321h84zM455 -436l20 49
q83 -11 129.5 26t46.5 101q-37 -27 -76 -27q-43 0 -69.5 25t-26.5 67q0 47 30 75t81 28q57 0 89 -39.5t32 -108.5q0 -101 -65 -154.5t-191 -41.5z" />
    <glyph glyph-name="uni013C" unicode="&#x13c;" horiz-adv-x="606" 
d="M203 -18q-57 0 -89 30.5t-32 87.5q0 59 43 189l307 907q26 75 9.5 111.5t-79.5 40.5l-77 6l14 47l315 53h43l-395 -1173q-33 -95 -33 -123q0 -39 33 -39q89 0 227 237l56 -16q-92 -192 -171.5 -275t-170.5 -83zM33 -436l20 49q83 -11 129.5 26t46.5 101q-37 -27 -75 -27
q-43 0 -70 25t-27 67q0 47 30 75t81 28q57 0 89 -39.5t32 -108.5q0 -101 -65 -154.5t-191 -41.5z" />
    <glyph glyph-name="Lcaron" unicode="&#x13d;" horiz-adv-x="1308" 
d="M1106 1454h133l-264 -395h-57zM1065 0h-1114l18 63q114 3 166 37q51 29 82 140l266 925q13 50 13 74q0 53 -35.5 70.5t-126.5 19.5l16 64h520l-16 -64q-105 -3 -141 -31q-38 -27 -68 -139l-248 -868q-18 -64 -18 -109q0 -108 143 -108h234q111 0 200 92q85 88 209 321h84
z" />
    <glyph glyph-name="lcaron" unicode="&#x13e;" horiz-adv-x="606" 
d="M203 -18q-57 0 -89 30.5t-32 87.5q0 59 43 189l307 907q26 75 9.5 111.5t-79.5 40.5l-77 6l14 47l315 53h43l-395 -1173q-33 -95 -33 -123q0 -39 33 -39q89 0 227 237l56 -16q-92 -192 -171.5 -275t-170.5 -83zM817 1454h133l-264 -395h-57z" />
    <glyph glyph-name="Ldot" unicode="&#x13f;" horiz-adv-x="1308" 
d="M1065 0h-1114l18 63q114 3 166 37q51 29 82 140l266 925q13 50 13 74q0 53 -35.5 70.5t-126.5 19.5l16 64h520l-16 -64q-105 -3 -141 -31q-38 -27 -68 -139l-248 -868q-18 -64 -18 -109q0 -108 143 -108h234q111 0 200 92q85 88 209 321h84zM1227 723q-27 -28 -66 -34
t-72.5 7t-56.5 44.5t-20 72.5q0 55 35.5 91t89.5 36q41 4 72.5 -19.5t45 -58t7.5 -74t-35 -65.5z" />
    <glyph glyph-name="ldot" unicode="&#x140;" horiz-adv-x="667" 
d="M203 -18q-57 0 -89 30.5t-32 87.5q0 59 43 189l307 907q26 75 9.5 111.5t-79.5 40.5l-77 6l14 47l315 53h43l-395 -1173q-33 -95 -33 -123q0 -39 33 -39q89 0 227 237l56 -16q-92 -192 -171.5 -275t-170.5 -83zM784 670q-37 -35 -90 -35t-90 35t-37 90t37 92q37 35 90 35
t90 -35q37 -37 37 -92t-37 -90z" />
    <glyph glyph-name="Lslash" unicode="&#x141;" horiz-adv-x="1308" 
d="M1165 487h84l-184 -487h-1114l18 63q114 3 166 37q51 29 82 140l82 284l-272 -153l22 86l275 155l159 553q13 50 13 74q0 53 -35.5 70.5t-126.5 19.5l16 64h520l-16 -64q-105 -3 -141 -31q-38 -27 -68 -139l-125 -436l363 205l-25 -86l-362 -205l-99 -346
q-18 -64 -18 -109q0 -108 143 -108h234q111 0 200 92q85 88 209 321z" />
    <glyph glyph-name="lslash" unicode="&#x142;" horiz-adv-x="606" 
d="M655 903l-227 -131l-166 -491q-33 -95 -33 -123q0 -39 33 -39q89 0 227 237l56 -16q-92 -192 -171.5 -275t-170.5 -83q-57 0 -89 30.5t-32 87.5q0 59 43 189l131 385l-221 -127l22 84l228 131l147 434q26 75 9.5 111.5t-79.5 40.5l-77 6l14 47l315 53h43l-200 -594
l221 127z" />
    <glyph glyph-name="Nacute" unicode="&#x143;" horiz-adv-x="1501" 
d="M1225 1677h164l-310 -196h-131zM1165 1329l19 64h506l-19 -64q-95 -3 -135 -37q-44 -35 -78 -159l-328 -1137h-126l-467 1094l-230 -797q-28 -106 -28 -143q0 -50 39.5 -66t164.5 -21l-18 -63h-526l18 63q129 3 170 41q40 37 84 189l266 928q-31 60 -68.5 81t-115.5 27
l18 64h285l500 -1182l264 922q20 73 20 108q0 54 -41.5 70t-173.5 18z" />
    <glyph glyph-name="nacute" unicode="&#x144;" horiz-adv-x="1134" 
d="M784 1094h-90l254 299h170zM764 -18q-53 0 -87 31.5t-34 86.5q0 53 41 156l160 377q41 100 41 151q0 74 -76 74q-87 0 -199 -139q-108 -134 -204 -330q-89 -182 -162 -389h-135l215 719q22 86 22 104q0 35 -33 35q-60 0 -159 -170l-58 17q131 290 293 290q107 0 107 -110
q0 -58 -33 -148q-36 -99 -139 -340h30q159 326 275 459q118 139 239 139q82 0 128 -39.5t46 -115.5t-53 -203l-149 -352q-41 -96 -41 -127q0 -39 35 -39q59 0 161 172l56 -17q-132 -292 -287 -292z" />
    <glyph glyph-name="uni0145" unicode="&#x145;" horiz-adv-x="1501" 
d="M1165 1329l19 64h506l-19 -64q-95 -3 -135 -37q-44 -35 -78 -159l-328 -1137h-126l-467 1094l-230 -797q-28 -106 -28 -143q0 -50 39.5 -66t164.5 -21l-18 -63h-526l18 63q129 3 170 41q40 37 84 189l266 928q-31 60 -68.5 81t-115.5 27l18 64h285l500 -1182l264 922
q20 73 20 108q0 54 -41.5 70t-173.5 18zM647 -92q57 0 89 -39.5t32 -108.5q0 -101 -65 -154.5t-191 -41.5l20 49q83 -11 130 26.5t47 100.5q-37 -27 -76 -27q-43 0 -69.5 25t-26.5 67q0 47 29.5 75t80.5 28z" />
    <glyph glyph-name="uni0146" unicode="&#x146;" horiz-adv-x="1134" 
d="M764 -18q-53 0 -87 31.5t-34 86.5q0 53 41 156l160 377q41 100 41 151q0 74 -76 74q-87 0 -199 -139q-108 -134 -204 -330q-89 -182 -162 -389h-135l215 719q22 86 22 104q0 35 -33 35q-60 0 -159 -170l-58 17q131 290 293 290q107 0 107 -110q0 -58 -33 -148
q-36 -99 -139 -340h30q159 326 275 459q118 139 239 139q82 0 128 -39.5t46 -115.5t-53 -203l-149 -352q-41 -96 -41 -127q0 -39 35 -39q59 0 161 172l56 -17q-132 -292 -287 -292zM264 -436l21 49q83 -11 129.5 26t46.5 101q-37 -27 -76 -27q-43 0 -69.5 25t-26.5 67
q0 47 29.5 75t80.5 28q57 0 89 -39.5t32 -108.5q0 -101 -65 -154.5t-191 -41.5z" />
    <glyph glyph-name="Ncaron" unicode="&#x147;" horiz-adv-x="1501" 
d="M1096 1481h-174l-138 196h95l133 -141l227 141h109zM1165 1329l19 64h506l-19 -64q-95 -3 -135 -37q-44 -35 -78 -159l-328 -1137h-126l-467 1094l-230 -797q-28 -106 -28 -143q0 -50 39.5 -66t164.5 -21l-18 -63h-526l18 63q129 3 170 41q40 37 84 189l266 928
q-31 60 -68.5 81t-115.5 27l18 64h285l500 -1182l264 922q20 73 20 108q0 54 -41.5 70t-173.5 18z" />
    <glyph glyph-name="ncaron" unicode="&#x148;" horiz-adv-x="1134" 
d="M791 1094h-129l-72 299h80l71 -222l222 222h94zM834 119q59 0 161 172l56 -17q-132 -292 -287 -292q-53 0 -87 31.5t-34 86.5q0 53 41 156l160 377q41 100 41 151q0 74 -76 74q-87 0 -199 -139q-108 -134 -204 -330q-89 -182 -162 -389h-135l215 719q22 86 22 104
q0 35 -33 35q-60 0 -159 -170l-58 17q131 290 293 290q107 0 107 -110q0 -58 -33 -148q-36 -99 -139 -340h30q159 326 275 459q118 139 239 139q82 0 128 -39.5t46 -115.5t-53 -203l-149 -352q-41 -96 -41 -127q0 -39 35 -39z" />
    <glyph glyph-name="napostrophe" unicode="&#x149;" horiz-adv-x="1134" 
d="M174 1049l21 61q90 0 141.5 45t56.5 107q-27 -21 -65 -21q-48 0 -78.5 27t-30.5 73q0 50 32.5 81.5t82.5 31.5q57 0 94 -39t37 -108q0 -110 -75 -184t-216 -74zM764 -18q-53 0 -87 31.5t-34 86.5q0 53 41 156l160 377q41 100 41 151q0 74 -76 74q-87 0 -199 -139
q-108 -134 -204 -330q-89 -182 -162 -389h-135l215 719q22 86 22 104q0 35 -33 35q-60 0 -159 -170l-58 17q131 290 293 290q107 0 107 -110q0 -58 -33 -148q-36 -99 -139 -340h30q159 326 275 459q118 139 239 139q82 0 128 -39.5t46 -115.5t-53 -203l-149 -352
q-41 -96 -41 -127q0 -39 35 -39q59 0 161 172l56 -17q-132 -292 -287 -292z" />
    <glyph glyph-name="Eng" unicode="&#x14a;" horiz-adv-x="1501" 
d="M1165 1329l19 64h506l-19 -64q-95 -3 -135 -37q-44 -35 -78 -159l-233 -807h2l-113 -394q-108 -374 -389 -374q-101 0 -169.5 47.5t-68.5 136.5q0 52 28 84.5t77 32.5q79 0 94 -84q2 -8 4.5 -67t5.5 -73q16 -8 45 -8q191 0 277 299l20 70h-34l-467 1094l-230 -797
q-28 -106 -28 -143q0 -50 39.5 -66t164.5 -21l-18 -63h-526l18 63q129 3 170 41q40 37 84 189l266 928q-31 60 -68.5 81t-115.5 27l18 64h285l500 -1182l264 922q20 73 20 108q0 54 -41.5 70t-173.5 18z" />
    <glyph glyph-name="eng" unicode="&#x14b;" horiz-adv-x="1038" 
d="M1036 836q0 -86 -45 -199l-250 -625l-61 -159q-114 -295 -336 -295q-96 0 -155.5 42t-59.5 126q0 49 25.5 78.5t68.5 29.5q70 0 82 -74q3 -18 0 -69q-3 -49 4 -66q13 -8 35 -8q96 0 166 178l84 205l264 672q27 67 27 112q0 74 -76 74q-87 0 -199 -139
q-111 -137 -202 -330q-89 -182 -162 -389h-137l215 719q22 86 22 104q0 35 -33 35q-57 0 -159 -172l-58 16q67 145 137.5 219t157.5 74q105 0 105 -110q0 -56 -35 -152q-32 -93 -137 -336h30q157 324 273 461t241 137q168 0 168 -159z" />
    <glyph glyph-name="Omacron" unicode="&#x14c;" horiz-adv-x="1546" 
d="M729 1538l23 80h540l-22 -80h-541zM743 -29q-251 0 -417 146q-164 144 -164 415q0 315 184 590q92 137 243 218t335 81q252 0 417 -143q164 -144 164 -418q0 -318 -182 -590q-92 -137 -244 -218t-336 -81zM735 55q142 0 259.5 82t185.5 217q133 263 133 543
q0 208 -102.5 324t-278.5 116q-142 0 -259.5 -82t-185.5 -217q-133 -263 -133 -542q0 -208 103 -324.5t278 -116.5z" />
    <glyph glyph-name="omacron" unicode="&#x14d;" horiz-adv-x="974" 
d="M424 1200l22 80h541l-22 -80h-541zM360 -29q-140 0 -218.5 78t-78.5 232q0 229 160 471q169 243 389 243q139 0 217 -77.5t78 -231.5q0 -232 -157 -471q-170 -244 -390 -244zM342 45q153 0 297 285q119 247 119 430q0 162 -127 162q-159 0 -297 -285q-119 -241 -119 -432
q0 -160 127 -160z" />
    <glyph glyph-name="Obreve" unicode="&#x14e;" horiz-adv-x="1546" 
d="M1001 1481q-122 0 -182 50t-35 146h82q-13 -60 23.5 -89t114.5 -29q161 0 204 118h86q-61 -196 -293 -196zM743 -29q-251 0 -417 146q-164 144 -164 415q0 315 184 590q92 137 243 218t335 81q252 0 417 -143q164 -144 164 -418q0 -318 -182 -590q-92 -137 -244 -218
t-336 -81zM735 55q142 0 259.5 82t185.5 217q133 263 133 543q0 208 -102.5 324t-278.5 116q-142 0 -259.5 -82t-185.5 -217q-133 -263 -133 -542q0 -208 103 -324.5t278 -116.5z" />
    <glyph glyph-name="obreve" unicode="&#x14f;" horiz-adv-x="974" 
d="M676 1094q-125 0 -174 79.5t-8 219.5h84q-30 -106 -3 -160.5t107 -54.5q82 0 145 56t93 159h84q-86 -299 -328 -299zM360 -29q-140 0 -218.5 78t-78.5 232q0 229 160 471q169 243 389 243q139 0 217 -77.5t78 -231.5q0 -232 -157 -471q-170 -244 -390 -244zM342 45
q153 0 297 285q119 247 119 430q0 162 -127 162q-159 0 -297 -285q-119 -241 -119 -432q0 -160 127 -160z" />
    <glyph glyph-name="Ohungarumlaut" unicode="&#x150;" horiz-adv-x="1546" 
d="M1012 1677h121l-271 -196h-88zM1290 1677h121l-270 -196h-88zM743 -29q-251 0 -417 146q-164 144 -164 415q0 315 184 590q92 137 243 218t335 81q252 0 417 -143q164 -144 164 -418q0 -318 -182 -590q-92 -137 -244 -218t-336 -81zM735 55q142 0 259.5 82t185.5 217
q133 263 133 543q0 208 -102.5 324t-278.5 116q-142 0 -259.5 -82t-185.5 -217q-133 -263 -133 -542q0 -208 103 -324.5t278 -116.5z" />
    <glyph glyph-name="ohungarumlaut" unicode="&#x151;" horiz-adv-x="974" 
d="M737 1393h119l-293 -299h-90zM977 1393h119l-293 -299h-90zM360 -29q-140 0 -218.5 78t-78.5 232q0 229 160 471q169 243 389 243q139 0 217 -77.5t78 -231.5q0 -232 -157 -471q-170 -244 -390 -244zM342 45q153 0 297 285q119 247 119 430q0 162 -127 162
q-159 0 -297 -285q-119 -241 -119 -432q0 -160 127 -160z" />
    <glyph glyph-name="OE" unicode="&#x152;" horiz-adv-x="1982" 
d="M1315 1393h764l-103 -353h-86q19 84 19 129q0 102 -74 129q-67 21 -154 21h-299l-163 -571h176q149 0 202 36q55 39 103 174h78l-140 -495h-79q14 66 14 117q0 65 -39 79q-40 15 -164 15h-174l-119 -416q-12 -44 -12 -78q0 -106 135 -106h180q147 0 222 63q71 62 174 279
h84l-144 -416h-692q-88 0 -176 -14q-99 -15 -156 -15q-244 0 -387 147.5t-143 420.5q0 115 28 234.5t89.5 236.5t149.5 207.5t219.5 147t287.5 56.5q73 0 188 -14t191 -14zM936 336l205 715q42 158 -8.5 227.5t-200.5 69.5q-142 0 -258.5 -83t-184.5 -221
q-135 -267 -135 -552q0 -215 82 -331t234 -116q95 0 153 62.5t113 228.5z" />
    <glyph glyph-name="oe" unicode="&#x153;" horiz-adv-x="1497" 
d="M1499 836q0 -145 -172 -256q-172 -114 -453 -117q-18 -73 -18 -146q0 -198 182 -198q154 0 256 190l58 -16q-129 -322 -363 -322q-247 0 -274 236q-62 -111 -156 -173.5t-203 -62.5q-139 0 -216 78t-77 234q0 227 160 469q169 243 387 243q122 0 194.5 -63t78.5 -187
q179 250 411 250q205 0 205 -159zM338 45q158 0 297 287q121 245 121 428q0 162 -129 162q-156 0 -297 -285q-119 -247 -119 -430q0 -80 34 -121t93 -41zM1247 909q-106 0 -203 -112q-96 -107 -151 -271q197 18 319 111q119 88 119 190q0 82 -84 82z" />
    <glyph glyph-name="Racute" unicode="&#x154;" horiz-adv-x="1495" 
d="M1075 1677h164l-309 -196h-131zM897 719l305 -526q65 -115 144 -130l-15 -63h-219l-395 709h-201l-135 -471q-14 -55 -14 -82q0 -52 39.5 -70t146.5 -23l-18 -63h-584l18 63q114 3 166 37q51 29 82 140l266 925q13 50 13 74q0 53 -35.5 70.5t-126.5 19.5l16 64h545
q405 0 405 -297q0 -152 -106.5 -251.5t-296.5 -125.5zM860 1319h-166l-155 -537h200q95 0 166.5 20t112.5 50.5t66.5 73.5t33.5 81t8 80q0 232 -266 232z" />
    <glyph glyph-name="racute" unicode="&#x155;" horiz-adv-x="864" 
d="M664 1094h-91l254 299h170zM244 0h-135l213 715q24 83 24 108q0 35 -33 35q-57 0 -159 -170l-58 17q131 290 291 290q115 0 115 -110q0 -50 -33 -135q-54 -139 -145 -355h28q190 377 305 510q78 90 152 90q54 0 90.5 -33.5t36.5 -93.5q0 -56 -30.5 -92.5t-80.5 -36.5
q-42 0 -61 31q-2 2 -19 37t-28 45q-100 -75 -238 -324q-144 -261 -235 -528z" />
    <glyph glyph-name="uni0156" unicode="&#x156;" horiz-adv-x="1495" 
d="M897 719l305 -526q65 -115 144 -130l-15 -63h-219l-395 709h-201l-135 -471q-14 -55 -14 -82q0 -52 39.5 -70t146.5 -23l-18 -63h-584l18 63q114 3 166 37q51 29 82 140l266 925q13 50 13 74q0 53 -35.5 70.5t-126.5 19.5l16 64h545q405 0 405 -297q0 -152 -106.5 -251.5
t-296.5 -125.5zM860 1319h-166l-155 -537h200q95 0 166.5 20t112.5 50.5t66.5 73.5t33.5 81t8 80q0 232 -266 232zM711 -92q57 0 88.5 -39.5t31.5 -108.5q0 -101 -65 -154.5t-191 -41.5l21 49q83 -11 129.5 26t46.5 101q-37 -27 -76 -27q-43 0 -69.5 25t-26.5 67q0 47 30 75
t81 28z" />
    <glyph glyph-name="uni0157" unicode="&#x157;" horiz-adv-x="864" 
d="M244 0h-135l213 715q24 83 24 108q0 35 -33 35q-57 0 -159 -170l-58 17q131 290 291 290q115 0 115 -110q0 -50 -33 -135q-54 -139 -145 -355h28q190 377 305 510q78 90 152 90q54 0 90.5 -33.5t36.5 -93.5q0 -56 -30.5 -92.5t-80.5 -36.5q-42 0 -61 31q-2 2 -19 37
t-28 45q-100 -75 -238 -324q-144 -261 -235 -528zM14 -436l21 49q83 -11 129.5 26t46.5 101q-38 -27 -76 -27q-43 0 -69.5 25t-26.5 67q0 47 30 75t81 28q57 0 88.5 -39.5t31.5 -108.5q0 -101 -65 -154.5t-191 -41.5z" />
    <glyph glyph-name="Rcaron" unicode="&#x158;" horiz-adv-x="1495" 
d="M948 1481h-174l-137 196h94l133 -141l228 141h108zM897 719l305 -526q65 -115 144 -130l-15 -63h-219l-395 709h-201l-135 -471q-14 -55 -14 -82q0 -52 39.5 -70t146.5 -23l-18 -63h-584l18 63q114 3 166 37q51 29 82 140l266 925q13 50 13 74q0 53 -35.5 70.5
t-126.5 19.5l16 64h545q405 0 405 -297q0 -152 -106.5 -251.5t-296.5 -125.5zM860 1319h-166l-155 -537h200q95 0 166.5 20t112.5 50.5t66.5 73.5t33.5 81t8 80q0 232 -266 232z" />
    <glyph glyph-name="rcaron" unicode="&#x159;" horiz-adv-x="864" 
d="M672 1094h-129l-72 299h80l72 -222l221 222h94zM809 995q54 0 90.5 -33.5t36.5 -93.5q0 -56 -30.5 -92.5t-80.5 -36.5q-42 0 -61 31q-2 2 -19 37t-28 45q-100 -75 -238 -324q-144 -261 -235 -528h-135l213 715q24 83 24 108q0 35 -33 35q-57 0 -159 -170l-58 17
q131 290 291 290q115 0 115 -110q0 -50 -33 -135q-54 -139 -145 -355h28q190 377 305 510q78 90 152 90z" />
    <glyph glyph-name="Sacute" unicode="&#x15a;" horiz-adv-x="1114" 
d="M989 1677h164l-309 -196h-131zM518 -29q-83 0 -164.5 21t-130 42t-51.5 21q-27 0 -68 -65h-77l141 497h84q-34 -229 35 -330.5t231 -101.5q124 0 195 66t71 164q0 141 -151 274l-162 143q-95 83 -139.5 165t-44.5 190q0 163 112 263.5t314 100.5q83 0 164.5 -21t130 -42
t51.5 -21q26 0 67 66h78l-127 -445h-84q47 379 -278 379q-120 0 -191 -66.5t-71 -164.5q0 -75 36 -134t115 -130l162 -144q184 -163 184 -354q0 -157 -110 -264q-112 -109 -322 -109z" />
    <glyph glyph-name="sacute" unicode="&#x15b;" horiz-adv-x="739" 
d="M592 1094h-90l254 299h170zM231 -29q-98 0 -160.5 40t-62.5 108q0 50 28 81t77 31q59 0 94 -77q1 -2 18.5 -53t36.5 -74q72 6 119 48.5t47 102.5q0 59 -90 205l-51 84q-59 96 -81 148t-22 106q0 123 99 199q93 75 235 75q99 0 161 -39.5t62 -107.5q0 -51 -27 -82t-77 -31
q-59 0 -94 78q-5 11 -19 53q-13 41 -39 74q-69 -6 -116 -49t-47 -103q0 -36 17 -74t73 -130l53 -84q98 -157 98 -254q0 -121 -96 -199q-94 -76 -236 -76z" />
    <glyph glyph-name="Scircumflex" unicode="&#x15c;" horiz-adv-x="1114" 
d="M963 1481l-134 141l-227 -141h-106l249 196h175l139 -196h-96zM1126 1403h78l-127 -445h-84q47 379 -278 379q-120 0 -191 -66.5t-71 -164.5q0 -75 36 -134t115 -130l162 -144q184 -163 184 -354q0 -157 -110 -264q-112 -109 -322 -109q-83 0 -164.5 21t-130 42t-51.5 21
q-27 0 -68 -65h-77l141 497h84q-34 -229 35 -330.5t231 -101.5q124 0 195 66t71 164q0 141 -151 274l-162 143q-95 83 -139.5 165t-44.5 190q0 163 112 263.5t314 100.5q83 0 164.5 -21t130 -42t51.5 -21q26 0 67 66z" />
    <glyph glyph-name="scircumflex" unicode="&#x15d;" horiz-adv-x="739" 
d="M692 1094l-69 221l-224 -221h-92l266 299h127l74 -299h-82zM518 995q99 0 161 -39.5t62 -107.5q0 -51 -27 -82t-77 -31q-59 0 -94 78q-5 11 -19 53q-13 41 -39 74q-69 -6 -116 -49t-47 -103q0 -36 17 -74t73 -130l53 -84q98 -157 98 -254q0 -121 -96 -199
q-94 -76 -236 -76q-98 0 -160.5 40t-62.5 108q0 50 28 81t77 31q59 0 94 -77q1 -2 18.5 -53t36.5 -74q72 6 119 48.5t47 102.5q0 59 -90 205l-51 84q-59 96 -81 148t-22 106q0 123 99 199q93 75 235 75z" />
    <glyph glyph-name="Scedilla" unicode="&#x15e;" horiz-adv-x="1114" 
d="M1126 1403h78l-127 -445h-84q47 379 -278 379q-120 0 -191 -66.5t-71 -164.5q0 -75 36 -134t115 -130l162 -144q184 -163 184 -354q0 -148 -102 -256q-105 -108 -301 -117l-58 -82q65 -14 105.5 -56t40.5 -107q0 -71 -50 -119.5t-139 -48.5q-75 0 -124.5 32.5t-49.5 87.5
q0 27 16.5 47.5t41.5 20.5q50 0 53 -61q0 -5 -0.5 -21.5t-0.5 -29.5t1 -17q23 -10 51 -10q52 0 81.5 27t29.5 67q0 101 -164 119l106 151q-76 4 -150 25t-117.5 40t-47.5 19q-27 0 -68 -65h-77l141 497h84q-34 -229 35 -330.5t231 -101.5q124 0 195 66t71 164
q0 141 -151 274l-162 143q-95 83 -139.5 165t-44.5 190q0 163 112 263.5t314 100.5q83 0 164.5 -21t130 -42t51.5 -21q26 0 67 66z" />
    <glyph glyph-name="scedilla" unicode="&#x15f;" horiz-adv-x="739" 
d="M518 995q99 0 161 -39.5t62 -107.5q0 -51 -27 -82t-77 -31q-59 0 -94 78q-5 11 -19 53q-13 41 -39 74q-69 -6 -116 -49t-47 -103q0 -36 17 -74t73 -130l53 -84q98 -157 98 -254q0 -109 -76.5 -183t-199.5 -88l-60 -86q65 -14 105.5 -56t40.5 -107q0 -71 -50 -119.5
t-139 -48.5q-75 0 -124.5 32.5t-49.5 87.5q0 27 16.5 47.5t41.5 20.5q50 0 53 -61v-68q23 -10 51 -10q52 0 81.5 27t29.5 67q0 101 -164 119l104 151q-94 2 -154.5 42t-60.5 106q0 50 28 81t77 31q59 0 94 -77q1 -2 18.5 -53t36.5 -74q72 6 119 48.5t47 102.5q0 59 -90 205
l-51 84q-59 96 -81 148t-22 106q0 123 99 199q93 75 235 75z" />
    <glyph glyph-name="Scaron" unicode="&#x160;" horiz-adv-x="1114" 
d="M862 1481h-174l-137 196h94l133 -141l228 141h108zM1126 1403h78l-127 -445h-84q47 379 -278 379q-120 0 -191 -66.5t-71 -164.5q0 -75 36 -134t115 -130l162 -144q184 -163 184 -354q0 -157 -110 -264q-112 -109 -322 -109q-83 0 -164.5 21t-130 42t-51.5 21
q-27 0 -68 -65h-77l141 497h84q-34 -229 35 -330.5t231 -101.5q124 0 195 66t71 164q0 141 -151 274l-162 143q-95 83 -139.5 165t-44.5 190q0 163 112 263.5t314 100.5q83 0 164.5 -21t130 -42t51.5 -21q26 0 67 66z" />
    <glyph glyph-name="scaron" unicode="&#x161;" horiz-adv-x="739" 
d="M598 1094h-129l-72 299h80l72 -222l221 222h94zM518 995q99 0 161 -39.5t62 -107.5q0 -51 -27 -82t-77 -31q-59 0 -94 78q-5 11 -19 53q-13 41 -39 74q-69 -6 -116 -49t-47 -103q0 -36 17 -74t73 -130l53 -84q98 -157 98 -254q0 -121 -96 -199q-94 -76 -236 -76
q-98 0 -160.5 40t-62.5 108q0 50 28 81t77 31q59 0 94 -77q1 -2 18.5 -53t36.5 -74q72 6 119 48.5t47 102.5q0 59 -90 205l-51 84q-59 96 -81 148t-22 106q0 123 99 199q93 75 235 75z" />
    <glyph glyph-name="uni0162" unicode="&#x162;" horiz-adv-x="1310" 
d="M1436 1434h80l-103 -414h-84q19 108 19 158q0 84 -37 112.5t-133 28.5h-205l-301 -1059q-19 -78 -19 -98q0 -52 47 -75t166 -24l-16 -63h-293l-78 -111q65 -14 105.5 -56t40.5 -107q0 -71 -50 -119.5t-139 -48.5q-75 0 -124.5 32.5t-49.5 87.5q0 27 16 47.5t41 20.5
q51 0 54 -61q0 -5 -0.5 -21.5t-0.5 -29.5t1 -17q23 -10 51 -10q52 0 81.5 27t29.5 67q0 101 -164 119l125 180h-297l18 63q136 4 197 45.5t92 147.5l301 1063h-211q-118 0 -180 -59q-63 -60 -127 -240h-86l137 414h78q0 -26 14.5 -33.5t59.5 -7.5h845q46 0 66 8t33 33z" />
    <glyph glyph-name="uni0163" unicode="&#x163;" horiz-adv-x="690" 
d="M737 848h-250l-235 -627q-12 -34 -12 -59q0 -41 34 -41q80 0 218 190l55 -14q-144 -284 -309 -311l-66 -97q65 -14 105 -56t40 -107q0 -71 -50 -119.5t-138 -48.5q-75 0 -124.5 32.5t-49.5 87.5q0 27 16 47.5t41 20.5q51 0 54 -61v-68q23 -10 51 -10q52 0 81 27t29 67
q0 101 -164 119l113 164q-98 15 -98 118q0 58 35 142l243 604h-200l24 86h205l68 196l172 17l-99 -213h236z" />
    <glyph glyph-name="Tcaron" unicode="&#x164;" horiz-adv-x="1310" 
d="M1020 1481h-174l-137 196h94l133 -141l227 141h109zM1436 1434h80l-103 -414h-84q19 108 19 158q0 84 -37 112.5t-133 28.5h-205l-301 -1059q-19 -78 -19 -98q0 -52 47 -75t166 -24l-16 -63h-651l18 63q136 4 197 45.5t92 147.5l301 1063h-211q-118 0 -180 -59
q-63 -60 -127 -240h-86l137 414h78q0 -26 14.5 -33.5t59.5 -7.5h845q46 0 66 8t33 33z" />
    <glyph glyph-name="tcaron" unicode="&#x165;" horiz-adv-x="690" 
d="M707 1059l188 395h133l-264 -395h-57zM453 1130l172 17l-99 -213h236l-25 -86h-250l-235 -627q-12 -34 -12 -59q0 -41 34 -41q80 0 218 190l55 -14q-158 -315 -346 -315q-53 0 -88 31t-35 89t35 142l243 604h-200l24 86h205z" />
    <glyph glyph-name="Tbar" unicode="&#x166;" horiz-adv-x="1310" 
d="M1436 1434h80l-103 -414h-84q19 108 19 158q0 84 -37 112.5t-133 28.5h-205l-168 -590h350l-20 -63h-349l-114 -406q-19 -78 -19 -98q0 -52 47 -75t166 -24l-16 -63h-651l18 63q136 4 197 45.5t92 147.5l115 410h-345l23 63h340l168 590h-211q-118 0 -180 -59
q-63 -60 -127 -240h-86l137 414h78q0 -26 14.5 -33.5t59.5 -7.5h845q46 0 66 8t33 33z" />
    <glyph glyph-name="tbar" unicode="&#x167;" horiz-adv-x="690" 
d="M762 934l-25 -86h-250l-92 -246h219l-20 -63h-223l-119 -318q-12 -34 -12 -59q0 -41 34 -41q80 0 218 190l55 -14q-158 -315 -346 -315q-53 0 -88 31t-35 89t35 142l118 295h-170l23 63h174l98 246h-200l24 86h205l68 196l172 17l-99 -213h236z" />
    <glyph glyph-name="Utilde" unicode="&#x168;" horiz-adv-x="1413" 
d="M877 1677q-157 0 -215 -196h45q47 102 135 102q41 0 127 -51q83 -51 151 -51q157 0 215 196h-45q-46 -102 -133 -102q-41 0 -127 51t-153 51zM651 -29q-190 0 -319 97q-127 95 -127 286q0 131 45 267l151 520q27 95 27 121q0 37 -24 51t-85 16l19 64h491l-18 -64
q-119 -3 -158 -31q-38 -26 -69 -139l-170 -584q-33 -112 -33 -198q0 -136 82 -208.5t217 -72.5q323 0 440 408l174 618q27 88 27 121q0 52 -36 68t-140 18l18 64h432l-18 -64q-75 -3 -111 -31t-63 -133l-189 -667q-34 -119 -73 -203t-101 -160q-133 -164 -389 -164z" />
    <glyph glyph-name="utilde" unicode="&#x169;" horiz-adv-x="1128" 
d="M670 1343q-77 0 -129 -54.5t-72 -155.5h45q49 106 121 106q38 0 115 -59q75 -60 141 -60q154 0 203 211h-45q-52 -106 -121 -106q-41 0 -115 59q-77 59 -143 59zM283 -29q-79 0 -124.5 43.5t-45.5 122.5q0 78 55 197l174 385q31 73 31 102q0 37 -35 37q-62 0 -164 -170
l-55 17q131 290 291 290q120 0 120 -112q0 -67 -51 -172l-174 -385q-41 -90 -41 -142q0 -71 76 -71q93 0 207 141q111 137 205 330q88 180 161 387h134l-220 -723q-18 -70 -18 -92q0 -37 37 -37q56 0 155 170l58 -19q-131 -290 -287 -290q-49 0 -79.5 29t-30.5 81
q0 51 28 137q34 100 139 346h-28q-166 -328 -277 -462q-119 -140 -241 -140z" />
    <glyph glyph-name="Umacron" unicode="&#x16a;" horiz-adv-x="1413" 
d="M711 1538l22 80h541l-23 -80h-540zM651 -29q-190 0 -319 97q-127 95 -127 286q0 131 45 267l151 520q27 95 27 121q0 37 -24 51t-85 16l19 64h491l-18 -64q-119 -3 -158 -31q-38 -26 -69 -139l-170 -584q-33 -112 -33 -198q0 -136 82 -208.5t217 -72.5q323 0 440 408
l174 618q27 88 27 121q0 52 -36 68t-140 18l18 64h432l-18 -64q-75 -3 -111 -31t-63 -133l-189 -667q-34 -119 -73 -203t-101 -160q-133 -164 -389 -164z" />
    <glyph glyph-name="umacron" unicode="&#x16b;" horiz-adv-x="1128" 
d="M508 1200l22 80h541l-22 -80h-541zM283 -29q-79 0 -124.5 43.5t-45.5 122.5q0 78 55 197l174 385q31 73 31 102q0 37 -35 37q-62 0 -164 -170l-55 17q131 290 291 290q120 0 120 -112q0 -67 -51 -172l-174 -385q-41 -90 -41 -142q0 -71 76 -71q93 0 207 141
q111 137 205 330q88 180 161 387h134l-220 -723q-18 -70 -18 -92q0 -37 37 -37q56 0 155 170l58 -19q-131 -290 -287 -290q-49 0 -79.5 29t-30.5 81q0 51 28 137q34 100 139 346h-28q-166 -328 -277 -462q-119 -140 -241 -140z" />
    <glyph glyph-name="Ubreve" unicode="&#x16c;" horiz-adv-x="1413" 
d="M985 1481q-122 0 -182 50t-35 146h82q-13 -60 23 -89t114 -29q162 0 205 118h86q-61 -196 -293 -196zM651 -29q-190 0 -319 97q-127 95 -127 286q0 131 45 267l151 520q27 95 27 121q0 37 -24 51t-85 16l19 64h491l-18 -64q-119 -3 -158 -31q-38 -26 -69 -139l-170 -584
q-33 -112 -33 -198q0 -136 82 -208.5t217 -72.5q323 0 440 408l174 618q27 88 27 121q0 52 -36 68t-140 18l18 64h432l-18 -64q-75 -3 -111 -31t-63 -133l-189 -667q-34 -119 -73 -203t-101 -160q-133 -164 -389 -164z" />
    <glyph glyph-name="ubreve" unicode="&#x16d;" horiz-adv-x="1128" 
d="M760 1094q-125 0 -174 79.5t-8 219.5h84q-30 -106 -3 -160.5t107 -54.5q82 0 145 56t93 159h83q-86 -299 -327 -299zM283 -29q-79 0 -124.5 43.5t-45.5 122.5q0 78 55 197l174 385q31 73 31 102q0 37 -35 37q-62 0 -164 -170l-55 17q131 290 291 290q120 0 120 -112
q0 -67 -51 -172l-174 -385q-41 -90 -41 -142q0 -71 76 -71q93 0 207 141q111 137 205 330q88 180 161 387h134l-220 -723q-18 -70 -18 -92q0 -37 37 -37q56 0 155 170l58 -19q-131 -290 -287 -290q-49 0 -79.5 29t-30.5 81q0 51 28 137q34 100 139 346h-28
q-166 -328 -277 -462q-119 -140 -241 -140z" />
    <glyph glyph-name="Uring" unicode="&#x16e;" horiz-adv-x="1413" 
d="M1112 1516q-52 -52 -137 -52q-83 0 -135 52q-54 54 -54 133t54 133q51 51 135 51q86 0 137 -51t51 -133t-51 -133zM975 1526q56 0 90.5 34t34.5 89t-34.5 89t-90.5 34q-57 0 -91 -33.5t-34 -89.5t34 -89.5t91 -33.5zM651 -29q-190 0 -319 97q-127 95 -127 286
q0 131 45 267l151 520q27 95 27 121q0 37 -24 51t-85 16l19 64h491l-18 -64q-119 -3 -158 -31q-38 -26 -69 -139l-170 -584q-33 -112 -33 -198q0 -136 82 -208.5t217 -72.5q323 0 440 408l174 618q27 88 27 121q0 52 -36 68t-140 18l18 64h432l-18 -64q-75 -3 -111 -31
t-63 -133l-189 -667q-34 -119 -73 -203t-101 -160q-133 -164 -389 -164z" />
    <glyph glyph-name="uring" unicode="&#x16f;" horiz-adv-x="1128" 
d="M891 1130q-53 -53 -139 -53q-87 0 -140 53t-53 136q0 84 53 137q51 51 140 51q88 0 139 -51q53 -53 53 -137q0 -83 -53 -136zM657 1176q35 -37 94.5 -37t94.5 37q35 35 35 90t-35 92q-35 35 -94.5 35t-94.5 -35q-35 -37 -35 -92t35 -90zM283 -29q-79 0 -124.5 43.5
t-45.5 122.5q0 78 55 197l174 385q31 73 31 102q0 37 -35 37q-62 0 -164 -170l-55 17q131 290 291 290q120 0 120 -112q0 -67 -51 -172l-174 -385q-41 -90 -41 -142q0 -71 76 -71q93 0 207 141q111 137 205 330q88 180 161 387h134l-220 -723q-18 -70 -18 -92q0 -37 37 -37
q56 0 155 170l58 -19q-131 -290 -287 -290q-49 0 -79.5 29t-30.5 81q0 51 28 137q34 100 139 346h-28q-166 -328 -277 -462q-119 -140 -241 -140z" />
    <glyph glyph-name="Uhungarumlaut" unicode="&#x170;" horiz-adv-x="1413" 
d="M993 1677h121l-270 -196h-88zM1272 1677h121l-271 -196h-88zM651 -29q-190 0 -319 97q-127 95 -127 286q0 131 45 267l151 520q27 95 27 121q0 37 -24 51t-85 16l19 64h491l-18 -64q-119 -3 -158 -31q-38 -26 -69 -139l-170 -584q-33 -112 -33 -198q0 -136 82 -208.5
t217 -72.5q323 0 440 408l174 618q27 88 27 121q0 52 -36 68t-140 18l18 64h432l-18 -64q-75 -3 -111 -31t-63 -133l-189 -667q-34 -119 -73 -203t-101 -160q-133 -164 -389 -164z" />
    <glyph glyph-name="uhungarumlaut" unicode="&#x171;" horiz-adv-x="1128" 
d="M821 1393h119l-293 -299h-90zM1061 1393h119l-293 -299h-90zM283 -29q-79 0 -124.5 43.5t-45.5 122.5q0 78 55 197l174 385q31 73 31 102q0 37 -35 37q-62 0 -164 -170l-55 17q131 290 291 290q120 0 120 -112q0 -67 -51 -172l-174 -385q-41 -90 -41 -142q0 -71 76 -71
q93 0 207 141q111 137 205 330q88 180 161 387h134l-220 -723q-18 -70 -18 -92q0 -37 37 -37q56 0 155 170l58 -19q-131 -290 -287 -290q-49 0 -79.5 29t-30.5 81q0 51 28 137q34 100 139 346h-28q-166 -328 -277 -462q-119 -140 -241 -140z" />
    <glyph glyph-name="Uogonek" unicode="&#x172;" horiz-adv-x="1413" 
d="M1145 1329l18 64h432l-18 -64q-75 -3 -111 -31t-63 -133l-189 -667q-58 -197 -141 -318t-217 -174q-178 -156 -178 -262q0 -72 78 -72q88 0 190 176l55 -14q-62 -142 -125 -209t-145 -67q-81 0 -124.5 39.5t-43.5 113.5q0 141 180 266q-43 -6 -92 -6q-190 0 -319 97
q-127 95 -127 286q0 131 45 267l151 520q27 95 27 121q0 37 -24 51t-85 16l19 64h491l-18 -64q-119 -3 -158 -31q-38 -26 -69 -139l-170 -584q-33 -112 -33 -198q0 -136 82 -208.5t217 -72.5q323 0 440 408l174 618q27 88 27 121q0 52 -36 68t-140 18z" />
    <glyph glyph-name="uogonek" unicode="&#x173;" horiz-adv-x="1128" 
d="M768 -328q88 0 190 176l56 -14q-62 -142 -125.5 -209t-145.5 -67q-81 0 -124.5 39.5t-43.5 113.5q0 143 185 269q-44 5 -71 33.5t-27 76.5q0 51 28 137q34 100 139 346h-28q-166 -328 -277 -462q-119 -140 -241 -140q-79 0 -124.5 43.5t-45.5 122.5q0 78 55 197l174 385
q31 73 31 102q0 37 -35 37q-62 0 -164 -170l-55 17q131 290 291 290q120 0 120 -112q0 -67 -51 -172l-174 -385q-41 -90 -41 -142q0 -71 76 -71q93 0 207 141q111 137 205 330q88 180 161 387h134l-220 -723q-18 -70 -18 -92q0 -37 37 -37q56 0 155 170l58 -19
q-91 -198 -185 -258q-184 -163 -184 -268q0 -72 78 -72z" />
    <glyph glyph-name="Wcircumflex" unicode="&#x174;" horiz-adv-x="1968" 
d="M1427 1481l-133 141l-227 -141h-106l249 196h174l140 -196h-97zM1757 1329l17 64h413l-18 -64q-30 -1 -46 -5.5t-40 -25.5t-50.5 -62.5t-68.5 -117.5l-588 -1126h-127l-102 835l-488 -835h-129l-145 1163q-15 116 -33 143q-19 28 -69 31l18 64h424l-18 -64
q-108 -5 -140 -31.5t-22 -111.5l121 -1004l462 793l-24 201q-12 102 -31 127q-20 23 -100 26l18 64h477l-18 -64q-119 -5 -155.5 -36t-24.5 -128l112 -966l484 940q51 96 51 133q0 31 -34.5 43.5t-125.5 13.5z" />
    <glyph glyph-name="wcircumflex" unicode="&#x175;" horiz-adv-x="1585" 
d="M1233 1094l-70 221l-223 -221h-92l266 299h127l74 -299h-82zM1417 995q57 0 84 -46.5t27 -164.5q0 -193 -55.5 -374.5t-163.5 -307.5q-113 -131 -254 -131q-134 0 -211 92q-127 -92 -260 -92q-129 0 -206 72.5t-77 194.5q0 231 295 456q-156 164 -279 164
q-113 0 -151 -141q15 -9 74 0q62 10 71 10q60 0 60 -68q0 -61 -36 -98t-97 -37q-64 0 -106 42.5t-42 113.5q0 106 84 213q82 102 211 102q125 0 264 -127l64 103h121q-204 -272 -289 -418q-88 -149 -88 -264q0 -89 50 -136t138 -47q74 0 148 44q-37 93 -37 227
q0 141 37.5 279t109.5 237q73 102 170 102q125 0 125 -174q0 -154 -68 -340q-67 -186 -182 -319q57 -60 148 -60q66 -1 130 49.5t111 130t77 178.5t34 193q-14 34 -74 107q-59 71 -59 127q0 50 28.5 79t73.5 29zM1063 860q-72 0 -127 -137q-57 -134 -57 -311q0 -104 24 -168
q96 110 154 258q57 146 57 268q0 90 -51 90z" />
    <glyph glyph-name="Ycircumflex" unicode="&#x176;" horiz-adv-x="1273" 
d="M1100 1481l-133 141l-228 -141h-106l250 196h174l139 -196h-96zM1096 1329l16 64h391l-16 -64q-38 -3 -82 -35q-39 -29 -141 -149l-516 -594l-91 -313q-14 -49 -14 -80q0 -48 41 -71t139 -24l-18 -63h-584l19 63q121 4 173 42.5t79 132.5l90 313l-193 592
q-40 121 -59 153q-24 30 -58 33l19 64h432l-18 -64q-168 -6 -168 -86q0 -21 18 -92l154 -508l469 539q49 55 49 90q0 54 -131 57z" />
    <glyph glyph-name="ycircumflex" unicode="&#x177;" horiz-adv-x="974" 
d="M748 1094l-70 221l-223 -221h-93l267 299h127l73 -299h-81zM791 995q141 0 141 -243q0 -376 -418 -809q-361 -385 -649 -385q-94 0 -150.5 50t-56.5 124q0 50 27.5 81t74.5 31q44 0 68.5 -29t28.5 -64t9 -71.5t15 -46.5q208 27 336 211q131 192 131 621q0 389 -76 389
q-63 0 -127 -211l-57 16q89 336 234 336q48 0 82 -32t53.5 -95.5t28 -147.5t8.5 -198q0 -341 -88 -577q399 411 434 731q-17 28 -68 69q-39 29 -51 41q-41 38 -41 97q0 51 30.5 81.5t80.5 30.5z" />
    <glyph glyph-name="Ydieresis" unicode="&#x178;" horiz-adv-x="1273" 
d="M772 1513q-29 -31 -71 -31t-70 29t-28 72.5t28 71.5t70 27.5t71 -29.5t29 -70t-29 -70zM1133 1483q-43 0 -72.5 31t-29 69.5t29.5 71.5q21 21 52 25t57.5 -6.5t45 -35t15.5 -55.5q0 -43 -27.5 -71.5t-70.5 -28.5zM1096 1329l16 64h391l-16 -64q-38 -3 -82 -35
q-39 -29 -141 -149l-516 -594l-91 -313q-14 -49 -14 -80q0 -48 41 -71t139 -24l-18 -63h-584l19 63q121 4 173 42.5t79 132.5l90 313l-193 592q-40 121 -59 153q-24 30 -58 33l19 64h432l-18 -64q-168 -6 -168 -86q0 -21 18 -92l154 -508l469 539q49 55 49 90q0 54 -131 57z
" />
    <glyph glyph-name="Zacute" unicode="&#x179;" horiz-adv-x="1335" 
d="M1190 1677h164l-310 -196h-131zM567 1393h856l-47 -164l-1200 -1073h578q148 0 215 61q65 59 159 270h84l-168 -487h-1050l43 164l1198 1073h-582q-133 0 -184 -51q-56 -56 -119 -228h-86l139 486h80q5 -30 21.5 -40.5t62.5 -10.5z" />
    <glyph glyph-name="zacute" unicode="&#x17a;" horiz-adv-x="1095" 
d="M924 1393h170l-334 -299h-90zM750 389q25 26 65 31.5t76 -7.5t60 -46.5t20 -79.5q0 -99 -78 -209q-76 -107 -217 -107q-54 -3 -122.5 26t-125 64.5t-129 62t-133.5 19.5q16 -32 16 -63q0 -44 -26 -71t-74 -27q-94 0 -94 102q0 15 4 47l858 651l-8 11q-45 -32 -96.5 -38.5
t-91.5 6t-72 36.5q-136 104 -195 104q-50 0 -96 -49q-44 -50 -53 -96q27 -6 44 -5.5t47 4t42 3.5q51 0 51 -58q0 -54 -32.5 -88t-86.5 -34q-58 0 -94.5 37t-36.5 98q0 99 84 192q84 90 227 90q162 0 416 -157l195 178l88 -72l-979 -735l8 -14q91 64 184 55q92 -13 148 -51
q43 -30 121 -86q60 -45 96 -45q44 0 90 55q44 53 53 108q-27 6 -44 5.5t-46 -4t-41 -3.5q-28 0 -41.5 14.5t-13.5 51.5q0 61 33 94z" />
    <glyph glyph-name="Zdotaccent" unicode="&#x17b;" horiz-adv-x="1335" 
d="M1053 1513q-22 -25 -56 -30.5t-63.5 6.5t-50 40t-17.5 62q0 47 32 78t77 31q34 3 61.5 -17t39 -49.5t6.5 -63.5t-29 -57zM567 1393h856l-47 -164l-1200 -1073h578q148 0 215 61q65 59 159 270h84l-168 -487h-1050l43 164l1198 1073h-582q-133 0 -184 -51
q-56 -56 -119 -228h-86l139 486h80q5 -30 21.5 -40.5t62.5 -10.5z" />
    <glyph glyph-name="zdotaccent" unicode="&#x17c;" horiz-adv-x="1095" 
d="M862 1196q-26 -28 -65 -34t-73.5 7t-58 44.5t-20.5 72.5q0 54 36.5 89.5t90.5 35.5t89.5 -35.5t35.5 -89.5q0 -55 -35 -90zM750 389q25 26 65 31.5t76 -7.5t60 -46.5t20 -79.5q0 -99 -78 -209q-76 -107 -217 -107q-54 -3 -122.5 26t-125 64.5t-129 62t-133.5 19.5
q16 -32 16 -63q0 -44 -26 -71t-74 -27q-94 0 -94 102q0 15 4 47l858 651l-8 11q-45 -32 -96.5 -38.5t-91.5 6t-72 36.5q-136 104 -195 104q-50 0 -96 -49q-44 -50 -53 -96q27 -6 44 -5.5t47 4t42 3.5q51 0 51 -58q0 -54 -32.5 -88t-86.5 -34q-58 0 -94.5 37t-36.5 98
q0 99 84 192q84 90 227 90q162 0 416 -157l195 178l88 -72l-979 -735l8 -14q91 64 184 55q92 -13 148 -51q43 -30 121 -86q60 -45 96 -45q44 0 90 55q44 53 53 108q-27 6 -44 5.5t-46 -4t-41 -3.5q-28 0 -41.5 14.5t-13.5 51.5q0 61 33 94z" />
    <glyph glyph-name="Zcaron" unicode="&#x17d;" horiz-adv-x="1335" 
d="M1063 1481h-174l-137 196h94l133 -141l227 141h109zM567 1393h856l-47 -164l-1200 -1073h578q148 0 215 61q65 59 159 270h84l-168 -487h-1050l43 164l1198 1073h-582q-133 0 -184 -51q-56 -56 -119 -228h-86l139 486h80q5 -30 21.5 -40.5t62.5 -10.5z" />
    <glyph glyph-name="zcaron" unicode="&#x17e;" horiz-adv-x="1095" 
d="M766 1094h-129l-72 299h80l72 -222l221 222h94zM750 389q25 26 65 31.5t76 -7.5t60 -46.5t20 -79.5q0 -99 -78 -209q-76 -107 -217 -107q-54 -3 -122.5 26t-125 64.5t-129 62t-133.5 19.5q16 -32 16 -63q0 -44 -26 -71t-74 -27q-94 0 -94 102q0 15 4 47l858 651l-8 11
q-45 -32 -96.5 -38.5t-91.5 6t-72 36.5q-136 104 -195 104q-50 0 -96 -49q-44 -50 -53 -96q27 -6 44 -5.5t47 4t42 3.5q51 0 51 -58q0 -54 -32.5 -88t-86.5 -34q-58 0 -94.5 37t-36.5 98q0 99 84 192q84 90 227 90q162 0 416 -157l195 178l88 -72l-979 -735l8 -14
q91 64 184 55q92 -13 148 -51q43 -30 121 -86q60 -45 96 -45q44 0 90 55q44 53 53 108q-27 6 -44 5.5t-46 -4t-41 -3.5q-28 0 -41.5 14.5t-13.5 51.5q0 61 33 94z" />
    <glyph glyph-name="florin" unicode="&#x192;" horiz-adv-x="1052" 
d="M961 1360q99 0 162 -44.5t63 -117.5q0 -49 -25.5 -80t-73.5 -31q-73 0 -88 76q-1 5 -6.5 60.5t-13.5 74.5q-18 7 -37 7q-71 0 -119 -87.5t-112 -316.5l-25 -86h397l-8 -45h-401l-92 -332q-59 -213 -138 -329q-92 -138 -256 -138q-100 0 -163.5 45t-63.5 119q0 49 26 79
t74 30q71 0 89 -76q3 -12 6.5 -64t11.5 -69q15 -6 37 -6q71 0 119 87t112 314l94 340h-323l10 45h326l22 78q33 120 68 202.5t82 144.5t107.5 91t138.5 29z" />
    <glyph glyph-name="AEacute" unicode="&#x1fc;" horiz-adv-x="1968" 
d="M1683 1677h164l-309 -196h-131zM897 1393h1167l-102 -353h-84q18 80 18 131q0 86 -50.5 117t-176.5 31h-272l-164 -571h149q151 0 201 36q53 38 105 174h77l-141 -495h-78q15 86 15 117q0 65 -39 79q-40 15 -162 15h-148l-118 -416q-15 -53 -15 -80q0 -104 138 -104h155
q145 0 217 63q71 62 174 279h84l-143 -416h-1030l16 63q120 3 162 31q40 27 70 137l65 232h-526l-160 -180q-102 -114 -102 -160q0 -54 153 -60l-16 -63h-440l18 63q47 3 106 52q69 58 183 188l809 905q41 47 41 70q0 51 -174 51zM537 549h477l223 780h-8z" />
    <glyph glyph-name="aeacute" unicode="&#x1fd;" horiz-adv-x="1421" 
d="M1149 1393h170l-334 -299h-90zM1423 836q0 -145 -170 -256q-172 -111 -452 -117q-21 -76 -21 -152q0 -98 47 -145t127 -47q157 0 265 190l57 -16q-51 -118 -119 -203q-95 -119 -254 -119q-119 0 -188.5 66.5t-69.5 193.5q0 103 60 232h-23q-145 -258 -250 -379
q-98 -113 -223 -113q-86 0 -135 52t-49 149q0 153 110 342q108 188 273 324q165 133 297 133q75 0 126 -39l27 80h131l-47 -133q128 116 285 116q91 0 143.5 -39t52.5 -120zM1169 909q-105 0 -198 -112q-99 -114 -152 -271q196 18 318 111q118 90 118 190q0 82 -86 82z
M256 119q95 0 223 156.5t318 496.5q-72 104 -191 107q-64 -3 -166 -111q-103 -109 -186 -266q-84 -159 -84 -275q0 -108 86 -108z" />
    <glyph glyph-name="Oslashacute" unicode="&#x1fe;" horiz-adv-x="1546" 
d="M1190 1677h164l-310 -196h-131zM1489 1393l-123 -142q139 -151 139 -391q0 -318 -182 -590q-92 -137 -244 -218t-336 -81q-238 0 -387 119l-80 -90h-92l119 137q-141 147 -141 395q0 315 184 590q92 137 243 218t335 81q236 0 389 -123l82 95h94zM354 496q0 -146 49 -244
l826 948q-101 137 -297 137q-142 0 -259.5 -82t-185.5 -217q-133 -263 -133 -542zM735 55q142 0 259.5 82t185.5 217q133 263 133 543q0 137 -47 240l-824 -947q99 -135 293 -135z" />
    <glyph glyph-name="oslashacute" unicode="&#x1ff;" horiz-adv-x="974" 
d="M870 1393h170l-333 -299h-91zM846 899l67 72h91l-125 -129q28 -67 28 -156q0 -232 -157 -471q-170 -244 -390 -244q-157 0 -231 95l-63 -66h-91l117 121q-29 73 -29 160q0 229 160 471q169 243 389 243q156 0 234 -96zM334 637q-102 -215 -117 -387l537 557
q-18 115 -123 115q-159 0 -297 -285zM639 330q99 208 117 385l-537 -557q18 -113 123 -113q153 0 297 285z" />
    <glyph glyph-name="uni0218" unicode="&#x218;" horiz-adv-x="1114" 
d="M518 -29q-83 0 -164.5 21t-130 42t-51.5 21q-27 0 -68 -65h-77l141 497h84q-34 -229 35 -330.5t231 -101.5q124 0 195 66t71 164q0 141 -151 274l-162 143q-95 83 -139.5 165t-44.5 190q0 163 112 263.5t314 100.5q83 0 164.5 -21t130 -42t51.5 -21q26 0 67 66h78
l-127 -445h-84q47 379 -278 379q-120 0 -191 -66.5t-71 -164.5q0 -75 36 -134t115 -130l162 -144q184 -163 184 -354q0 -157 -110 -264q-112 -109 -322 -109zM369 -436l20 49q83 -11 129.5 26t46.5 101q-37 -27 -76 -27q-43 0 -69.5 25t-26.5 67q0 47 30 75t81 28
q57 0 89 -39.5t32 -108.5q0 -101 -65 -154.5t-191 -41.5z" />
    <glyph glyph-name="uni0219" unicode="&#x219;" horiz-adv-x="739" 
d="M231 -29q-98 0 -160.5 40t-62.5 108q0 50 28 81t77 31q59 0 94 -77q1 -2 18.5 -53t36.5 -74q72 6 119 48.5t47 102.5q0 59 -90 205l-51 84q-59 96 -81 148t-22 106q0 123 99 199q93 75 235 75q99 0 161 -39.5t62 -107.5q0 -51 -27 -82t-77 -31q-59 0 -94 78q-5 11 -19 53
q-13 41 -39 74q-69 -6 -116 -49t-47 -103q0 -36 17 -74t73 -130l53 -84q98 -157 98 -254q0 -121 -96 -199q-94 -76 -236 -76zM104 -436l21 49q83 -11 129.5 26t46.5 101q-37 -27 -76 -27q-43 0 -69.5 25t-26.5 67q0 47 30 75t81 28q57 0 88.5 -39.5t31.5 -108.5
q0 -101 -65 -154.5t-191 -41.5z" />
    <glyph glyph-name="uni021A" unicode="&#x21a;" horiz-adv-x="1310" 
d="M1436 1434h80l-103 -414h-84q19 108 19 158q0 84 -37 112.5t-133 28.5h-205l-301 -1059q-19 -78 -19 -98q0 -52 47 -75t166 -24l-16 -63h-651l18 63q136 4 197 45.5t92 147.5l301 1063h-211q-118 0 -180 -59q-63 -60 -127 -240h-86l137 414h78q0 -26 14.5 -33.5
t59.5 -7.5h845q46 0 66 8t33 33zM492 -92q57 0 88.5 -39.5t31.5 -108.5q0 -101 -65 -154.5t-191 -41.5l21 49q83 -11 129.5 26t46.5 101q-37 -27 -76 -27q-43 0 -69.5 25t-26.5 67q0 47 30 75t81 28z" />
    <glyph glyph-name="uni021B" unicode="&#x21b;" horiz-adv-x="690" 
d="M737 848h-250l-235 -627q-12 -34 -12 -59q0 -41 34 -41q80 0 218 190l55 -14q-158 -315 -346 -315q-53 0 -88 31t-35 89t35 142l243 604h-200l24 86h205l68 196l172 17l-99 -213h236zM184 -92q57 0 89 -39.5t32 -108.5q0 -101 -65 -154.5t-191 -41.5l21 49
q83 -11 129.5 26t46.5 101q-38 -27 -76 -27q-43 0 -69.5 25t-26.5 67q0 47 29.5 75t80.5 28z" />
    <glyph glyph-name="uni0237" unicode="&#x237;" horiz-adv-x="538" 
d="M-182 -442q-91 0 -150 49t-59 119q0 54 27.5 85t74.5 31q51 0 74 -33t33 -98q9 -56 28 -82q60 1 114 93.5t130 310.5l227 659q17 50 24.5 81t7.5 50.5t-7.5 27t-24.5 7.5q-57 0 -159 -170l-58 17q67 143 136 216.5t153 73.5q121 0 121 -112q0 -52 -41 -170l-215 -635
q-179 -520 -436 -520z" />
    <glyph glyph-name="uni02BC" unicode="&#x2bc;" horiz-adv-x="423" 
d="M240 973l20 59q116 0 176 66q58 64 58 131q-44 -23 -74 -23q-48 0 -77.5 27t-29.5 74q0 50 33 80t84 30q58 0 95.5 -38.5t37.5 -110.5q0 -129 -86 -212t-237 -83z" />
    <glyph glyph-name="circumflex" unicode="&#x2c6;" horiz-adv-x="1228" 
d="M670 1393l73 -299h-81l-70 221l-223 -221h-93l267 299h127z" />
    <glyph glyph-name="caron" unicode="&#x2c7;" horiz-adv-x="1228" 
d="M514 1171l221 222h94l-266 -299h-129l-72 299h80z" />
    <glyph glyph-name="breve" unicode="&#x2d8;" horiz-adv-x="1228" 
d="M545 1094q-125 0 -174.5 79.5t-8.5 219.5h84q-30 -106 -2.5 -160.5t107.5 -54.5q82 0 144 55.5t93 159.5h84q-86 -299 -327 -299z" />
    <glyph glyph-name="dotaccent" unicode="&#x2d9;" horiz-adv-x="1228" 
d="M553 1196q-26 -28 -65 -34t-73.5 7t-58 44.5t-20.5 72.5q0 54 36.5 89.5t90.5 35.5t89.5 -35.5t35.5 -89.5q0 -55 -35 -90z" />
    <glyph glyph-name="ring" unicode="&#x2da;" horiz-adv-x="1228" 
d="M668 1130q-53 -53 -140 -53q-86 0 -139 53t-53 136q0 84 53 137q51 51 139 51q89 0 140 -51q53 -53 53 -137q0 -83 -53 -136zM434 1176q35 -37 94.5 -37t94.5 37q35 35 35 90t-35 92q-35 35 -94.5 35t-94.5 -35q-35 -37 -35 -92t35 -90z" />
    <glyph glyph-name="ogonek" unicode="&#x2db;" horiz-adv-x="1228" 
d="M57 -442q-81 0 -124.5 39.5t-43.5 113.5q0 166 248 309h62q-195 -171 -195 -276q0 -72 78 -72q88 0 190 176l56 -14q-62 -142 -125.5 -209t-145.5 -67z" />
    <glyph glyph-name="tilde" unicode="&#x2dc;" horiz-adv-x="1228" 
d="M489 1343q67 0 144 -59q74 -59 115 -59q68 0 120 106h45q-49 -211 -202 -211q-67 0 -142 60q-77 59 -114 59q-72 0 -121 -106h-45q20 101 71.5 155.5t128.5 54.5z" />
    <glyph glyph-name="hungarumlaut" unicode="&#x2dd;" horiz-adv-x="1228" 
d="M541 1393h118l-292 -299h-91zM780 1393h119l-293 -299h-90z" />
    <glyph glyph-name="gravecomb" unicode="&#x300;" horiz-adv-x="0" 
d="M-18 1393l88 -299h-80l-150 299h142z" />
    <glyph glyph-name="uni0302" unicode="&#x302;" horiz-adv-x="0" 
d="M-2 1393l74 -299h-82l-70 221l-223 -221h-92l266 299h127z" />
    <glyph glyph-name="tildecomb" unicode="&#x303;" horiz-adv-x="0" 
d="M-285 1343q68 0 142 -59q77 -59 116 -59q69 0 121 106h45q-49 -211 -202 -211q-66 0 -144 60q-74 59 -112 59q-72 0 -121 -106h-45q20 101 71.5 155.5t128.5 54.5z" />
    <glyph glyph-name="uni0304" unicode="&#x304;" horiz-adv-x="0" 
d="M-438 1200l22 80h541l-23 -80h-540z" />
    <glyph glyph-name="uni0306" unicode="&#x306;" horiz-adv-x="0" 
d="M-170 1094q-125 0 -174 79.5t-8 219.5h84q-30 -106 -3 -160.5t107 -54.5q82 0 145 56t93 159h84q-86 -299 -328 -299z" />
    <glyph glyph-name="uni0307" unicode="&#x307;" horiz-adv-x="0" 
d="M84 1196q-26 -28 -65 -34t-73.5 7t-58 44.5t-20.5 72.5q0 54 36.5 89.5t90.5 35.5t89.5 -35.5t35.5 -89.5q0 -55 -35 -90z" />
    <glyph glyph-name="uni0308" unicode="&#x308;" horiz-adv-x="0" 
d="M-344 1182q-65 -3 -92.5 51.5t0 109.5t92.5 52q44 0 74 -31t30 -76q0 -44 -30 -75t-74 -31zM94 1212q-31 -31 -75.5 -30.5t-75.5 32.5q-29 31 -29 74.5t29 75.5q31 31 75.5 31t75.5 -31q29 -31 29 -76t-29 -76z" />
    <glyph glyph-name="uni030A" unicode="&#x30a;" horiz-adv-x="0" 
d="M59 1130q-53 -53 -139 -53t-139 53t-53 136q0 84 53 137q51 51 139 51t139 -51q54 -54 54 -137q0 -82 -54 -136zM-174 1176q35 -37 94 -37t94 37q35 35 35 90t-35 92q-35 35 -94 35t-94 -35q-35 -37 -35 -92t35 -90z" />
    <glyph glyph-name="uni030B" unicode="&#x30b;" horiz-adv-x="0" 
d="M-203 1393h119l-293 -299h-90zM37 1393h119l-293 -299h-90z" />
    <glyph glyph-name="uni030C" unicode="&#x30c;" horiz-adv-x="0" 
d="M-158 1171l221 222h95l-267 -299h-129l-71 299h80z" />
    <glyph glyph-name="uni0312" unicode="&#x312;" horiz-adv-x="0" 
d="M145 1458l-14 -51q-56 8 -97.5 -1.5t-63 -31.5t-31.5 -44t-13 -46q29 16 68 16q44 0 74 -26.5t30 -69.5q0 -52 -31.5 -81t-80.5 -29q-56 0 -90.5 37t-34.5 104q0 107 69 176q71 71 215 47z" />
    <glyph glyph-name="uni0326" unicode="&#x326;" horiz-adv-x="0" 
d="M-578 -436l21 49q83 -11 129.5 26t46.5 101q-37 -27 -76 -27q-43 0 -69.5 25t-26.5 67q0 47 30 75t81 28q57 0 88.5 -39.5t31.5 -108.5q0 -101 -65 -154.5t-191 -41.5z" />
    <glyph glyph-name="uni0327" unicode="&#x327;" horiz-adv-x="0" 
d="M-389 10l-84 -121q65 -14 105 -56t40 -107q0 -71 -50 -119.5t-138 -48.5q-75 0 -124.5 32.5t-49.5 87.5q0 27 16 47.5t41 20.5q50 0 53 -61q0 -5 -0.5 -21.5t-0.5 -29.5t1 -17q23 -10 52 -10q52 0 81 27t29 67q0 101 -164 119l131 190h62z" />
    <glyph glyph-name="uni0328" unicode="&#x328;" horiz-adv-x="0" 
d="M-561 -442q-81 0 -124.5 39.5t-43.5 113.5q0 166 248 309h61q-194 -170 -194 -276q0 -72 77 -72q89 0 191 176l55 -14q-62 -142 -125 -209t-145 -67z" />
    <glyph glyph-name="uni0394" unicode="&#x394;" horiz-adv-x="1380" 
d="M475 1393h152l542 -1393h-1237zM518 1284l-473 -1210h944z" />
    <glyph glyph-name="uni03A9" unicode="&#x3a9;" horiz-adv-x="1755" 
d="M784 0h-553l-18 356h84q17 -116 51.5 -156t118.5 -40h235v172q-199 27 -331 168q-131 140 -131 360q0 252 176 408q176 153 454 153q282 0 457 -153q174 -155 174 -408q0 -218 -131 -358q-131 -143 -330 -170v-172h234q84 0 118.5 40t51.5 156h84l-19 -356h-553v395
q168 17 267.5 143t99.5 322q0 229 -117 356t-336 127t-334.5 -126.5t-115.5 -356.5q0 -196 98.5 -322t265.5 -143v-395z" />
    <glyph glyph-name="uni03BC" unicode="&#x3bc;" horiz-adv-x="1001" 
d="M815 965q18 13 63.5 18.5t84.5 -5.5t36 -40q-224 -299 -327 -467q-94 -155 -94 -233q0 -101 104 -101q66 0 114.5 30.5t112.5 106.5h21q-70 -164 -135 -233.5t-162 -69.5q-70 0 -118 47.5t-48 124.5q-66 -91 -128 -131.5t-146 -40.5q-131 0 -175 103q-26 -95 -26 -178
q0 -176 123 -258q-8 -32 -39.5 -56t-71.5 -24q-59 0 -95 56.5t-36 137.5q0 193 133 453q15 103 96 272q85 175 254 473q15 12 47.5 19.5t66 8t58 -11.5t23.5 -36q-240 -288 -344 -445q-105 -156 -105 -245q0 -109 140 -109q134 0 235 98q45 187 338 736z" />
    <glyph glyph-name="pi" unicode="&#x3c0;" horiz-adv-x="1236" 
d="M1305 971l-58 -148h-223q-303 -425 -303 -602q0 -82 86 -82q58 0 110 32.5t130 113.5h10q-66 -161 -137.5 -232t-167.5 -71q-76 0 -128.5 48.5t-52.5 121.5q0 104 87 260t288 411h-287q-199 -461 -323 -651q-123 -190 -252 -190q-63 0 -94.5 50.5t-9.5 129.5
q184 9 303 143q119 137 303 518h-99q-172 0 -294 -51l8 37q76 162 319 162h785z" />
    <glyph glyph-name="Wgrave" unicode="&#x1e80;" horiz-adv-x="1968" 
d="M1151 1677l131 -196h-98l-168 196h135zM1757 1329l17 64h413l-18 -64q-30 -1 -46 -5.5t-40 -25.5t-50.5 -62.5t-68.5 -117.5l-588 -1126h-127l-102 835l-488 -835h-129l-145 1163q-15 116 -33 143q-19 28 -69 31l18 64h424l-18 -64q-108 -5 -140 -31.5t-22 -111.5
l121 -1004l462 793l-24 201q-12 102 -31 127q-20 23 -100 26l18 64h477l-18 -64q-119 -5 -155.5 -36t-24.5 -128l112 -966l484 940q51 96 51 133q0 31 -34.5 43.5t-125.5 13.5z" />
    <glyph glyph-name="wgrave" unicode="&#x1e81;" horiz-adv-x="1585" 
d="M1036 1393l88 -299h-80l-149 299h141zM1417 995q57 0 84 -46.5t27 -164.5q0 -193 -55.5 -374.5t-163.5 -307.5q-113 -131 -254 -131q-134 0 -211 92q-127 -92 -260 -92q-129 0 -206 72.5t-77 194.5q0 231 295 456q-156 164 -279 164q-113 0 -151 -141q15 -9 74 0
q62 10 71 10q60 0 60 -68q0 -61 -36 -98t-97 -37q-64 0 -106 42.5t-42 113.5q0 106 84 213q82 102 211 102q125 0 264 -127l64 103h121q-204 -272 -289 -418q-88 -149 -88 -264q0 -89 50 -136t138 -47q74 0 148 44q-37 93 -37 227q0 141 37.5 279t109.5 237q73 102 170 102
q125 0 125 -174q0 -154 -68 -340q-67 -186 -182 -319q57 -60 148 -60q66 -1 130 49.5t111 130t77 178.5t34 193q-14 34 -74 107q-59 71 -59 127q0 50 28.5 79t73.5 29zM1063 860q-72 0 -127 -137q-57 -134 -57 -311q0 -104 24 -168q96 110 154 258q57 146 57 268
q0 90 -51 90z" />
    <glyph glyph-name="Wacute" unicode="&#x1e82;" horiz-adv-x="1968" 
d="M1456 1677h164l-309 -196h-131zM1757 1329l17 64h413l-18 -64q-30 -1 -46 -5.5t-40 -25.5t-50.5 -62.5t-68.5 -117.5l-588 -1126h-127l-102 835l-488 -835h-129l-145 1163q-15 116 -33 143q-19 28 -69 31l18 64h424l-18 -64q-108 -5 -140 -31.5t-22 -111.5l121 -1004
l462 793l-24 201q-12 102 -31 127q-20 23 -100 26l18 64h477l-18 -64q-119 -5 -155.5 -36t-24.5 -128l112 -966l484 940q51 96 51 133q0 31 -34.5 43.5t-125.5 13.5z" />
    <glyph glyph-name="wacute" unicode="&#x1e83;" horiz-adv-x="1585" 
d="M1294 1393h170l-334 -299h-90zM1417 995q57 0 84 -46.5t27 -164.5q0 -193 -55.5 -374.5t-163.5 -307.5q-113 -131 -254 -131q-134 0 -211 92q-127 -92 -260 -92q-129 0 -206 72.5t-77 194.5q0 231 295 456q-156 164 -279 164q-113 0 -151 -141q15 -9 74 0q62 10 71 10
q60 0 60 -68q0 -61 -36 -98t-97 -37q-64 0 -106 42.5t-42 113.5q0 106 84 213q82 102 211 102q125 0 264 -127l64 103h121q-204 -272 -289 -418q-88 -149 -88 -264q0 -89 50 -136t138 -47q74 0 148 44q-37 93 -37 227q0 141 37.5 279t109.5 237q73 102 170 102
q125 0 125 -174q0 -154 -68 -340q-67 -186 -182 -319q57 -60 148 -60q66 -1 130 49.5t111 130t77 178.5t34 193q-14 34 -74 107q-59 71 -59 127q0 50 28.5 79t73.5 29zM1063 860q-72 0 -127 -137q-57 -134 -57 -311q0 -104 24 -168q96 110 154 258q57 146 57 268
q0 90 -51 90z" />
    <glyph glyph-name="Wdieresis" unicode="&#x1e84;" horiz-adv-x="1968" 
d="M1100 1513q-29 -31 -71.5 -31t-70.5 29t-28 72.5t28 71.5t70.5 27.5t71.5 -29.5t29 -70t-29 -70zM1460 1483q-43 0 -72 31t-28.5 69.5t29.5 71.5q21 21 52 25t57.5 -6.5t45 -35t15.5 -55.5q0 -43 -28 -71.5t-71 -28.5zM1757 1329l17 64h413l-18 -64q-30 -1 -46 -5.5
t-40 -25.5t-50.5 -62.5t-68.5 -117.5l-588 -1126h-127l-102 835l-488 -835h-129l-145 1163q-15 116 -33 143q-19 28 -69 31l18 64h424l-18 -64q-108 -5 -140 -31.5t-22 -111.5l121 -1004l462 793l-24 201q-12 102 -31 127q-20 23 -100 26l18 64h477l-18 -64
q-119 -5 -155.5 -36t-24.5 -128l112 -966l484 940q51 96 51 133q0 31 -34.5 43.5t-125.5 13.5z" />
    <glyph glyph-name="wdieresis" unicode="&#x1e85;" horiz-adv-x="1585" 
d="M940 1182q-65 -3 -92.5 51.5t0 109.5t92.5 52q44 0 74 -31t30 -76q0 -44 -30 -75t-74 -31zM1378 1212q-31 -31 -75.5 -30.5t-73.5 32.5q-31 31 -31 74.5t31 75.5q29 31 73.5 31t75.5 -31q29 -31 29 -76t-29 -76zM1417 995q57 0 84 -46.5t27 -164.5q0 -193 -55.5 -374.5
t-163.5 -307.5q-113 -131 -254 -131q-134 0 -211 92q-127 -92 -260 -92q-129 0 -206 72.5t-77 194.5q0 231 295 456q-156 164 -279 164q-113 0 -151 -141q15 -9 74 0q62 10 71 10q60 0 60 -68q0 -61 -36 -98t-97 -37q-64 0 -106 42.5t-42 113.5q0 106 84 213q82 102 211 102
q125 0 264 -127l64 103h121q-204 -272 -289 -418q-88 -149 -88 -264q0 -89 50 -136t138 -47q74 0 148 44q-37 93 -37 227q0 141 37.5 279t109.5 237q73 102 170 102q125 0 125 -174q0 -154 -68 -340q-67 -186 -182 -319q57 -60 148 -60q66 -1 130 49.5t111 130t77 178.5
t34 193q-14 34 -74 107q-59 71 -59 127q0 50 28.5 79t73.5 29zM1063 860q-72 0 -127 -137q-57 -134 -57 -311q0 -104 24 -168q96 110 154 258q57 146 57 268q0 90 -51 90z" />
    <glyph glyph-name="uni1E9E" unicode="&#x1e9e;" horiz-adv-x="1572" 
d="M997 -29q-73 0 -145.5 20.5t-116 41t-45.5 20.5q-28 0 -57 -63h-80l135 473h86q-77 -410 230 -410q109 0 171 50.5t62 142.5q0 98 -88 205l-98 116q-101 122 -101 242q0 126 109 203q106 72 287 51q7 134 -75.5 204t-242.5 70q-353 0 -467 -387l-272 -950h-363l19 63
q116 5 168 39.5t80 135.5l192 669q70 242 233.5 378t413.5 136q249 0 380 -114.5t106 -315.5q-88 21 -168 21q-83 -3 -139 -26.5t-80.5 -63t-8.5 -99.5t76 -131l100 -125q105 -132 105 -258q0 -150 -112 -244t-294 -94z" />
    <glyph glyph-name="Ygrave" unicode="&#x1ef2;" horiz-adv-x="1273" 
d="M823 1677l131 -196h-98l-168 196h135zM1096 1329l16 64h391l-16 -64q-38 -3 -82 -35q-39 -29 -141 -149l-516 -594l-91 -313q-14 -49 -14 -80q0 -48 41 -71t139 -24l-18 -63h-584l19 63q121 4 173 42.5t79 132.5l90 313l-193 592q-40 121 -59 153q-24 30 -58 33l19 64
h432l-18 -64q-168 -6 -168 -86q0 -21 18 -92l154 -508l469 539q49 55 49 90q0 54 -131 57z" />
    <glyph glyph-name="ygrave" unicode="&#x1ef3;" horiz-adv-x="974" 
d="M551 1393l88 -299h-80l-149 299h141zM791 995q141 0 141 -243q0 -376 -418 -809q-361 -385 -649 -385q-94 0 -150.5 50t-56.5 124q0 50 27.5 81t74.5 31q44 0 68.5 -29t28.5 -64t9 -71.5t15 -46.5q208 27 336 211q131 192 131 621q0 389 -76 389q-63 0 -127 -211l-57 16
q89 336 234 336q48 0 82 -32t53.5 -95.5t28 -147.5t8.5 -198q0 -341 -88 -577q399 411 434 731q-17 28 -68 69q-39 29 -51 41q-41 38 -41 97q0 51 30.5 81.5t80.5 30.5z" />
    <glyph glyph-name="uni2002" unicode="&#x2002;" horiz-adv-x="1024" 
 />
    <glyph glyph-name="uni2003" unicode="&#x2003;" horiz-adv-x="2048" 
 />
    <glyph glyph-name="uni2004" unicode="&#x2004;" horiz-adv-x="681" 
 />
    <glyph glyph-name="uni2005" unicode="&#x2005;" horiz-adv-x="512" 
 />
    <glyph glyph-name="uni2009" unicode="&#x2009;" horiz-adv-x="256" 
 />
    <glyph glyph-name="uni200A" unicode="&#x200a;" horiz-adv-x="86" 
 />
    <glyph glyph-name="endash" unicode="&#x2013;" horiz-adv-x="1044" 
d="M39 586h1024l-29 -97h-1024z" />
    <glyph glyph-name="emdash" unicode="&#x2014;" horiz-adv-x="2068" 
d="M39 586h2048l-29 -97h-2048z" />
    <glyph glyph-name="quoteleft" unicode="&#x2018;" horiz-adv-x="423" 
d="M594 1434l-19 -60q-115 0 -174 -65t-59 -131q42 22 74 22q46 0 76 -27t30 -73q0 -50 -33.5 -80.5t-82.5 -30.5q-60 0 -97 39t-37 111q0 129 85.5 212t236.5 83z" />
    <glyph glyph-name="quoteright" unicode="&#x2019;" horiz-adv-x="423" 
d="M250 1008l18 59q119 0 178 68q59 65 56 131q-39 -25 -72 -25q-48 0 -78 27t-30 73q0 50 34 81.5t84 31.5q58 0 95.5 -39.5t37.5 -111.5q0 -129 -86 -212t-237 -83z" />
    <glyph glyph-name="quotesinglbase" unicode="&#x201a;" horiz-adv-x="423" 
d="M-111 -246l21 60q117 0 176 65q57 63 57 131q-42 -22 -73 -22q-48 0 -77.5 26.5t-29.5 73.5q0 50 33 80.5t84 30.5q58 0 95.5 -39t37.5 -111q0 -129 -86.5 -212t-237.5 -83z" />
    <glyph glyph-name="quotedblleft" unicode="&#x201c;" horiz-adv-x="751" 
d="M594 1434l-19 -60q-115 0 -174 -65t-59 -131q42 22 74 22q46 0 76 -27t30 -73q0 -50 -33.5 -80.5t-82.5 -30.5q-60 0 -97 39t-37 111q0 129 85.5 212t236.5 83zM922 1434l-19 -60q-115 0 -174 -65t-59 -131q42 22 73 22q46 0 76.5 -27t30.5 -73q0 -50 -34 -80.5
t-83 -30.5q-59 0 -96 38.5t-37 111.5q0 129 85.5 212t236.5 83z" />
    <glyph glyph-name="quotedblright" unicode="&#x201d;" horiz-adv-x="751" 
d="M246 993l20 60q117 0 176 65q58 64 58 131q-42 -22 -74 -22q-48 0 -77.5 26.5t-29.5 73.5q0 50 33 80.5t84 30.5q58 0 95.5 -39t37.5 -111q0 -129 -86 -212t-237 -83zM573 993l21 60q117 0 176 65q57 63 57 131q-42 -22 -73 -22q-48 0 -77.5 26.5t-29.5 73.5
q0 50 33 80.5t84 30.5q58 0 95.5 -39t37.5 -111q0 -129 -86.5 -212t-237.5 -83z" />
    <glyph glyph-name="quotedblbase" unicode="&#x201e;" horiz-adv-x="751" 
d="M-111 -246l21 60q117 0 176 65q57 63 57 131q-42 -22 -73 -22q-48 0 -77.5 26.5t-29.5 73.5q0 50 33 80.5t84 30.5q58 0 95.5 -39t37.5 -111q0 -129 -86.5 -212t-237.5 -83zM217 -246l21 60q117 0 176 65q57 63 57 131q-42 -22 -74 -22q-48 0 -77 26.5t-29 73.5
q0 50 33 80.5t84 30.5q58 0 95.5 -39t37.5 -111q0 -129 -86.5 -212t-237.5 -83z" />
    <glyph glyph-name="dagger" unicode="&#x2020;" horiz-adv-x="1222" 
d="M1284 1090q12 -26 -1.5 -77.5t-41.5 -76.5q-291 25 -493 25q-201 0 -506 -25q-14 27 0 78.5t43 75.5q227 -21 442 -82q-16 73 18 202q35 130 93 215l-17 52q35 26 83 26t67 -26l-45 -52q3 -94 -35 -219q-40 -130 -98 -200q252 64 491 84zM418 37l239 831h129l-239 -831
q-59 -217 -197 -477h-12q9 232 80 477z" />
    <glyph glyph-name="daggerdbl" unicode="&#x2021;" horiz-adv-x="1183" 
d="M1305 1233q14 -26 0.5 -77t-43.5 -77q-291 25 -492 25q-203 0 -508 -25q-14 22 2 78q14 51 43 76q232 -21 441 -84q-18 71 16 199q34 124 94 221l-16 51q35 26 82.5 26t66.5 -26l-45 -51q3 -102 -35 -221q-42 -132 -98 -199q258 64 492 84zM639 625h-12q-15 164 30 319
l31 109h131l-31 -109q-46 -154 -149 -319zM434 154l29 108q47 158 151 320h13q15 -160 -33 -320l-29 -108h-131zM-8 127q288 -25 491 -25q201 0 506 25q13 -24 -1.5 -75.5t-41.5 -78.5q-223 20 -442 84q18 -69 -17 -198q-34 -124 -94 -221l17 -52q-35 -29 -83 -29t-67 29
l45 52q-3 96 37 221q40 129 98 198q-259 -64 -493 -84q-14 25 0.5 76.5t44.5 77.5z" />
    <glyph glyph-name="bullet" unicode="&#x2022;" horiz-adv-x="647" 
d="M537 803q69 -69 69 -172t-69 -172q-70 -70 -172 -70t-172 70t-70 172t70 172q69 69 172 69t172 -69z" />
    <glyph glyph-name="ellipsis" unicode="&#x2026;" horiz-adv-x="1581" 
d="M193 -18q-50 0 -84.5 33.5t-34.5 86.5q0 51 34.5 86t84.5 35q51 0 85.5 -35t34.5 -86q0 -53 -34 -86.5t-86 -33.5zM680 -18q-50 0 -84.5 33.5t-34.5 86.5q0 51 34.5 86t84.5 35q51 0 86 -35t35 -86q0 -53 -34.5 -86.5t-86.5 -33.5zM1167 -18q-50 0 -84 33.5t-34 86.5
q0 51 34 86t84 35q51 0 86 -35t35 -86q0 -53 -34.5 -86.5t-86.5 -33.5z" />
    <glyph glyph-name="perthousand" unicode="&#x2030;" horiz-adv-x="1914" 
d="M758 1112q0 -146 -78 -278q-80 -132 -215 -132q-104 0 -166.5 62.5t-62.5 185.5q0 150 79 281q76 129 215 129q106 0 167 -63.5t61 -184.5zM186 0h-88l1209 1331h88zM694 1057q0 87 -50 140.5t-134 53.5q-103 0 -154 -75q-55 -76 -55 -172q0 -86 51 -139.5t133 -53.5
q101 0 156 76q53 77 53 170zM1784 385q0 -147 -78 -279q-79 -131 -217 -131q-104 0 -165.5 62.5t-61.5 185.5q0 150 79 281q77 129 213 129q106 0 168 -63.5t62 -184.5zM1260 383q0 -147 -78 -279q-79 -131 -215 -131q-104 0 -167 63.5t-63 184.5q0 148 80 281
q77 129 215 129q106 0 167 -63.5t61 -184.5zM1194 330q0 88 -50 141t-134 53q-97 0 -154 -78q-55 -76 -55 -170q0 -88 50.5 -141t135.5 -53q97 0 154 78q53 77 53 170zM1718 330q0 87 -50 140.5t-134 53.5q-103 0 -154 -75q-55 -76 -55 -173q0 -86 51 -139t133 -53
q101 0 156 76q53 77 53 170z" />
    <glyph glyph-name="minute" unicode="&#x2032;" horiz-adv-x="477" 
d="M436 1454h166l-293 -483h-57z" />
    <glyph glyph-name="second" unicode="&#x2033;" horiz-adv-x="817" 
d="M477 1454h166l-293 -483h-57zM774 1454h168l-295 -483h-57z" />
    <glyph glyph-name="guilsinglleft" unicode="&#x2039;" horiz-adv-x="589" 
d="M465 887h117l-400 -422l170 -402h-116l-203 412z" />
    <glyph glyph-name="guilsinglright" unicode="&#x203a;" horiz-adv-x="587" 
d="M231 887h117l203 -412l-432 -412h-117l399 422z" />
    <glyph glyph-name="fraction" unicode="&#x2044;" horiz-adv-x="245" 
d="M-387 0h-88l1208 1331h88z" />
    <glyph glyph-name="Euro" unicode="&#x20ac;" horiz-adv-x="1277" 
d="M924 1360q208 0 422 -117l-93 -325h-69q52 364 -262 364q-194 0 -330 -145q-137 -146 -193 -375h668l-41 -43h-635q-12 -59 -18 -117h645l-39 -45h-608q-2 -14 -2 -61q0 -214 93 -329.5t240 -115.5q118 0 212.5 100.5t181.5 315.5h69l-112 -391q-177 -103 -359 -103
q-208 0 -346 138q-139 139 -139 397q0 39 2 49h-193l39 45h156q2 28 16 117h-166l39 43h138q64 259 247 430q180 168 437 168z" />
    <glyph glyph-name="uni20BF" unicode="&#x20bf;" horiz-adv-x="1257" 
d="M1231 1044q0 -154 -120.5 -250t-352.5 -106v-6q354 -21 354 -276q0 -171 -137 -287q-137 -119 -424 -119h-43l-92 -227h-47l92 227h-103l-92 -227h-47l92 227h-360l18 61q104 6 158 35q48 28 78 133l256 885q10 42 10 70q0 51 -34.5 68.5t-119.5 19.5l15 59h461h53
l84 205h45l-82 -209q48 -3 96 -12l90 221h45l-92 -233q199 -58 199 -259zM506 725h131q216 0 322 87.5t106 234.5q0 215 -283 215h-123zM938 393q0 136 -91.5 193t-279.5 57h-84l-112 -395q-11 -37 -11 -66q0 -61 51 -88.5t167 -27.5q179 0 270 98q90 96 90 229z" />
    <glyph glyph-name="uni2100" unicode="&#x2100;" horiz-adv-x="1740" 
d="M745 1053h-24q-144 -239 -225 -330q-80 -92 -172 -92q-66 0 -102 39.5t-36 111.5q0 165 174 357t328 192q56 0 96 -24l19 53h125l-187 -537q-27 -73 15 -73t112 116l43 -12q-95 -215 -215 -215q-94 0 -94 86q0 69 143 328zM360 0l1209 1331h88l-1208 -1331h-89zM309 821
q0 -71 64 -71q65 0 153.5 103t225.5 329q-57 72 -140 75q-73 -6 -188 -163q-115 -160 -115 -273zM1520 696q78 0 125 -35.5t47 -91.5q0 -43 -24 -69.5t-66 -26.5q-63 0 -72 55q-1 2 -2.5 27t-4.5 52t-7 36q-118 -6 -203 -141q-88 -134 -88 -269t127 -135q108 0 184 125
l47 -12q-90 -231 -272 -231q-97 0 -152 52.5t-55 155.5q0 169 127 340q125 168 289 168z" />
    <glyph glyph-name="uni2105" unicode="&#x2105;" horiz-adv-x="1679" 
d="M414 631q-97 0 -152 53t-55 156q0 169 127 340q125 168 291 168q78 0 125 -36t47 -91q0 -44 -24 -70.5t-66 -26.5q-65 0 -74 56q-1 2 -2.5 26.5t-5 51.5t-7.5 36q-116 -6 -202 -141q-88 -137 -88 -268q0 -135 127 -135q108 0 186 124l47 -12q-94 -231 -274 -231zM270 0
h-88l1209 1331h88zM1165 -20q-111 0 -173 57t-62 170q0 163 110 315q116 174 295 174q109 0 171.5 -57.5t62.5 -169.5q0 -150 -109 -315q-125 -174 -295 -174zM1149 41q112 0 211 199q82 165 82 288q0 107 -92 107q-117 0 -211 -199q-82 -171 -82 -289q0 -106 92 -106z" />
    <glyph glyph-name="uni2113" unicode="&#x2113;" horiz-adv-x="1267" 
d="M1368 1167q0 -218 -266 -426q-267 -211 -680 -319q-43 -130 -43 -217q0 -72 28 -100.5t87 -28.5q70 0 132 30t111.5 78.5t112.5 130.5h80q-237 -344 -508 -344q-207 0 -207 213q0 93 33 199q-103 -19 -205 -29l20 70q121 15 209 33q74 197 230 415q155 212 334 349
q186 139 333 139q87 0 143 -47t56 -146zM1126 1286q-101 0 -233 -123q-135 -126 -250 -301q-118 -180 -190 -358q336 103 551 289q217 184 217 374q0 119 -95 119z" />
    <glyph glyph-name="uni2116" unicode="&#x2116;" horiz-adv-x="2222" 
d="M1184 1393h506l-19 -64q-95 -3 -135 -37q-44 -35 -78 -159l-328 -1137h-126l-467 1094l-230 -797q-28 -106 -28 -143q0 -50 39.5 -66t164.5 -21l-18 -63h-526l18 63q129 3 170 41q40 37 84 189l266 928q-31 60 -68.5 81t-115.5 27l18 64h285l500 -1182l264 922
q20 73 20 108q0 54 -41.5 70t-173.5 18zM2058 1348q109 0 171.5 -57.5t62.5 -170.5q0 -150 -109 -315q-125 -174 -295 -174q-111 0 -173 57t-62 170q0 164 110 316q116 174 295 174zM2083 891q82 165 82 289q0 106 -92 106q-117 0 -211 -199q-82 -171 -82 -288
q0 -107 92 -107q112 0 211 199zM2116 440h-578l27 80h575z" />
    <glyph glyph-name="uni2117" unicode="&#x2117;" horiz-adv-x="1234" 
d="M805 1599q205 0 334 -129t129 -331q0 -203 -129 -332t-334 -129q-203 0 -332 129q-131 128 -131 332q0 203 131 331q129 129 332 129zM524 854q108 -111 281 -111q172 0 280 111q109 109 109 285q0 174 -109 286q-109 109 -280 109q-172 0 -281 -109q-108 -111 -108 -286
q0 -177 108 -285zM631 1393h227q75 0 118.5 -34.5t43.5 -94.5q0 -62 -42 -95.5t-120 -33.5h-78v-154q0 -36 12.5 -48.5t51.5 -17.5v-28h-215v28q38 1 49.5 15.5t11.5 56.5v307q0 39 -11.5 54t-47.5 16v29zM780 1169h49q99 0 99 95q0 94 -99 94h-49v-189z" />
    <glyph glyph-name="trademark" unicode="&#x2122;" horiz-adv-x="1972" 
d="M889 1468h-111l-164 -581q-12 -43 -12 -56q0 -29 28 -41.5t101 -13.5l-12 -39h-408l13 39q85 4 117.5 26t50.5 81l165 585h-110q-72 0 -105 -26q-33 -24 -75 -133h-60l76 231h53q0 -22 45 -22h508q44 0 60 22h51l-56 -231h-57q8 55 8 80q0 51 -22.5 65t-83.5 14z
M1462 874l412 644h215l-12 -39q-59 -5 -79.5 -23t-27.5 -76l-63 -491q-11 -69 3 -90.5t75 -22.5l-13 -39h-342l10 39q83 5 114 28.5t38 90.5l63 475l-407 -635h-86l-74 649l-178 -481q-33 -66 -14.5 -94.5t106.5 -32.5l-12 -39h-295l10 39q60 6 85.5 29.5t51.5 97.5l177 477
q28 51 13.5 74.5t-85.5 24.5l12 39h230z" />
    <glyph glyph-name="uni2126" unicode="&#x2126;" horiz-adv-x="1755" 
d="M784 0h-553l-18 356h84q17 -116 51.5 -156t118.5 -40h235v172q-199 27 -331 168q-131 140 -131 360q0 252 176 408q176 153 454 153q282 0 457 -153q174 -155 174 -408q0 -218 -131 -358q-131 -143 -330 -170v-172h234q84 0 118.5 40t51.5 156h84l-19 -356h-553v395
q168 17 267.5 143t99.5 322q0 229 -117 356t-336 127t-334.5 -126.5t-115.5 -356.5q0 -196 98.5 -322t265.5 -143v-395z" />
    <glyph glyph-name="estimated" unicode="&#x212e;" horiz-adv-x="1746" 
d="M950 31q378 0 572 243l45 -41q-97 -131 -259 -196.5t-358 -65.5q-336 0 -544 205q-209 206 -209 516q0 307 213 520q212 209 540 209q341 0 543 -202q202 -205 205 -535h-1223v-477q194 -176 475 -176zM1419 745v457q-183 160 -469 160q-285 0 -475 -178v-439h944z" />
    <glyph glyph-name="uni2153" unicode="&#x2153;" horiz-adv-x="1312" 
d="M504 762l-10 -37h-344l10 37q79 1 102.5 15t40.5 69l133 465l-135 -78l23 82l137 78h104l-157 -547q-22 -44 -2.5 -63.5t98.5 -20.5zM-6 0l1208 1331h88l-1208 -1331h-88zM831 467h-47l60 201h413l-24 -95l-277 -196q96 2 157 -44t61 -136q0 -94 -68 -152.5t-193 -58.5
q-99 0 -161 38.5t-62 100.5q0 35 19.5 55.5t50.5 20.5q43 0 55 -39q4 -5 0.5 -51.5t-2.5 -55.5q39 -22 96 -22q77 0 119.5 38.5t42.5 100.5q0 142 -229 115l18 73l291 213h-195q-54 -1 -67 -9q-22 -12 -48 -74q-5 -10 -10 -23z" />
    <glyph glyph-name="uni2154" unicode="&#x2154;" horiz-adv-x="1447" 
d="M631 958h47l-68 -233h-454l24 96l168 105q129 86 187.5 152.5t58.5 138.5q0 51 -34 80.5t-95 29.5q-127 0 -162 -135h-45q11 101 69.5 158t166.5 57q93 0 153 -44t60 -128q0 -83 -67.5 -155t-229.5 -173l-144 -86h199q70 0 103 26t63 111zM129 0l1208 1331h88
l-1208 -1331h-88zM967 467h-47l59 201h414l-25 -95l-276 -196q96 2 156.5 -44t60.5 -136q0 -94 -67.5 -152.5t-192.5 -58.5q-100 0 -162 38.5t-62 100.5q0 35 19.5 55.5t50.5 20.5q43 0 55 -39q4 -5 0.5 -51.5t-2.5 -55.5q39 -22 96 -22q77 0 119.5 38.5t42.5 100.5
q0 142 -229 115l18 73l291 213h-194q-54 -1 -67 -9q-22 -12 -48 -74q-5 -10 -10 -23z" />
    <glyph glyph-name="oneeighth" unicode="&#x215b;" horiz-adv-x="1335" 
d="M504 762l-10 -37h-344l10 37q79 1 102.5 15t40.5 69l133 465l-135 -78l23 82l137 78h104l-157 -547q-22 -44 -2.5 -63.5t98.5 -20.5zM-6 0l1208 1331h88l-1208 -1331h-88zM1020 682q105 0 168 -44.5t63 -123.5q0 -67 -51.5 -112.5t-138.5 -63.5l10 -8q96 -90 96 -172
q0 -80 -62.5 -126t-162.5 -46q-102 0 -166.5 46t-64.5 124q0 68 54 115t140 59l-12 10q-96 84 -96 172q0 80 61.5 125t161.5 45zM977 410l55 -48q117 40 117 146q0 61 -35 94t-94 33q-54 0 -86.5 -27.5t-32.5 -70.5q0 -57 76 -127zM942 33q53 0 87 28.5t34 71.5
q0 59 -78 125l-53 47q-117 -41 -117 -145q0 -62 34.5 -94.5t92.5 -32.5z" />
    <glyph glyph-name="threeeighths" unicode="&#x215c;" horiz-adv-x="1466" 
d="M408 711q-100 0 -162 38.5t-62 100.5q0 35 19.5 55.5t50.5 20.5q43 0 55 -39q4 -5 0.5 -51.5t-2.5 -55.5q42 -22 96 -22q77 0 119.5 38.5t42.5 100.5q0 142 -229 115l18 73l291 213h-194q-54 -1 -67 -9q-22 -12 -48 -74q-5 -10 -10 -23h-47l59 201h414l-25 -95l-276 -196
q96 2 156.5 -44t60.5 -136q0 -94 -67.5 -152.5t-192.5 -58.5zM127 0l1208 1331h88l-1208 -1331h-88zM1153 682q105 0 168 -44.5t63 -123.5q0 -67 -51.5 -112.5t-138.5 -63.5l10 -8q96 -90 96 -172q0 -80 -62.5 -126t-162.5 -46q-102 0 -166.5 46t-64.5 124q0 68 54 115
t140 59l-12 10q-96 84 -96 172q0 80 61.5 125t161.5 45zM1110 410l55 -48q117 40 117 146q0 61 -35 94t-94 33q-54 0 -86.5 -27.5t-32.5 -70.5q0 -57 76 -127zM1075 33q53 0 87 28.5t34 71.5q0 59 -78 125l-53 47q-117 -41 -117 -145q0 -62 34.5 -94.5t92.5 -32.5z" />
    <glyph glyph-name="fiveeighths" unicode="&#x215d;" horiz-adv-x="1437" 
d="M387 711q-99 0 -160 38.5t-61 100.5q0 76 72 76q42 0 51 -35q5 -4 2.5 -55.5t-2.5 -55.5q36 -22 92 -22q76 0 116 40t40 105q0 127 -168 127q-33 0 -111 -10l102 373h275q42 0 57 30h45l-43 -125h-307l-51 -178q31 8 76 8q97 0 163 -49t66 -147q0 -99 -67.5 -160
t-186.5 -61zM96 0l1209 1331h88l-1209 -1331h-88zM1122 682q106 0 169 -44.5t63 -123.5q0 -67 -51.5 -112.5t-139.5 -63.5l11 -8q96 -90 96 -172q0 -80 -63 -126t-163 -46q-102 0 -166.5 46t-64.5 124q0 68 54.5 115t140.5 59l-13 10q-96 84 -96 172q0 80 61.5 125t161.5 45
zM1079 410l56 -48q116 40 116 146q0 61 -35 94t-94 33q-53 0 -85.5 -27.5t-32.5 -70.5q0 -58 75 -127zM1044 33q53 0 87 28.5t34 71.5q0 59 -78 125l-53 47q-116 -40 -116 -145q0 -62 34 -94.5t92 -32.5z" />
    <glyph glyph-name="seveneighths" unicode="&#x215e;" horiz-adv-x="1312" 
d="M715 1298l-449 -573h-80l449 573h-207q-58 0 -81.5 -19t-49.5 -87h-47l59 201h434zM-27 0l1209 1331h88l-1209 -1331h-88zM999 682q106 0 169 -44.5t63 -123.5q0 -67 -51.5 -112.5t-139.5 -63.5l11 -8q96 -90 96 -172q0 -80 -62.5 -126t-162.5 -46q-102 0 -167 46
t-65 124q0 68 54.5 115t140.5 59l-13 10q-96 84 -96 172q0 80 61.5 125t161.5 45zM956 410l56 -48q116 40 116 146q0 61 -35 94t-94 33q-53 0 -85.5 -27.5t-32.5 -70.5q0 -58 75 -127zM922 33q53 0 86.5 28.5t33.5 71.5q0 60 -77 125l-54 47q-116 -40 -116 -145
q0 -62 34.5 -94.5t92.5 -32.5z" />
    <glyph glyph-name="arrowleft" unicode="&#x2190;" horiz-adv-x="1454" 
d="M258 559h1145l-25 -86h-1171l235 -369h-104l-258 412l493 412h134z" />
    <glyph glyph-name="arrowup" unicode="&#x2191;" horiz-adv-x="966" 
d="M752 1421l305 -370l-29 -105l-268 330l-365 -1276h-84l365 1272l-477 -344l34 123z" />
    <glyph glyph-name="arrowright" unicode="&#x2192;" horiz-adv-x="1454" 
d="M1028 928h105l258 -412l-494 -412h-133l448 369h-1144l24 86h1172z" />
    <glyph glyph-name="arrowdown" unicode="&#x2193;" horiz-adv-x="966" 
d="M778 1393l-366 -1274l479 346l-37 -123l-518 -371l-305 371l30 104l267 -329l364 1276h86z" />
    <glyph glyph-name="arrowboth" unicode="&#x2194;" horiz-adv-x="1806" 
d="M1380 928h105l258 -412l-494 -412h-133l449 369h-1358l235 -369h-104l-258 412l493 412h134l-449 -369h1358z" />
    <glyph glyph-name="arrowupdn" unicode="&#x2195;" horiz-adv-x="970" 
d="M1057 1051l-29 -105l-268 330l-334 -1147l467 336l-35 -123l-518 -371l-305 371l28 104l275 -337l336 1161l-475 -342l34 123l519 370z" />
    <glyph glyph-name="uni2196" unicode="&#x2196;" horiz-adv-x="1320" 
d="M426 1174l723 -1037l-70 -47l-725 1036l-108 -489l-70 102l123 539l551 -68l70 -100z" />
    <glyph glyph-name="uni2197" unicode="&#x2197;" horiz-adv-x="1198" 
d="M580 1186l102 69l539 -122l-68 -551l-100 -70l63 496l-1036 -725l-47 69l1036 725z" />
    <glyph glyph-name="uni2198" unicode="&#x2198;" horiz-adv-x="1318" 
d="M1094 291l108 489l70 -100l-123 -541l-551 68l-70 100l496 -63l-725 1036l70 47z" />
    <glyph glyph-name="uni2199" unicode="&#x2199;" horiz-adv-x="1198" 
d="M1245 1137l47 -72l-1036 -725l489 -109l-102 -69l-539 123l68 551l100 71l-63 -495z" />
    <glyph glyph-name="uni21A4" unicode="&#x21a4;" horiz-adv-x="1499" 
d="M1366 559l104 369h84l-235 -824h-84l104 369h-1132l235 -369h-104l-258 412l493 412h134l-449 -369h1108z" />
    <glyph glyph-name="uni21A5" unicode="&#x21a5;" horiz-adv-x="976" 
d="M1057 1051l-29 -105l-268 330l-340 -1192h368l-22 -84h-823l22 84h371l340 1188l-477 -344l34 123l519 370z" />
    <glyph glyph-name="uni21A6" unicode="&#x21a6;" horiz-adv-x="1501" 
d="M1075 928h105l258 -412l-494 -412h-133l449 369h-1108l-105 -369h-84l236 824h84l-105 -369h1133z" />
    <glyph glyph-name="uni21A7" unicode="&#x21a7;" horiz-adv-x="974" 
d="M1155 1393l-25 -84h-368l-340 -1188l477 344l-37 -123l-518 -371l-305 371l31 104l266 -327l340 1190h-369l25 84h823z" />
    <glyph glyph-name="uni21A9" unicode="&#x21a9;" horiz-adv-x="1460" 
d="M924 1174h145q190 0 294.5 -93t104.5 -258t-104.5 -257.5t-294.5 -92.5h-862l235 -369h-104l-258 412l493 412h134l-449 -369h813q142 0 220.5 70t78.5 194t-78.5 194t-220.5 70h-170z" />
    <glyph glyph-name="uni21AA" unicode="&#x21aa;" horiz-adv-x="1638" 
d="M1212 928h105l258 -412l-494 -412h-133l449 369h-811q-190 0 -295 92.5t-105 257.5t105 258t295 93h184l-25 -87h-161q-142 0 -220.5 -70t-78.5 -194t78.5 -194t220.5 -70h862z" />
    <glyph glyph-name="uni21AB" unicode="&#x21ab;" horiz-adv-x="1558" 
d="M1262 1073q139 0 216.5 -77t77.5 -214q0 -309 -401 -309h-205l-106 -369h-86l106 369h-657l235 -369h-104l-258 412l493 412h134l-449 -369h631l61 217q85 297 312 297zM975 559h182q303 0 303 223q0 97 -51.5 152t-142.5 55q-167 0 -232 -219z" />
    <glyph glyph-name="uni21AC" unicode="&#x21ac;" horiz-adv-x="1630" 
d="M1204 928h105l258 -412l-494 -412h-133l449 369h-660l-6 -22l-98 -347h-84l98 349l6 20h-72q-197 0 -299 78.5t-102 230.5q0 137 79 214t218 77q297 0 297 -358q0 -55 -16 -156h690zM571 559h93q18 89 18 156q0 274 -217 274q-92 0 -143.5 -55t-51.5 -152
q0 -223 301 -223z" />
    <glyph glyph-name="uni21AF" unicode="&#x21af;" horiz-adv-x="1007" 
d="M682 840l-260 -736l459 191l-41 -117l-514 -207l-260 490l43 114l231 -442l229 631h-358l213 629h90l-188 -553h356z" />
    <glyph glyph-name="uni21B0" unicode="&#x21b0;" horiz-adv-x="1454" 
d="M391 1024h1145l-25 -86l-270 -938h-84l270 938h-1087l235 -369h-104l-258 412l494 412h133z" />
    <glyph glyph-name="uni21B1" unicode="&#x21b1;" horiz-adv-x="1456" 
d="M1163 1393h105l258 -412l-494 -412h-133l449 369h-1061l-271 -938h-84l295 1024h1172z" />
    <glyph glyph-name="uni21B2" unicode="&#x21b2;" horiz-adv-x="1456" 
d="M1290 455l271 938h84l-295 -1024h-1172l236 -369h-105l-258 412l494 411h133l-449 -368h1061z" />
    <glyph glyph-name="uni21B3" unicode="&#x21b3;" horiz-adv-x="1454" 
d="M999 823h105l258 -411l-494 -412h-133l449 369h-1145l24 86l271 938h84l-271 -938h1088z" />
    <glyph glyph-name="uni21B4" unicode="&#x21b4;" horiz-adv-x="1482" 
d="M1294 1393l-366 -1274l479 346l-37 -123l-518 -371l-305 371l31 104l266 -329l340 1192h-877l25 84h962z" />
    <glyph glyph-name="uni21B6" unicode="&#x21b6;" horiz-adv-x="1294" 
d="M1036 1421q150 0 242 -79.5t92 -237.5q0 -89 -31 -201l-256 -903h-86l260 905q29 110 29 187q0 127 -69.5 188t-182.5 61q-176 0 -258 -114q-39 -54 -61 -105t-47 -137l-93 -321l467 340l-36 -130l-519 -370l-305 370l31 109l272 -340l97 340q43 148 96 238q38 66 82 104
q46 43 118.5 69.5t157.5 26.5z" />
    <glyph glyph-name="uni21B7" unicode="&#x21b7;" horiz-adv-x="1300" 
d="M973 903l-72 -246l475 347l-37 -130l-518 -370l-305 370l31 109l268 -334l74 256q31 112 31 187q0 126 -71 187.5t-185 61.5q-174 0 -254 -114q-39 -55 -62 -107.5t-47 -134.5l-285 -985h-84l283 983q27 97 57 163.5t80 133.5q101 141 314 141q150 0 244 -80t94 -237
q0 -89 -31 -201z" />
    <glyph glyph-name="uni21BA" unicode="&#x21ba;" horiz-adv-x="2007" 
d="M1526 991l411 -370v-123l-358 325v-86q0 -351 -188 -557q-188 -209 -500 -209q-319 0 -522 203t-203 522q0 321 207 525q206 200 538 200v-84q-289 0 -467 -178q-180 -177 -180 -463q0 -278 176 -460q175 -181 451 -181q268 0 432 185q162 180 162 497v99l-371 -338v123z
" />
    <glyph glyph-name="uni21BB" unicode="&#x21bb;" horiz-adv-x="1927" 
d="M1137 1337v84q334 0 540 -200q205 -202 205 -525q0 -319 -203 -522t-522 -203q-312 0 -500 209q-188 206 -188 557v86l-358 -325v123l411 370l412 -370v-123l-371 338v-99q0 -315 164 -497q164 -185 430 -185q278 0 453 181q174 180 174 460q0 285 -178 463
q-181 178 -469 178z" />
    <glyph glyph-name="uni21C4" unicode="&#x21c4;" horiz-adv-x="1660" 
d="M1235 569h-139l450 369h-1343l24 86h1366l-237 369h114l261 -412zM547 823h141l-450 -368h1341l-23 -86h-1366l236 -369h-117l-258 412z" />
    <glyph glyph-name="uni21C5" unicode="&#x21c5;" horiz-adv-x="1544" 
d="M1057 1051l-29 -105l-268 330l-365 -1276h-84l365 1272l-477 -344l34 123l519 370zM1354 1393l-365 -1272l477 344l-34 -123l-519 -371l-305 371l29 104l268 -329l365 1276h84z" />
    <glyph glyph-name="uni21C6" unicode="&#x21c6;" horiz-adv-x="1660" 
d="M852 1393l-451 -369h1342l-23 -86h-1366l236 -369h-117l-258 412l496 412h141zM1430 455l-238 368h115l260 -411l-496 -412h-139l450 369h-1343l24 86h1367z" />
    <glyph glyph-name="uni21C7" unicode="&#x21c7;" horiz-adv-x="1460" 
d="M709 1311l-314 -262h1153l-24 -84h-1155l147 -236h-115l-176 291l344 291h140zM383 664h139l-313 -263h1153l-23 -84h-1155l148 -235h-115l-178 291z" />
    <glyph glyph-name="uni21C8" unicode="&#x21c8;" horiz-adv-x="1449" 
d="M227 1026l39 135l365 260l217 -260l-33 -112l-174 217l-362 -1266h-86l364 1264zM1356 1421l217 -260l-33 -112l-174 217l-362 -1266h-86l364 1264l-330 -238l39 135z" />
    <glyph glyph-name="uni21C9" unicode="&#x21c9;" horiz-adv-x="1460" 
d="M1198 729h-141l315 262h-1153l23 84h1155l-148 236h115l178 -291zM1212 428l-147 236h115l176 -291l-344 -291h-140l314 262h-1153l24 84h1155z" />
    </font>
</defs>
</svg>
