<svg xmlns="http://www.w3.org/2000/svg">
<defs>
<font id="GTAlpina-Light" horiz-adv-x="1392" >
  <font-face 
    font-family="GT Alpina Light"
    font-weight="300"
    font-stretch="normal"
    units-per-em="2048"
    panose-1="0 0 4 0 0 0 0 0 0 0"
    ascent="1638"
    descent="-410"
    x-height="971"
    cap-height="1393"
    bbox="-725.626 -496 3125 1833"
    underline-thickness="102"
    underline-position="-409"
    unicode-range="U+000D-1F91E"
  />
<missing-glyph horiz-adv-x="1728" 
d="M1419 891q228 0 228 -176v-477q-95 65 -220 65q-56 0 -129 -20q-80 -21 -116 -21q-103 0 -103 94v185h-35q-76 0 -194 -37t-154 -37q-110 0 -110 88v184h-35q-161 0 -356 -80v-659h-74v1294q-39 23 -39 68q0 46 38 65t75.5 0t37.5 -65q0 -45 -38 -68v-39q171 74 337 74
q123 0 179.5 -42t56.5 -134v-59q119 43 217 43q141 0 208 -46.5t67 -146.5v-78q92 25 159 25zM549 795q103 0 162 -27v381q0 66 -44 95.5t-141 29.5q-163 0 -331 -80v-475q198 76 354 76zM489 1157v25h119v-25q-21 -3 -37 -31l-88 -147v-66q0 -24 8.5 -33t34.5 -10v-24h-149
v24q24 1 33.5 11.5t9.5 31.5v60l-92 153q-15 28 -35 31v25h143v-25q-31 -5 -38 -11.5t3 -25.5l62 -108l63 108q22 31 -37 37zM696 522q32 0 150 37t201 37q92 0 155 -29v373q0 73 -52 107t-165 34q-126 0 -217 -45v-346q0 -30 -20 -51t-44.5 -30t-44.5 -23t-20 -31
q0 -33 57 -33zM852 958q47 50 119 50t119 -50q47 -51 47 -128.5t-47 -127.5q-47 -51 -119 -51t-119 51q-47 49 -47 127t47 129zM905 727q25 -40 66 -40t67 40q25 40 25 103.5t-25 103.5q-26 40 -67 40t-66 -40q-26 -40 -26 -103.5t26 -103.5zM1589 328v383q0 125 -170 125
q-60 0 -159 -27v-336q0 -27 -20 -45.5t-43.5 -26.5t-43.5 -21.5t-20 -31.5q0 -31 51 -31q28 0 110 21q76 20 136 20q94 0 159 -30zM1507 700q0 -51 -90 -104l-31 -18h101v-48h-141v48l43 30q61 46 61 76q0 45 -51 45q-59 0 -62 -65h-26q-3 110 100 110q96 0 96 -74zM711 688
q0 30 -72 45v-102q8 5 31 15.5t32 19t9 22.5zM1202 473q0 44 -69 59v-106q7 3 19.5 9t19.5 9t15 8t11.5 10t3.5 11zM1415 496q39 0 39 -39t-39 -39q-23 0 -32.5 19.5t0 39t32.5 19.5z" />
    <glyph glyph-name="f_f" unicode="ff" horiz-adv-x="1458" 
d="M1380 1475q128 0 204.5 -48t76.5 -127q0 -51 -29.5 -81.5t-79.5 -30.5q-69 0 -98 63q-6 11 -20 70q-15 51 -31 74q-15 6 -49 6q-130 0 -210.5 -103t-80.5 -270v-57h262v-135h-258v-607q0 -105 47 -135q44 -33 211 -39v-55h-604v55q128 6 164 37q33 26 33 137v607h-512
v-607q0 -107 38 -135q36 -33 168 -39v-55h-553v55q128 6 164 37q33 26 33 137v607h-197v55l197 70q11 245 140.5 379.5t355.5 134.5q115 0 196.5 -33t112.5 -90q120 123 319 123zM401 1030v-59h517q6 126 38 207q-48 6 -69 55q-3 9 -17 70.5t-20 74.5q-58 23 -123 23
q-148 0 -237 -102t-89 -269z" />
    <glyph glyph-name="f_f_i" unicode="ffi" horiz-adv-x="1953" 
d="M1729 983v-762q0 -104 30 -131q29 -29 131 -35v-55h-477v55q98 6 135 35q31 28 31 131v504q0 69 -21 90t-90 21h-401v-607q0 -106 39 -135q36 -33 164 -39v-55h-549v55q128 6 164 37q33 26 33 137v607h-512v-607q0 -107 38 -135q36 -33 168 -39v-55h-553v55q128 6 164 37
q33 26 33 137v607h-197v55l197 70q11 245 140.5 379.5t355.5 134.5q117 0 199.5 -33.5t111.5 -93.5q124 127 334 127q140 0 224.5 -49.5t84.5 -129.5q0 -51 -29.5 -81.5t-77.5 -30.5q-74 0 -100 63q-3 6 -21.5 69.5t-25.5 74.5q-42 10 -80 10q-140 0 -224.5 -102.5
t-84.5 -270.5v-57h563l51 12h52zM401 1030v-59h519q3 110 36 207q-48 6 -69 55q-3 9 -17 70.5t-20 74.5q-58 23 -123 23q-148 0 -237 -102t-89 -269z" />
    <glyph glyph-name="f_f_l" unicode="ffl" horiz-adv-x="1947" 
d="M1729 1454v-1245q0 -98 28 -123t131 -31v-55h-469v55q99 6 129 33q31 25 31 121v983q-20 -4 -29 -4q-69 0 -98 63q-6 11 -20 70q-11 49 -29 74q-15 6 -49 6q-130 0 -210.5 -103t-80.5 -270v-57h270v-135h-266v-607q0 -105 41 -135q39 -33 180 -39v-55h-567v55
q128 6 164 37q33 26 33 137v607h-512v-607q0 -107 38 -135q36 -33 168 -39v-55h-553v55q128 6 164 37q33 26 33 137v607h-197v55l197 70q11 245 140.5 379.5t355.5 134.5q115 0 196.5 -33t112.5 -90q120 123 317 123q132 0 211 -48l94 27h46zM401 1030v-59h517q6 126 38 207
q-48 6 -69 55q-3 9 -17 70.5t-20 74.5q-58 23 -123 23q-148 0 -237 -102t-89 -269z" />
    <glyph glyph-name="f_i" unicode="fi" horiz-adv-x="1294" 
d="M1067 983v-762q0 -103 31 -131q29 -29 131 -35v-55h-477v55q98 6 135 35q31 28 31 131v504q0 69 -21 90t-90 21h-401v-607q0 -107 38 -135q36 -33 164 -39v-55h-549v55q128 6 164 37q33 26 33 137v607h-197v55l197 70q10 244 136 379t343 135q140 0 224.5 -49.5
t84.5 -129.5q0 -51 -29.5 -81.5t-76.5 -30.5q-74 0 -100 63q-2 4 -20 67.5t-27 76.5q-42 10 -80 10q-141 0 -225.5 -102.5t-84.5 -270.5v-57h564l51 12h51z" />
    <glyph glyph-name="f_l" unicode="fl" horiz-adv-x="1286" 
d="M1067 1454v-1245q0 -97 29 -123q28 -25 131 -31v-55h-469v55q99 6 129 33q31 25 31 121v983q-20 -4 -29 -4q-69 0 -98 63q-8 13 -21 70q-11 49 -29 74q-15 6 -49 6q-130 0 -210.5 -103t-80.5 -270v-57h271v-135h-266v-607q0 -105 40 -135q39 -33 181 -39v-55h-568v55
q128 6 164 37q33 26 33 137v607h-197v55l197 70q11 245 131.5 379.5t329.5 134.5q132 0 211 -48l94 27h45z" />
    <glyph glyph-name="f_b.liga" unicode="fb" horiz-adv-x="1841" 
d="M1380 995q171 0 274 -131t103 -352q0 -253 -116 -397t-318 -144q-190 0 -291 119l-49 -96h-65v1196q-6 -2 -27 -2q-69 0 -98 63q-8 13 -21 70q-15 51 -31 74q-15 6 -49 6q-130 0 -210.5 -103t-80.5 -270v-57h263v-135h-258v-607q0 -105 47 -135q44 -33 211 -39v-55h-605
v55q128 6 164 37q33 26 33 137v607h-197v55l197 70q11 245 131.5 379.5t331.5 134.5q128 0 205 -50l98 29h45v-655q111 196 313 196zM1319 49q130 0 201 107.5t71 304.5q0 184 -70.5 288.5t-193.5 104.5q-146 0 -260 -135v-371q0 -145 66 -222t186 -77z" />
    <glyph glyph-name="f_f_b.liga" unicode="ffb" horiz-adv-x="2502" 
d="M2042 995q171 0 274 -131t103 -352q0 -253 -116 -397t-318 -144q-190 0 -291 119l-49 -96h-66v1196q-6 -2 -27 -2q-69 0 -98 63q-6 11 -20 70q-15 51 -31 74q-15 6 -49 6q-130 0 -210.5 -103t-80.5 -270v-57h262v-135h-258v-607q0 -105 47 -135q44 -33 211 -39v-55h-604
v55q128 6 164 37q33 26 33 137v607h-512v-607q0 -107 38 -135q36 -33 168 -39v-55h-553v55q128 6 164 37q33 26 33 137v607h-197v55l197 70q11 245 140.5 379.5t355.5 134.5q115 0 196.5 -33t112.5 -90q120 123 319 123q128 0 205 -50l98 29h46v-655q111 196 313 196z
M401 1030v-59h517q6 126 38 207q-48 6 -69 55q-3 9 -17 70.5t-20 74.5q-58 23 -123 23q-148 0 -237 -102t-89 -269zM1980 49q130 0 201.5 107.5t71.5 304.5q0 184 -70.5 288.5t-193.5 104.5q-146 0 -260 -135v-371q0 -145 65.5 -222t185.5 -77z" />
    <glyph glyph-name="f_f_h.liga" unicode="ffh" horiz-adv-x="2531" 
d="M2335 655v-452q0 -86 24 -113q23 -26 117 -35v-55h-438v55q97 9 123 35q24 24 24 113v418q0 116 -51.5 176.5t-148.5 60.5q-135 0 -256 -139v-520q0 -90 24 -111q24 -24 117 -33v-55h-438v55q92 8 119.5 34t27.5 110v993q-20 -4 -29 -4q-69 0 -98 63q-6 11 -20 70
q-11 49 -29 74q-15 6 -49 6q-130 0 -210.5 -103t-80.5 -270v-57h270v-135h-266v-607q0 -105 41 -135q39 -33 180 -39v-55h-567v55q128 6 164 37q33 26 33 137v607h-512v-607q0 -107 38 -135q36 -33 168 -39v-55h-553v55q128 6 164 37q33 26 33 137v607h-197v55l197 70
q11 245 140.5 379.5t355.5 134.5q115 0 196.5 -33t112.5 -90q120 123 317 123q132 0 211 -48l94 27h46v-655q111 196 309 196q140 0 218.5 -88.5t78.5 -251.5zM401 1030v-59h517q6 126 38 207q-48 6 -69 55q-3 9 -17 70.5t-20 74.5q-58 23 -123 23q-148 0 -237 -102
t-89 -269z" />
    <glyph glyph-name="f_f_j.liga" unicode="ffj" horiz-adv-x="1921" 
d="M1616 971l61 12h52v-881q0 -256 -82.5 -400t-233.5 -144q-98 0 -151.5 38.5t-53.5 106.5q-4 35 15.5 61t48 36t59 5t47.5 -26q13 -17 42 -75.5t48 -76.5q111 37 111 424v674q0 69 -21 90t-90 21h-401v-607q0 -106 45 -135q44 -33 203 -39v-55h-594v55q128 6 164 37
q33 26 33 137v607h-512v-607q0 -107 38 -135q36 -33 168 -39v-55h-553v55q128 6 164 37q33 26 33 137v607h-197v55l197 70q11 245 140.5 379.5t355.5 134.5q117 0 199.5 -33.5t111.5 -93.5q124 127 334 127q140 0 225.5 -49.5t85.5 -129.5q0 -51 -29.5 -81.5t-79.5 -30.5
q-74 0 -100 63q-2 4 -20 67.5t-27 76.5q-42 10 -80 10q-140 0 -224.5 -102.5t-84.5 -270.5v-57h553zM401 1030v-59h519q3 110 36 207q-48 6 -69 55q-3 9 -17 70.5t-20 74.5q-58 23 -123 23q-148 0 -237 -102t-89 -269z" />
    <glyph glyph-name="f_f_k.liga" unicode="ffk" horiz-adv-x="2476" 
d="M2425 971v-56q-57 -9 -117 -49q-66 -44 -188 -155l-166 -148l305 -377q55 -69 89.5 -96.5t76.5 -34.5v-55h-404v55q90 6 90 56q0 26 -53 88l-215 264l-114 -101v-151q0 -88 27.5 -118.5t113.5 -37.5v-55h-438v55q92 9 120 37q27 27 27 119v981q-20 -4 -29 -4
q-69 0 -98 63q-6 11 -20 70q-11 49 -29 74q-15 6 -49 6q-130 0 -210.5 -103t-80.5 -270v-57h270v-135h-266v-607q0 -105 41 -135q39 -33 180 -39v-55h-567v55q128 6 164 37q33 26 33 137v607h-512v-607q0 -107 38 -135q36 -33 168 -39v-55h-553v55q128 6 164 37
q33 26 33 137v607h-197v55l197 70q11 245 140.5 379.5t355.5 134.5q115 0 196.5 -33t112.5 -90q120 123 317 123q132 0 211 -48l94 27h46v-983l337 301q60 54 60 90q0 50 -113 53v56h412zM401 1030v-59h517q6 126 38 207q-48 6 -69 55q-3 9 -17 70.5t-20 74.5
q-58 23 -123 23q-148 0 -237 -102t-89 -269z" />
    <glyph glyph-name="f_h.liga" unicode="fh" horiz-adv-x="1869" 
d="M1673 655v-452q0 -85 25 -113q23 -26 117 -35v-55h-439v55q97 9 123 35q25 25 25 113v418q0 116 -52 176.5t-149 60.5q-135 0 -256 -139v-520q0 -86 25 -111q24 -24 116 -33v-55h-438v55q92 8 120 34t28 110v993q-20 -4 -29 -4q-69 0 -98 63q-8 13 -21 70q-11 49 -29 74
q-15 6 -49 6q-130 0 -210.5 -103t-80.5 -270v-57h271v-135h-266v-607q0 -105 40 -135q39 -33 181 -39v-55h-568v55q128 6 164 37q33 26 33 137v607h-197v55l197 70q11 245 131.5 379.5t329.5 134.5q132 0 211 -48l94 27h45v-655q111 196 309 196q142 0 219.5 -88t77.5 -252z
" />
    <glyph glyph-name="f_j.liga" unicode="fj" horiz-adv-x="1261" 
d="M954 971l62 12h51v-881q0 -256 -82 -400t-233 -144q-98 0 -151.5 38.5t-53.5 106.5q-4 35 15.5 61t48 36t59 5t47.5 -26q13 -17 42 -75.5t48 -76.5q111 37 111 424v674q0 69 -21 90t-90 21h-401v-607q0 -106 45 -135q44 -33 202 -39v-55h-594v55q128 6 164 37
q33 26 33 137v607h-197v55l197 70q10 244 136 379t343 135q140 0 226 -49.5t86 -129.5q0 -51 -29.5 -81.5t-79.5 -30.5q-74 0 -100 63q-2 4 -20 67.5t-27 76.5q-42 10 -80 10q-141 0 -225.5 -102.5t-84.5 -270.5v-57h553z" />
    <glyph glyph-name="f_k.liga" unicode="fk" horiz-adv-x="1814" 
d="M1763 971v-56q-55 -9 -116 -49q-69 -47 -189 -155l-166 -148l305 -377q55 -69 89.5 -96.5t76.5 -34.5v-55h-403v55q90 6 90 56q0 25 -51 88l-217 264l-115 -101v-151q0 -88 27.5 -118.5t113.5 -37.5v-55h-438v55q93 9 121 37q27 27 27 119v981q-20 -4 -29 -4
q-69 0 -98 63q-8 13 -21 70q-11 49 -29 74q-15 6 -49 6q-130 0 -210.5 -103t-80.5 -270v-57h271v-135h-266v-607q0 -105 40 -135q39 -33 181 -39v-55h-568v55q128 6 164 37q33 26 33 137v607h-197v55l197 70q11 245 131.5 379.5t329.5 134.5q132 0 211 -48l94 27h45v-983
l340 301q57 54 57 90q0 50 -110 53v56h409z" />
    <glyph glyph-name="g_j.liga" unicode="gj" horiz-adv-x="1722" 
d="M1360 1376q35 35 88.5 35t87.5 -35t34 -88t-34 -88t-87.5 -35t-88.5 35t-35 88t35 88zM512 995q88 0 156 -24h368v-135h-194q45 -71 45 -170q0 -149 -102.5 -239.5t-272.5 -90.5q-109 0 -190 37q-89 -59 -89 -123q0 -100 152 -100h371q280 0 280 -240q0 -164 -138 -258
t-374 -94q-207 0 -334 72.5t-127 191.5q0 112 156 194q-123 46 -123 170q0 133 174 215q-135 89 -135 265q0 149 103.5 239t273.5 90zM1167 874v48l310 61h51v-930q0 -229 -64 -362t-178 -133q-93 0 -142.5 38.5t-49.5 106.5q0 49 26.5 76.5t71.5 27.5q36 5 59.5 -27t45 -83
t40.5 -70q41 50 41 373v745q0 86 -37 107q-39 22 -174 22zM520 412q93 0 149 61.5t56 175.5q0 120 -58 195.5t-165 75.5q-93 0 -149 -62t-56 -176q0 -120 58 -195t165 -75zM698 -4h-352q-11 0 -65 4q-68 -71 -68 -156q0 -100 83 -154.5t236 -54.5q167 0 266 59.5t99 158.5
q0 143 -199 143z" />
    <glyph glyph-name="g_y.liga" unicode="gy" horiz-adv-x="2146" 
d="M512 995q88 0 156 -24h368v-135h-194q45 -71 45 -170q0 -149 -102.5 -239.5t-272.5 -90.5q-109 0 -190 37q-89 -59 -89 -123q0 -100 152 -100h371q280 0 280 -240q0 -164 -138 -258t-374 -94q-207 0 -334 72.5t-127 191.5q0 112 156 194q-123 46 -123 170q0 133 174 215
q-135 89 -135 265q0 149 103.5 239t273.5 90zM1769 915v56h342v-56q-43 -5 -69.5 -38.5t-67.5 -137.5l-348 -864q-68 -166 -139.5 -240.5t-167.5 -74.5q-87 0 -140 41t-53 108q0 51 28.5 79t78.5 28q35 4 63.5 -24.5t57.5 -72t51 -59.5q66 66 178 338l19 43l-291 694
q-42 104 -73.5 141t-76.5 39v56h426v-56q-131 -6 -131 -84q0 -27 23 -88l202 -503l207 510q21 59 21 81q0 81 -140 84zM520 412q93 0 149 61.5t56 175.5q0 120 -58 195.5t-165 75.5q-93 0 -149 -62t-56 -176q0 -120 58 -195t165 -75zM698 -4h-352q-11 0 -65 4
q-68 -71 -68 -156q0 -100 83 -154.5t236 -54.5q167 0 266 59.5t99 158.5q0 143 -199 143z" />
    <glyph glyph-name="j_j.liga" unicode="jj" horiz-adv-x="1210" 
d="M420 1200q-34 -35 -87.5 -35t-88.5 35t-35 88t35 88t88.5 35t87.5 -35t34 -88t-34 -88zM1024 1200q-34 -35 -87.5 -35t-88.5 35t-35 88t35 88t88.5 35t87.5 -35t34 -88t-34 -88zM94 -442q-96 0 -150.5 38.5t-54.5 106.5q-4 35 16 61t48.5 36t59.5 5t48 -26
q13 -17 41.5 -75.5t47.5 -76.5q112 40 112 424v694q0 83 -37 107q-42 22 -174 22v48l309 61h50v-881q0 -256 -82.5 -400t-233.5 -144zM700 -442q-97 0 -150.5 38.5t-53.5 106.5q-4 35 15.5 61t48 36t59 5t47.5 -26q14 -18 42 -76t46 -76q112 40 112 424v694q0 86 -37 107
q-39 22 -174 22v48l310 61h51v-881q0 -256 -82.5 -400t-233.5 -144z" />
    <glyph glyph-name=".notdef" horiz-adv-x="1728" 
d="M1419 891q228 0 228 -176v-477q-95 65 -220 65q-56 0 -129 -20q-80 -21 -116 -21q-103 0 -103 94v185h-35q-76 0 -194 -37t-154 -37q-110 0 -110 88v184h-35q-161 0 -356 -80v-659h-74v1294q-39 23 -39 68q0 46 38 65t75.5 0t37.5 -65q0 -45 -38 -68v-39q171 74 337 74
q123 0 179.5 -42t56.5 -134v-59q119 43 217 43q141 0 208 -46.5t67 -146.5v-78q92 25 159 25zM549 795q103 0 162 -27v381q0 66 -44 95.5t-141 29.5q-163 0 -331 -80v-475q198 76 354 76zM489 1157v25h119v-25q-21 -3 -37 -31l-88 -147v-66q0 -24 8.5 -33t34.5 -10v-24h-149
v24q24 1 33.5 11.5t9.5 31.5v60l-92 153q-15 28 -35 31v25h143v-25q-31 -5 -38 -11.5t3 -25.5l62 -108l63 108q22 31 -37 37zM696 522q32 0 150 37t201 37q92 0 155 -29v373q0 73 -52 107t-165 34q-126 0 -217 -45v-346q0 -30 -20 -51t-44.5 -30t-44.5 -23t-20 -31
q0 -33 57 -33zM852 958q47 50 119 50t119 -50q47 -51 47 -128.5t-47 -127.5q-47 -51 -119 -51t-119 51q-47 49 -47 127t47 129zM905 727q25 -40 66 -40t67 40q25 40 25 103.5t-25 103.5q-26 40 -67 40t-66 -40q-26 -40 -26 -103.5t26 -103.5zM1589 328v383q0 125 -170 125
q-60 0 -159 -27v-336q0 -27 -20 -45.5t-43.5 -26.5t-43.5 -21.5t-20 -31.5q0 -31 51 -31q28 0 110 21q76 20 136 20q94 0 159 -30zM1507 700q0 -51 -90 -104l-31 -18h101v-48h-141v48l43 30q61 46 61 76q0 45 -51 45q-59 0 -62 -65h-26q-3 110 100 110q96 0 96 -74zM711 688
q0 30 -72 45v-102q8 5 31 15.5t32 19t9 22.5zM1202 473q0 44 -69 59v-106q7 3 19.5 9t19.5 9t15 8t11.5 10t3.5 11zM1415 496q39 0 39 -39t-39 -39q-23 0 -32.5 19.5t0 39t32.5 19.5z" />
    <glyph glyph-name=".null" horiz-adv-x="0" 
 />
    <glyph glyph-name="nonmarkingreturn" horiz-adv-x="681" 
 />
    <glyph glyph-name="CR" unicode="&#xd;" horiz-adv-x="436" 
 />
    <glyph glyph-name="space" unicode=" " horiz-adv-x="436" 
 />
    <glyph glyph-name="exclam" unicode="!" horiz-adv-x="612" 
d="M207 1393h201l-70 -938h-62zM397 16q-26 -28 -65 -34t-73.5 7t-58 44.5t-20.5 72.5q0 42 23 74.5t56 45.5t71.5 7t66.5 -34q37 -37 37 -92.5t-37 -90.5z" />
    <glyph glyph-name="quotedbl" unicode="&#x22;" horiz-adv-x="694" 
d="M440 1456h152l-47 -559h-58zM102 1454h150l-47 -559h-55z" />
    <glyph glyph-name="numbersign" unicode="#" horiz-adv-x="1261" 
d="M1200 1014v-74h-244l-118 -416h239v-75h-262l-129 -449h-90l129 449h-336l-129 -449h-92l129 449h-236v75h258l119 416h-254v74h277l108 379h90l-108 -379h336l108 379h92l-108 -379h221zM410 524h335l121 416h-336z" />
    <glyph glyph-name="dollar" unicode="$" horiz-adv-x="1028" 
d="M901 958h-76q-24 227 -141 295l-63 -546l36 -21q124 -70 182 -156.5t58 -207.5q0 -160 -95 -251t-265 -96l-25 -202h-45l25 202q-3 0 -105 9l-25 -211h-45l25 217q-84 17 -215 78v309h78q24 -234 147 -299l64 545l-45 26q-238 139 -238 365q0 163 97.5 253.5t271.5 92.5
l20 176h45l-20 -176q9 0 104 -8l21 184h45l-23 -193q100 -23 207 -75v-310zM481 788l97 -57l63 541q-47 15 -102 18zM262 1069q0 -81 41.5 -140.5t134.5 -115.5l56 477q-110 -6 -171 -63.5t-61 -157.5zM459 598l-64 -539q52 -11 103 -14l59 498zM766 266q0 151 -168 252
l-53 -471q106 6 163.5 62.5t57.5 156.5z" />
    <glyph glyph-name="percent" unicode="%" horiz-adv-x="1517" 
d="M586 848q-74 -86 -197 -86t-194 86q-72 87 -72 244q0 156 72 243q71 86 194 86t197 -86q71 -86 71 -243q0 -158 -71 -244zM391 0h-84l819 1393h84zM389 877q91 0 145 60t54 155t-54 155t-145 60q-90 0 -143 -60t-53 -155t53 -155t143 -60zM1323 57q-71 -86 -195 -86
q-123 0 -194 86q-74 86 -74 244t74 244q71 86 194 86q124 0 195 -86q72 -87 72 -244t-72 -244zM1128 86q90 0 143.5 60t53.5 155t-53.5 155t-143.5 60q-91 0 -144.5 -60t-53.5 -155t53.5 -155t144.5 -60z" />
    <glyph glyph-name="ampersand" unicode="&#x26;" horiz-adv-x="1376" 
d="M1346 823v-59q-81 -9 -113 -41q-29 -29 -51 -127q-37 -186 -119 -317l33 -31q174 -157 250 -197v-51h-228l-157 143q-141 -170 -412 -170q-226 0 -357 94.5t-131 258.5q0 279 320 344l-2 2q-234 211 -234 401q0 162 109 255t299 93q201 0 315.5 -87.5t114.5 -241.5
q0 -146 -95 -250t-274 -158l394 -356q69 120 69 278q0 78 -21.5 115t-70.5 43v59h361zM289 1130q0 -154 198 -331l78 -70q256 114 256 367q0 121 -71.5 190.5t-196.5 69.5q-120 0 -192 -62.5t-72 -163.5zM582 86q186 0 317 113l-473 432q-193 -70 -193 -266
q0 -128 95 -203.5t254 -75.5z" />
    <glyph glyph-name="quotesingle" unicode="'" horiz-adv-x="354" 
d="M102 1454h150l-47 -559h-55z" />
    <glyph glyph-name="parenleft" unicode="(" horiz-adv-x="657" 
d="M575 -391l-43 -43q-188 191 -288.5 446.5t-100.5 534.5t100.5 534.5t288.5 446.5l43 -43q-282 -384 -282 -938t282 -938z" />
    <glyph glyph-name="parenright" unicode=")" horiz-adv-x="657" 
d="M125 -434l-45 43q285 384 285 938t-285 938l45 43q188 -194 288.5 -448.5t100.5 -532.5t-100.5 -532.5t-288.5 -448.5z" />
    <glyph glyph-name="asterisk" unicode="*" horiz-adv-x="788" 
d="M410 1192h-33l-35 178q-15 90 51 90t51 -90zM621 1235l-162 -82l-21 27l117 137q57 69 104 16q40 -55 -38 -98zM348 1178l-20 -25l-160 84q-85 42 -39 96q44 54 102 -16zM623 1016l-164 76l8 30l180 -6q43 0 64 -18.5t14 -50.5q-21 -71 -102 -31zM330 1090l-168 -74
q-84 -38 -99 31q-8 31 13.5 50t64.5 19l178 4zM248 817q-65 27 -8 105l108 143l29 -14l-45 -174q-11 -41 -33 -57t-51 -3zM541 817q-29 -14 -52.5 2.5t-33.5 57.5l-45 174l28 14l109 -143q59 -75 -6 -105z" />
    <glyph glyph-name="plus" unicode="+" horiz-adv-x="1187" 
d="M635 641h418v-82h-418v-418h-82v418h-418v82h418v418h82v-418z" />
    <glyph glyph-name="comma" unicode="," horiz-adv-x="569" 
d="M137 -270v57q96 1 152 64t51 161q-42 -28 -88 -28q-56 0 -88.5 31t-32.5 85q0 55 37 90t94 35q71 0 110.5 -56t39.5 -151q0 -129 -75.5 -208.5t-199.5 -79.5z" />
    <glyph glyph-name="hyphen" unicode="-" horiz-adv-x="724" 
d="M96 604h533v-127h-533v127z" />
    <glyph glyph-name="period" unicode="." horiz-adv-x="569" 
d="M375 16q-26 -28 -65 -34t-73.5 7t-58 44.5t-20.5 72.5q0 57 35.5 93.5t91.5 36.5q40 4 71.5 -20t45.5 -59t8 -75t-35 -66z" />
    <glyph glyph-name="slash" unicode="/" horiz-adv-x="1036" 
d="M20 -143l891 1679h105l-891 -1679h-105z" />
    <glyph glyph-name="zero" unicode="0" horiz-adv-x="1177" 
d="M590 1421q238 0 364.5 -187.5t126.5 -537.5t-126.5 -537.5t-364.5 -187.5q-239 0 -366.5 187.5t-127.5 537.5t127.5 537.5t366.5 187.5zM881 1083q-110 146 -291 146q-182 0 -291 -146q-111 -144 -111 -387t111 -387q109 -145 291 -145t291 145q108 144 108 387t-108 387
z" />
    <glyph glyph-name="one" unicode="1" horiz-adv-x="872" 
d="M535 1393v-1176q0 -98 40 -125q42 -28 187 -31v-61h-629v61q158 3 203 31q41 24 41 125v1028l-232 -160v148l232 160h158z" />
    <glyph glyph-name="two" unicode="2" horiz-adv-x="1112" 
d="M918 487h81v-487h-880v166l219 199q233 205 338 350q100 135 100 280q0 134 -77 212.5t-207 78.5q-140 0 -220.5 -80.5t-93.5 -234.5h-80q0 221 109.5 335.5t320.5 114.5q198 0 314 -107.5t116 -293.5q0 -201 -200 -404q-92 -94 -291 -270l-205 -180h453q74 0 103 8
t52 43q24 34 33 88.5t15 181.5z" />
    <glyph glyph-name="three" unicode="3" horiz-adv-x="1103" 
d="M596 809q203 0 321.5 -111t118.5 -303q0 -194 -131 -307q-132 -117 -354 -117q-197 0 -317.5 71.5t-120.5 188.5q0 63 32 99.5t88 36.5q93 0 105 -86q3 -14 3.5 -85.5t4.5 -101.5q87 -43 195 -43q158 0 249 82t91 223q0 148 -90.5 218.5t-280.5 70.5q-73 0 -172 -12v131
l502 463h-430q-116 0 -142 -39t-35 -217h-81v422h813v-166l-465 -424q52 6 96 6z" />
    <glyph glyph-name="four" unicode="4" horiz-adv-x="1116" 
d="M815 604h256v-149h-256v-455h-156v455h-628v149l628 789h156v-789zM659 1245l-509 -641h509v641z" />
    <glyph glyph-name="five" unicode="5" horiz-adv-x="1040" 
d="M485 852q224 0 348.5 -114t124.5 -322q0 -205 -131 -324q-133 -121 -346 -121q-181 0 -299 74q-116 70 -116 188q0 62 32.5 99t89.5 37q86 0 101 -86q4 -28 4 -84q-3 -60 4 -109q88 -39 186 -39q149 0 233.5 81.5t84.5 229.5q0 159 -90.5 241.5t-266.5 82.5
q-116 0 -284 -43l57 750h502q59 0 80 12t32 49h74l-18 -227h-596l-33 -406q118 31 227 31z" />
    <glyph glyph-name="six" unicode="6" horiz-adv-x="1138" 
d="M616 -29q-247 0 -385.5 165.5t-138.5 459.5q0 384 199 604q197 221 538 221q71 0 142 -12v-86q-73 8 -129 8q-273 0 -426 -184q-154 -186 -148 -504q113 223 379 223q199 0 320 -118q120 -120 120 -312q0 -210 -129 -336q-129 -129 -342 -129zM618 51q139 0 215 91
t76 257t-82 262.5t-223 96.5q-149 0 -237 -93t-88 -251q0 -162 93.5 -262.5t245.5 -100.5z" />
    <glyph glyph-name="seven" unicode="7" horiz-adv-x="1001" 
d="M61 971v422h889v-166l-588 -1227h-112l590 1227h-510q-118 0 -148 -41q-32 -37 -41 -215h-80z" />
    <glyph glyph-name="eight" unicode="8" horiz-adv-x="1128" 
d="M705 719l36 -21q150 -81 214.5 -162t64.5 -198q0 -170 -123 -268.5t-334 -98.5q-215 0 -337 92t-122 252q0 264 320 359l-37 20q-149 79 -213.5 162t-64.5 199q0 170 122 268t336 98q213 0 335 -92t122 -252q0 -264 -319 -358zM270 1114q0 -164 211 -278l152 -80
q233 85 233 315q0 127 -80 198.5t-223 71.5q-135 0 -214 -61.5t-79 -165.5zM567 51q135 0 213 61.5t78 166.5q0 170 -209 278l-153 80q-234 -85 -234 -315q0 -127 81 -199t224 -72z" />
    <glyph glyph-name="nine" unicode="9" horiz-adv-x="1124" 
d="M338 -10q-105 0 -201 22v88q80 -18 182 -18q255 0 402 176q145 177 133 475q-106 -207 -362 -207q-197 0 -324 121t-127 320q0 202 133 329q131 125 344 125q244 0 379 -166t135 -475q0 -369 -186 -579q-187 -211 -508 -211zM532 633q148 0 230 91t82 257
q0 165 -89 262.5t-237 97.5q-141 0 -220 -93.5t-79 -258.5q0 -168 84.5 -262t228.5 -94z" />
    <glyph glyph-name="colon" unicode=":" horiz-adv-x="569" 
d="M375 721q-26 -28 -65 -34t-73.5 7t-58 44.5t-20.5 72.5q0 57 35.5 93t91.5 36q40 4 71.5 -20t45.5 -58.5t8 -74.5t-35 -66zM375 16q-26 -28 -65 -34t-73.5 7t-58 44.5t-20.5 72.5q0 57 35.5 93.5t91.5 36.5q40 4 71.5 -20t45.5 -59t8 -75t-35 -66z" />
    <glyph glyph-name="semicolon" unicode=";" horiz-adv-x="569" 
d="M356 721q-37 -37 -90 -37t-90 37q-37 35 -37 90t37 92q28 28 66.5 34.5t71.5 -7t56 -45.5t23 -74q0 -56 -37 -90zM137 -270v57q96 1 152 64t51 161q-42 -28 -88 -28q-56 0 -88.5 31t-32.5 85q0 55 37 90t94 35q71 0 110.5 -56t39.5 -151q0 -129 -75.5 -208.5
t-199.5 -79.5z" />
    <glyph glyph-name="less" unicode="&#x3c;" horiz-adv-x="1187" 
d="M135 666l918 346v-88l-817 -306l817 -305v-88l-918 346v95z" />
    <glyph glyph-name="equal" unicode="=" horiz-adv-x="1187" 
d="M1053 733h-918v82h918v-82zM1053 385h-918v82h918v-82z" />
    <glyph glyph-name="greater" unicode="&#x3e;" horiz-adv-x="1187" 
d="M135 924v88l918 -346v-95l-918 -346v88l817 305z" />
    <glyph glyph-name="question" unicode="?" horiz-adv-x="927" 
d="M475 659l-125 -90h412v-153h-543v153l154 119q176 131 241 215q62 77 62 170q0 99 -61.5 154t-172.5 55q-271 0 -280 -311h-80q-8 220 93 335t302 115q174 0 271.5 -81.5t97.5 -227.5q0 -114 -76 -205q-76 -94 -295 -248zM401 201q37 35 90.5 35t90.5 -37t37 -92.5
t-37 -90.5q-26 -28 -65 -34t-73.5 7t-58 44.5t-20.5 72.5q0 59 36 95z" />
    <glyph glyph-name="at" unicode="@" horiz-adv-x="2023" 
d="M946 467l240 76v96q0 248 -219 248q-127 0 -224 -60q6 -39 54 -90q45 -51 45 -94q0 -44 -34 -75t-83 -31q-55 0 -88 37.5t-33 99.5q0 125 133 225q134 96 291 96q146 0 226.5 -87t80.5 -257v-405q0 -90 27.5 -128t89.5 -38q152 0 262 162q109 160 109 379q0 313 -217 512
q-217 196 -549 196q-380 0 -617 -237t-237 -613q0 -369 231 -600t598 -231q286 0 516 155l51 -77q-277 -168 -563 -168q-414 0 -671 254q-259 256 -259 665q0 417 265 682q265 262 688 262q373 0 618 -219q240 -217 240 -567q0 -268 -148 -463q-146 -192 -356 -192
q-96 0 -153.5 49.5t-69.5 142.5q-47 -97 -122 -149t-167 -52q-106 0 -172.5 60t-66.5 159q0 101 67.5 165t216.5 112zM963 94q132 0 223 166v205l-174 -62q-104 -39 -147.5 -77t-43.5 -101q0 -61 38 -96t104 -35z" />
    <glyph glyph-name="A" unicode="A" horiz-adv-x="1441" 
d="M745 1411l463 -1108q60 -141 97 -184q41 -50 102 -56v-63h-508v63q90 5 130 26.5t40 70.5q0 45 -35 129l-71 174h-572l-67 -174q-33 -85 -33 -129q0 -49 39 -70.5t131 -26.5v-63h-426v63q61 6 98 52q36 46 88 176l397 995l-51 125h178zM668 1169l-242 -620h500z" />
    <glyph glyph-name="B" unicode="B" horiz-adv-x="1357" 
d="M750 731v-8q245 -1 362 -87.5t117 -264.5q0 -172 -126 -271.5t-343 -99.5h-664v63q127 3 162 33q31 28 31 142v917q0 112 -31 143q-36 28 -162 31v64h613q483 0 483 -332q0 -312 -442 -330zM672 1319h-213v-553h116q426 0 426 278q0 134 -84 204.5t-245 70.5zM705 63
q161 0 248 79t87 225q-4 68 -13.5 112.5t-36 81t-63.5 56.5t-105.5 34.5t-151.5 20t-211 8.5v-406q0 -115 57 -163t189 -48z" />
    <glyph glyph-name="C" unicode="C" horiz-adv-x="1517" 
d="M840 -29q-333 0 -533 197q-201 198 -201 518q0 326 205 531q204 204 533 204q59 0 121.5 -8.5t110.5 -21t86.5 -25t62.5 -21t26 -8.5q18 0 26.5 13.5t16.5 52.5h78v-445h-84q-38 194 -148.5 286.5t-297.5 92.5q-247 0 -391 -170q-144 -169 -144 -467q0 -300 150 -473
q147 -172 403 -172q195 0 306 103.5t155 328.5h86l-14 -387q-246 -129 -553 -129z" />
    <glyph glyph-name="D" unicode="D" horiz-adv-x="1574" 
d="M647 0h-551v63q127 3 162 33q31 28 31 142v917q0 112 -31 143q-36 28 -162 31v64h545q394 0 610.5 -185t216.5 -522q0 -323 -217 -504q-218 -182 -604 -182zM672 72q265 0 432 170q166 169 166 442q0 295 -170 465t-465 170h-176v-1030q0 -119 48 -168t165 -49z" />
    <glyph glyph-name="E" unicode="E" 
d="M1200 416h86l-29 -416h-1161v63q127 3 162 33q31 28 31 142v917q0 112 -31 143q-36 28 -162 31v64h1145l19 -353h-84q-24 170 -89 226q-65 53 -235 53h-393v-571h321q135 0 172 34t52 176h77v-495h-77q-15 142 -52 176q-38 35 -172 35h-321v-445q0 -99 33 -125
q34 -30 143 -30h276q146 0 205 71q60 72 84 271z" />
    <glyph glyph-name="F" unicode="F" horiz-adv-x="1327" 
d="M96 1393h1145l19 -353h-84q-24 168 -86 224q-64 55 -238 55h-393v-571h321q137 0 174 34q35 35 50 176h77v-495h-77q-15 142 -52 176q-38 35 -172 35h-321v-434q0 -113 45 -142q50 -32 201 -35v-63h-609v63q127 3 162 33q31 28 31 142v917q0 112 -31 143q-36 28 -162 31
v64z" />
    <glyph glyph-name="G" unicode="G" horiz-adv-x="1583" 
d="M836 -29q-330 0 -529 199q-201 198 -201 516q0 328 205 533q205 202 541 202q59 0 121 -8.5t109.5 -21t85.5 -25t61.5 -21t25.5 -8.5q18 0 26.5 14t14.5 52h80v-445h-84q-74 379 -440 379q-254 0 -399.5 -170.5t-145.5 -474.5q0 -296 144 -465q144 -172 393 -172
q364 0 364 230v149q0 96 -49 123q-53 27 -250 33v74h607v-74q-85 -5 -112.5 -42t-27.5 -149v-264q-226 -164 -540 -164z" />
    <glyph glyph-name="H" unicode="H" horiz-adv-x="1648" 
d="M1552 1393v-64q-128 -3 -159 -31q-33 -29 -33 -143v-917q0 -116 33 -142q30 -30 159 -33v-63h-557v63q127 3 162 33q33 26 33 142v436h-731v-436q0 -116 33 -142q35 -30 161 -33v-63h-557v63q127 3 162 33q31 28 31 142v917q0 112 -31 143q-36 28 -162 31v64h557v-64
q-125 -3 -161 -31q-33 -29 -33 -143v-395h731v395q0 114 -33 143q-36 28 -162 31v64h557z" />
    <glyph glyph-name="I" unicode="I" horiz-adv-x="749" 
d="M653 0h-557v63q127 3 162 33q31 28 31 142v917q0 112 -31 143q-36 28 -162 31v64h557v-64q-125 -3 -161 -31q-33 -29 -33 -143v-917q0 -116 33 -142q35 -30 161 -33v-63z" />
    <glyph glyph-name="J" unicode="J" horiz-adv-x="747" 
d="M164 -442q-101 0 -160 45.5t-59 120.5q0 53 29.5 83.5t74.5 30.5q55 0 82 -32.5t47 -98.5q14 -53 39 -78q74 20 105.5 145.5t31.5 387.5v995q0 115 -39 141q-42 28 -213 31v64h566v-64q-97 -3 -119 -31q-25 -28 -25 -141v-919q0 -317 -97 -498.5t-263 -181.5z" />
    <glyph glyph-name="K" unicode="K" horiz-adv-x="1441" 
d="M1417 1393v-64q-53 -6 -110 -41q-59 -38 -168 -135l-416 -369l514 -596q101 -116 180 -125v-63h-520v63q143 6 143 54q0 35 -82 129l-362 426l-137 -121v-313q0 -111 33 -140q32 -32 153 -35v-63h-549v63q124 3 162 33q31 28 31 142v917q0 112 -31 143q-36 28 -162 31v64
h549v-64q-120 -3 -153 -33q-33 -26 -33 -139v-485l514 458q98 85 98 130q0 63 -153 69v64h499z" />
    <glyph glyph-name="L" unicode="L" horiz-adv-x="1314" 
d="M1206 0h-1110v63q127 3 162 33q31 28 31 142v917q0 112 -31 143q-36 28 -162 31v64h570v-64q-140 -3 -172 -35q-35 -35 -35 -153v-891q0 -106 36.5 -140t151.5 -34h219q126 0 191 80q65 77 117 331h86z" />
    <glyph glyph-name="M" unicode="M" horiz-adv-x="1941" 
d="M1608 1149l80 -891q9 -116 47 -154q35 -38 135 -41v-63h-567v63q146 3 186 43q41 38 29 162l-82 914l-432 -1186h-130l-436 1186l-82 -903q-9 -130 31 -170q43 -43 182 -46v-63h-497v63q103 3 143 46q35 41 47 170l80 870q9 115 -18 145q-29 32 -146 35v64h369l432 -1192
l432 1192h367v-64q-121 -3 -150 -35q-29 -33 -20 -145z" />
    <glyph glyph-name="N" unicode="N" horiz-adv-x="1562" 
d="M1014 1329v64h471v-64q-92 -3 -119 -43q-29 -44 -29 -166v-1130h-131l-825 1091v-778q0 -152 37 -192q39 -45 186 -48v-63h-508v63q125 3 162 46q31 42 31 194v899q-56 70 -94.5 95.5t-98.5 31.5v64h283l866 -1157v884q0 127 -41 168q-41 38 -190 41z" />
    <glyph glyph-name="O" unicode="O" horiz-adv-x="1640" 
d="M819 -29q-309 0 -510 201q-203 200 -203 524q0 325 203 525q200 200 510 200q311 0 514 -200q201 -201 201 -525q0 -323 -201 -524q-204 -201 -514 -201zM819 55q234 0 375 176q139 177 139 465q0 290 -139 467q-140 174 -375 174q-233 0 -370 -174q-142 -177 -142 -467
q0 -288 142 -465q138 -176 370 -176z" />
    <glyph glyph-name="P" unicode="P" horiz-adv-x="1253" 
d="M694 651h-235v-401q0 -113 47 -148q49 -36 211 -39v-63h-621v63q127 3 162 33q31 28 31 142v917q0 112 -31 143q-36 28 -162 31v64h649q463 0 463 -361q0 -178 -137 -279.5t-377 -101.5zM715 1319h-256v-594h205q168 0 262 80.5t94 226.5q0 148 -73 217.5t-232 69.5z" />
    <glyph glyph-name="Q" unicode="Q" horiz-adv-x="1640" 
d="M1534 696q0 -313 -186 -508q-188 -200 -482 -215q-20 -39 -20 -90q0 -80 52.5 -123t150.5 -43q104 0 152.5 57.5t53.5 176.5h64q23 -186 -51 -289.5t-228 -103.5q-129 0 -206.5 70t-77.5 190q0 89 49 153q-304 6 -502 207q-197 200 -197 518q0 325 203 525
q200 200 510 200q311 0 514 -200q201 -201 201 -525zM449 1163q-142 -177 -142 -467q0 -288 142 -465q138 -176 370 -176q234 0 375 176q139 177 139 465q0 290 -139 467q-140 174 -375 174q-233 0 -370 -174z" />
    <glyph glyph-name="R" unicode="R" horiz-adv-x="1409" 
d="M842 723l413 -557q64 -88 129 -103v-63h-241l-490 709h-194v-461q0 -112 37 -146q36 -36 157 -39v-63h-557v63q127 3 162 33q31 28 31 142v917q0 112 -31 143q-36 28 -162 31v64h656q440 0 440 -318q0 -139 -91.5 -230t-258.5 -122zM709 1319h-250v-537h190q167 0 261 74
t94 209q0 254 -295 254z" />
    <glyph glyph-name="S" unicode="S" horiz-adv-x="1132" 
d="M582 -29q-89 0 -169.5 21t-124 42t-44.5 21q-28 0 -37 -65h-80v497h86q40 -432 371 -432q124 0 192 60t68 166q0 93 -47.5 160t-155.5 120l-213 111q-148 75 -216.5 171.5t-68.5 229.5q0 161 112.5 254.5t309.5 93.5q80 0 154.5 -21t117.5 -42t44 -21q22 0 34 66h78v-445
h-84q-20 197 -102 288t-240 91q-118 0 -190 -60.5t-72 -160.5q0 -88 46.5 -150.5t156.5 -119.5l223 -115q142 -74 208.5 -167.5t66.5 -221.5q0 -174 -112 -272.5t-312 -98.5z" />
    <glyph glyph-name="T" unicode="T" horiz-adv-x="1341" 
d="M1200 1434h80l16 -414h-84q-21 189 -61 244q-41 53 -152 53h-243v-1045q0 -130 41 -168t198 -41v-63h-649v63q158 3 199 41t41 168v1045h-244q-111 0 -152 -53q-37 -51 -59 -244h-86l16 414h80q7 -26 22.5 -33.5t59.5 -7.5h895q47 0 60.5 7t21.5 34z" />
    <glyph glyph-name="U" unicode="U" horiz-adv-x="1460" 
d="M735 -29q-252 0 -391 136t-139 385v649q0 115 -23 153q-19 32 -106 35v64h520v-64q-142 -3 -174 -35q-35 -35 -35 -153v-645q0 -200 99 -306t284 -106q184 0 284.5 107.5t100.5 304.5v616q0 134 -37 174t-166 43v64h432v-64q-86 -3 -110 -43q-27 -44 -27 -174v-614
q0 -249 -134 -388t-378 -139z" />
    <glyph glyph-name="V" unicode="V" horiz-adv-x="1382" 
d="M936 1329v64h412v-64q-53 -7 -81 -42.5t-67 -137.5l-432 -1157h-129l-449 1134q-53 131 -75 162q-25 32 -80 41v64h491v-64q-106 -6 -142 -23t-36 -61q0 -48 43 -158l350 -905l351 938q28 76 28 123q0 44 -38 62t-146 24z" />
    <glyph glyph-name="W" unicode="W" horiz-adv-x="2033" 
d="M1567 1329v64h422v-64q-64 -3 -91 -43q-29 -43 -75 -186l-359 -1108h-129l-309 885l-311 -885h-129l-398 1153q-45 129 -63 153q-20 26 -80 29v66h475v-64q-91 -2 -126.5 -21.5t-35.5 -68.5q0 -46 25 -119l303 -930l293 824l-55 160q-33 98 -64 129q-29 23 -125 26v64
h543v-64q-105 -1 -143.5 -19.5t-38.5 -66.5q0 -45 26 -119l314 -929l297 925q24 77 24 113q0 53 -41.5 73.5t-148.5 22.5z" />
    <glyph glyph-name="X" unicode="X" horiz-adv-x="1458" 
d="M1403 1393v-64q-51 -9 -92 -39q-45 -39 -129 -135l-369 -430l358 -453q103 -129 146 -166q40 -37 86 -43v-63h-535v63q162 3 162 74q0 46 -84 150l-244 309l-262 -305q-92 -109 -92 -152q0 -37 46 -56t149 -20v-63h-488v63q55 9 92 41q36 26 129 134l369 430l-358 452
q-105 132 -144 168q-41 35 -88 41v64h535v-64q-162 -3 -162 -74q0 -45 84 -149l244 -309l262 305q92 115 92 151q0 37 -46 56t-149 20v64h488z" />
    <glyph glyph-name="Y" unicode="Y" horiz-adv-x="1382" 
d="M938 1329v64h410v-64q-35 -8 -62.5 -32.5t-71.5 -90.5l-438 -669v-291q0 -113 39 -146q37 -34 170 -37v-63h-590v63q134 3 174 37q37 34 37 146v291l-440 663q-50 73 -74.5 97.5t-56.5 31.5v64h495v-64q-103 -6 -138.5 -21.5t-35.5 -52.5q0 -39 58 -127l321 -491l314 479
q63 92 63 139q0 37 -36 52.5t-138 21.5z" />
    <glyph glyph-name="Z" unicode="Z" horiz-adv-x="1296" 
d="M1124 487h84l-30 -487h-1061v168l907 1059h-604q-125 0 -158 -45q-38 -47 -59 -224h-86v486h80q6 -30 24.5 -40.5t65.5 -10.5h870v-166l-907 -1061h592q147 0 202 61q53 59 80 260z" />
    <glyph glyph-name="bracketleft" unicode="[" horiz-adv-x="591" 
d="M195 1516h325v-58h-196v-1823h196v-57h-325v1938z" />
    <glyph glyph-name="backslash" unicode="\" horiz-adv-x="1036" 
d="M20 1536h105l891 -1679h-105z" />
    <glyph glyph-name="bracketright" unicode="]" horiz-adv-x="591" 
d="M72 1458v58h325v-1938h-325v57h196v1823h-196z" />
    <glyph glyph-name="asciicircum" unicode="^" horiz-adv-x="1187" 
d="M662 1393l317 -504h-139l-246 395l-246 -395h-139l317 504h136z" />
    <glyph glyph-name="underscore" unicode="_" horiz-adv-x="1009" 
d="M10 -336h989v-86h-989v86z" />
    <glyph glyph-name="grave" unicode="`" horiz-adv-x="1228" 
d="M319 1094l-217 299h156l148 -299h-87z" />
    <glyph glyph-name="a" unicode="a" horiz-adv-x="1032" 
d="M963 225l55 -16q-20 -123 -61 -176t-130 -53q-75 0 -121.5 48t-52.5 140q-44 -93 -119.5 -145t-164.5 -52q-109 0 -175.5 60t-66.5 159q0 100 69 164t216 113l241 78v92q0 250 -221 250q-122 0 -223 -58q9 -46 53 -92q45 -48 45 -92q0 -47 -33 -77.5t-84 -30.5
q-55 0 -87.5 38.5t-32.5 100.5q0 124 135 223q134 96 289 96q146 0 227.5 -87t81.5 -257v-446q0 -59 14.5 -82t50.5 -23t56.5 28t38.5 97zM428 94q136 0 225 170v201l-174 -62q-104 -37 -148 -75.5t-44 -102.5q0 -61 37.5 -96t103.5 -35z" />
    <glyph glyph-name="b" unicode="b" horiz-adv-x="1093" 
d="M631 995q171 0 274 -131t103 -352q0 -253 -116.5 -397t-318.5 -144q-189 0 -290 119l-50 -96h-65v1214q0 79 -28 103t-120 24v47l252 72h45v-655q111 196 314 196zM569 49q130 0 201.5 107.5t71.5 304.5q0 184 -70.5 288.5t-193.5 104.5q-147 0 -261 -135v-371
q0 -145 66 -222t186 -77z" />
    <glyph glyph-name="c" unicode="c" horiz-adv-x="966" 
d="M518 -29q-198 0 -315 133t-117 359q0 243 129 387q127 145 336 145q142 0 235 -71t93 -181q0 -68 -35 -109.5t-92 -41.5q-50 0 -82.5 32t-32.5 81q0 43 37 92q33 47 43 71q-65 47 -160 47q-147 0 -237.5 -106t-90.5 -279q0 -182 86.5 -285.5t233.5 -103.5q97 0 169 47
t105 129l58 -16q-71 -330 -363 -330z" />
    <glyph glyph-name="d" unicode="d" horiz-adv-x="1146" 
d="M926 1454v-1223q0 -103 32 -135q27 -32 134 -41v-55h-283l-23 18l-10 150q-114 -197 -307 -197q-170 0 -276 133q-107 131 -107 351q0 250 118 395t322 145q157 0 250 -84v297q0 81 -35 105q-36 22 -153 22v47l291 72h47zM518 113q138 0 258 135v389q0 134 -64 207.5
t-177 73.5q-136 0 -209.5 -108t-73.5 -304q0 -186 70.5 -289.5t195.5 -103.5z" />
    <glyph glyph-name="e" unicode="e" horiz-adv-x="976" 
d="M891 590h-660q-2 -14 -2 -64q0 -179 86.5 -282t233.5 -103q203 0 274 176l58 -16q-36 -167 -123 -248.5t-238 -81.5q-198 0 -316 135t-118 363q0 240 119 383t317 143q177 0 274 -107.5t95 -297.5zM506 920q-95 0 -165.5 -66t-96.5 -186h479q0 119 -54 185.5t-163 66.5z
" />
    <glyph glyph-name="f" unicode="f" horiz-adv-x="798" 
d="M719 1475q128 0 204 -48t76 -127q0 -51 -29.5 -81.5t-78.5 -30.5q-69 0 -98 63q-8 13 -21 70q-15 51 -31 74q-15 6 -49 6q-130 0 -210.5 -103t-80.5 -270v-57h263v-135h-258v-607q0 -105 47 -135q44 -33 211 -39v-55h-605v55q128 6 164 37q33 26 33 137v607h-197v55
l197 70q11 245 131.5 379.5t331.5 134.5z" />
    <glyph glyph-name="g" unicode="g" horiz-adv-x="1112" 
d="M668 971h368v-135h-194q45 -71 45 -170q0 -149 -102.5 -239.5t-272.5 -90.5q-109 0 -190 37q-89 -59 -89 -123q0 -100 152 -100h371q280 0 280 -240q0 -164 -138 -258t-374 -94q-207 0 -334 72.5t-127 191.5q0 112 156 194q-123 46 -123 170q0 133 174 215
q-135 89 -135 265q0 149 103.5 239t273.5 90q88 0 156 -24zM520 412q93 0 149 61.5t56 175.5q0 120 -58 195.5t-165 75.5q-93 0 -149 -62t-56 -176q0 -120 58 -195t165 -75zM698 -4h-352q-11 0 -65 4q-68 -71 -68 -156q0 -100 83 -154.5t236 -54.5q167 0 266 59.5t99 158.5
q0 143 -199 143z" />
    <glyph glyph-name="h" unicode="h" horiz-adv-x="1159" 
d="M963 655v-452q0 -86 24 -113q23 -26 117 -35v-55h-438v55q96 9 122 35q25 25 25 113v418q0 116 -52 176.5t-149 60.5q-135 0 -256 -139v-520q0 -86 25 -111q24 -24 117 -33v-55h-439v55q92 8 120 34t28 110v1009q0 80 -27.5 103.5t-120.5 23.5v47l252 72h45v-655
q111 196 310 196q142 0 219.5 -88t77.5 -252z" />
    <glyph glyph-name="i" unicode="i" horiz-adv-x="602" 
d="M385 1200q-34 -35 -87.5 -35t-88.5 35t-35 88t35 88t88.5 35t87.5 -35t34 -88t-34 -88zM537 0h-469v55q97 6 129 35q28 28 28 131v516q0 88 -28 113q-27 24 -131 24v48l260 61h49v-762q0 -103 31 -131q29 -29 131 -35v-55z" />
    <glyph glyph-name="j" unicode="j" horiz-adv-x="604" 
d="M420 1200q-34 -35 -87.5 -35t-88.5 35t-35 88t35 88t88.5 35t87.5 -35t34 -88t-34 -88zM94 -442q-96 0 -150.5 38.5t-54.5 106.5q-4 35 16 61t48.5 36t59.5 5t48 -26q13 -17 41.5 -75.5t47.5 -76.5q112 40 112 424v694q0 83 -37 107q-42 22 -174 22v48l309 61h50v-881
q0 -256 -82.5 -400t-233.5 -144z" />
    <glyph glyph-name="k" unicode="k" horiz-adv-x="1103" 
d="M1053 971v-56q-57 -9 -117 -49q-66 -44 -188 -155l-166 -148l305 -377q55 -69 89.5 -96.5t76.5 -34.5v-55h-404v55q90 6 90 56q0 25 -51 88l-217 264l-115 -101v-151q0 -88 28 -118t114 -38v-55h-439v55q93 9 121 37q27 27 27 119v997q0 80 -27.5 103.5t-120.5 23.5v47
l252 72h45v-983l340 301q58 55 58 90q0 50 -111 53v56h410z" />
    <glyph glyph-name="l" unicode="l" horiz-adv-x="589" 
d="M369 1454v-1245q0 -98 28 -123t131 -31v-55h-469v55q99 6 129 33q31 25 31 121v999q0 80 -27 103.5t-120 23.5v47l252 72h45z" />
    <glyph glyph-name="m" unicode="m" horiz-adv-x="1687" 
d="M1489 657v-440q0 -98 24 -125q25 -28 119 -37v-55h-432v55q90 9 115 37q24 27 24 125v432q0 209 -188 209q-126 0 -229 -121q4 -54 4 -67v-453q0 -98 24 -125q22 -28 113 -37v-55h-422v55q88 9 113 37q22 28 22 125v436q0 99 -45 152t-131 53q-131 0 -238 -137v-518
q0 -88 25 -113q23 -26 119 -35v-55h-440v55q93 7 120 35t27 113v534q0 88 -26.5 112.5t-120.5 24.5v48l245 61h51v-184q102 196 289 196q207 0 260 -194q105 194 289 194q289 0 289 -338z" />
    <glyph glyph-name="n" unicode="n" horiz-adv-x="1165" 
d="M969 655v-452q0 -86 24 -113q23 -26 117 -35v-55h-438v55q97 9 123 35q24 24 24 113v418q0 116 -52 176.5t-149 60.5q-135 0 -256 -139v-516q0 -88 25 -113q23 -26 119 -35v-55h-440v55q93 7 120 35t27 113v534q0 88 -26.5 112.5t-120.5 24.5v48l245 61h51v-184
q111 196 310 196q142 0 219.5 -88t77.5 -252z" />
    <glyph glyph-name="o" unicode="o" horiz-adv-x="1099" 
d="M887 113q-130 -142 -338 -142q-209 0 -336 142q-127 139 -127 368q0 232 129 373q126 141 336 141q209 0 336 -139q127 -142 127 -371q0 -230 -127 -372zM565 49q117 0 194 101t77 299q0 190 -78 331q-79 138 -223 138q-117 0 -194 -101t-77 -299q0 -191 80 -330
q77 -139 221 -139z" />
    <glyph glyph-name="p" unicode="p" horiz-adv-x="1114" 
d="M655 995q168 0 270.5 -132t102.5 -353q0 -254 -115.5 -396.5t-324.5 -142.5q-146 0 -250 78v-254q0 -101 39 -127q44 -29 180 -35v-55h-516v55q96 6 123 33q24 27 24 129v942q0 86 -27.5 111.5t-119.5 25.5v48l246 61h51v-184q114 196 317 196zM584 49q133 0 205.5 106.5
t72.5 303.5q0 184 -70 289.5t-192 105.5q-148 0 -262 -135v-363q0 -150 64.5 -228.5t181.5 -78.5z" />
    <glyph glyph-name="q" unicode="q" horiz-adv-x="1093" 
d="M926 987v-1192q0 -99 22 -127q23 -29 105 -35v-55h-514v55q158 6 198 33q39 26 39 129v373q-114 -197 -305 -197q-177 0 -281 131t-104 353q0 252 118 396t322 144q185 0 285 -118l57 110h58zM518 113q142 0 258 137v368q0 300 -241 300q-136 0 -209.5 -108t-73.5 -304
q0 -184 70.5 -288.5t195.5 -104.5z" />
    <glyph glyph-name="r" unicode="r" horiz-adv-x="827" 
d="M645 995q60 0 98.5 -35.5t38.5 -91.5q0 -53 -33 -89t-81 -36q-43 0 -78 50q-35 47 -58 57q-103 -95 -170 -309v-338q0 -92 33 -115q30 -24 152 -33v-55h-481v55q93 7 120 35t27 113v534q0 88 -26.5 112.5t-120.5 24.5v48l245 61h51v-313q42 125 121 227q76 98 162 98z
" />
    <glyph glyph-name="s" unicode="s" horiz-adv-x="870" 
d="M418 -29q-173 0 -301 70l-11 276h80q30 -268 246 -268q87 0 136.5 39t49.5 107q0 60 -33.5 100.5t-111.5 75.5l-154 69q-208 91 -208 279q0 129 91 202.5t251 73.5q175 0 301 -69l10 -242h-82q-30 234 -242 234q-88 0 -138 -39.5t-50 -108.5q0 -60 33.5 -100.5
t113.5 -75.5l154 -70q207 -92 207 -272q0 -130 -92 -205.5t-250 -75.5z" />
    <glyph glyph-name="t" unicode="t" horiz-adv-x="782" 
d="M698 195l39 -37q-63 -96 -124.5 -137t-141.5 -41q-113 0 -176.5 69.5t-63.5 196.5v590h-186v71q225 27 260 236h76v-172h293v-135h-293v-557q0 -170 135 -170q96 0 182 86z" />
    <glyph glyph-name="u" unicode="u" horiz-adv-x="1099" 
d="M903 971v-744q0 -93 30 -121t128 -28v-53l-279 -37l-28 22v158q-57 -103 -129 -150t-172 -47q-133 0 -211 89t-78 251v477q0 66 -24.5 93.5t-90.5 38.5v51h264v-621q0 -241 191 -241q135 0 250 139v532q0 78 -27 102.5t-119 35.5v53h295z" />
    <glyph glyph-name="v" unicode="v" horiz-adv-x="1050" 
d="M686 915v56h330v-56q-43 -5 -68 -30.5t-55 -104.5l-313 -788h-105l-311 760q-40 94 -66 131q-26 29 -63 32v56h401v-56q-127 -3 -127 -73q0 -28 29 -107l223 -571l227 579q29 79 29 105q0 36 -30 50.5t-101 16.5z" />
    <glyph glyph-name="w" unicode="w" horiz-adv-x="1542" 
d="M1182 915v56h325v-56q-42 -5 -70 -38t-59 -123l-282 -762h-107l-211 575l-227 -575h-107l-278 745q-40 109 -64 144q-21 31 -67 34v56h389v-56q-119 -6 -119 -84q0 -22 14 -63l211 -606l207 516l-32 90q-31 86 -60 116t-88 31v56h418v-56q-63 -2 -90 -20t-27 -59
q0 -36 31 -131l184 -537l201 539q33 85 33 137q0 68 -125 71z" />
    <glyph glyph-name="x" unicode="x" horiz-adv-x="1069" 
d="M1024 971v-56q-46 -6 -84 -38t-127 -138l-203 -229l224 -274q80 -101 118 -137.5t72 -43.5v-55h-412v55q103 3 103 56q0 35 -47 94l-156 192l-168 -190q-51 -57 -51 -94q0 -55 113 -58v-55h-357v55q43 6 82 39q48 41 129 137l201 228l-225 276q-85 104 -121 138.5
t-70 41.5v56h412v-56q-103 -3 -103 -55q0 -38 47 -94l158 -195l168 193q51 57 51 94q0 54 -112 57v56h358z" />
    <glyph glyph-name="y" unicode="y" horiz-adv-x="1030" 
d="M653 915v56h340v-56q-42 -5 -68 -38.5t-67 -137.5l-313 -772q-87 -218 -177 -312.5t-206 -94.5q-85 0 -138 41t-53 108q0 51 29 79t80 28q27 3 50.5 -14t38 -41.5t37.5 -54.5t46 -46q56 32 109 119.5t122 257.5l2 4l-290 694q-42 104 -73.5 141t-76.5 39v56h426v-56
q-131 -6 -131 -84q0 -30 22 -88l203 -503l205 510q23 61 23 81q0 81 -140 84z" />
    <glyph glyph-name="z" unicode="z" horiz-adv-x="997" 
d="M819 362h82l-16 -362h-768v145l608 680h-307q-155 0 -191 -26t-51 -148h-80v320h752v-146l-608 -680h348q135 0 174 39q39 36 57 178z" />
    <glyph glyph-name="braceleft" unicode="{" horiz-adv-x="712" 
d="M244 551v-8q237 -27 237 -269q0 -63 -16 -241q-19 -176 -19 -238q0 -75 34.5 -117.5t97.5 -42.5h32v-57h-55q-128 0 -195 63t-67 181q0 111 43 284t43 240q0 155 -236 164v74q236 9 236 164q0 66 -43 239t-43 285q0 118 67 181t195 63h55v-58h-32q-63 0 -97.5 -42.5
t-34.5 -117.5q0 -56 19 -235q16 -181 16 -244q0 -241 -237 -268z" />
    <glyph glyph-name="bar" unicode="|" horiz-adv-x="536" 
d="M225 -422v1958h86v-1958h-86z" />
    <glyph glyph-name="braceright" unicode="}" horiz-adv-x="712" 
d="M469 543v8q-238 27 -238 268q0 52 17 244q16 181 16 235q0 75 -34 117.5t-95 42.5h-33v58h56q127 0 193.5 -63t66.5 -181q0 -107 -41 -285q-43 -173 -43 -239q0 -155 235 -164v-74q-235 -9 -235 -164q0 -67 43 -240q41 -178 41 -284q0 -118 -66.5 -181t-193.5 -63h-56v57
h33q61 0 95 42.5t34 117.5q0 60 -16 238q-17 189 -17 241q0 242 238 269z" />
    <glyph glyph-name="asciitilde" unicode="~" horiz-adv-x="1187" 
d="M829 651q-80 0 -249 94q-172 93 -240 93q-120 0 -141 -168h-47q1 137 55.5 204.5t150.5 67.5q82 0 252 -92q169 -94 238 -94q120 0 141 168h47q-1 -137 -56 -205t-151 -68z" />
    <glyph glyph-name="uni00A0" unicode="&#xa0;" horiz-adv-x="436" 
 />
    <glyph glyph-name="exclamdown" unicode="&#xa1;" horiz-adv-x="612" 
d="M217 956q37 35 90 35t90 -35q37 -37 37 -92t-37 -92q-28 -28 -66.5 -34.5t-71.5 7t-56 45.5t-23 74q0 55 37 92zM338 516l70 -938h-201l69 938h62z" />
    <glyph glyph-name="cent" unicode="&#xa2;" horiz-adv-x="970" 
d="M547 139q98 0 171.5 48t104.5 130l58 -16q-71 -330 -365 -330q-33 0 -43 2l-27 -200h-45l29 207q-160 29 -252 156t-92 323q0 237 129 387q128 149 336 149h18l27 193h43l-27 -197q119 -18 195 -85.5t76 -162.5q0 -66 -33 -105.5t-88 -39.5q-48 0 -79.5 30t-31.5 77
q0 40 31 94q34 66 35 69q-50 38 -115 47l-104 -772q36 -4 49 -4zM231 526q0 -146 59 -244.5t163 -129.5l106 766h-4q-148 0 -236 -106t-88 -286z" />
    <glyph glyph-name="sterling" unicode="&#xa3;" horiz-adv-x="1232" 
d="M975 1303q-89 11 -155.5 -81.5t-110.5 -263.5l-101 -397h357l-15 -45h-352q-83 -330 -240 -469l164 -98q218 -129 340 -129q146 0 213 180h62q-33 -179 -99 -261.5t-190 -82.5q-153 0 -383 205l-162 147q-61 -37 -131 -37q-139 0 -139 84q0 78 98 78q76 0 168 -51
q51 68 131 391l10 43h-229l16 45h226l88 350q114 449 426 449q123 0 194.5 -45.5t71.5 -126.5q0 -51 -31 -81t-82 -30q-67 0 -94 62q-4 7 -22.5 77.5t-28.5 86.5z" />
    <glyph glyph-name="currency" unicode="&#xa4;" horiz-adv-x="1226" 
d="M1165 1194l-190 -190q100 -129 100 -322t-100 -322l176 -176l-39 -39l-174 174q-127 -133 -326 -133q-194 0 -325 131l-187 -188l-39 41l189 188q-100 132 -100 324t102 324l-176 176l39 39l174 -174q125 131 323 131q195 0 326 -131l188 188zM612 319q172 0 277.5 99.5
t105.5 263.5t-105.5 263t-277.5 99q-170 0 -275.5 -100.5t-105.5 -261.5t105.5 -262t275.5 -101z" />
    <glyph glyph-name="yen" unicode="&#xa5;" horiz-adv-x="1138" 
d="M778 1272v59h326v-59q-30 -9 -57 -39q-29 -37 -84 -133l-324 -572v-26h360v-45h-360v-117h360v-43h-360v-61q0 -106 37 -140q34 -34 151 -37v-59h-528v59q124 3 158 37q32 28 32 140v61h-360v43h360v117h-360v45h360v26l-317 570q-53 97 -82 135q-27 31 -55 39v59h397
v-59q-133 -6 -133 -64q0 -20 31 -84l270 -503l283 495q28 51 28 84q0 69 -133 72z" />
    <glyph glyph-name="brokenbar" unicode="&#xa6;" horiz-adv-x="536" 
d="M311 668h-86v868h86v-868zM225 446h86v-868h-86v868z" />
    <glyph glyph-name="section" unicode="&#xa7;" horiz-adv-x="868" 
d="M526 1276q-41 -3 -63 -10q-66 -78 -66 -164q0 -101 86 -271l197 -380q113 -219 113 -357q0 -145 -99 -274q-106 -131 -237 -195q-137 -67 -264 -67q-89 0 -141 37t-52 102q-3 39 19.5 69.5t55 43t69.5 6.5t61 -33q19 -20 54 -74.5t52 -64.5q42 3 64 10q65 77 65 164
q0 107 -88 270l-194 381q-113 210 -113 356q0 149 100 275q100 128 236 194q139 68 262 68q89 0 142 -37t53 -102q3 -39 -19.5 -69.5t-55 -43t-69.5 -6.5t-61 33q-18 20 -54 74.5t-53 64.5zM303 1020q0 140 121 235q-115 -40 -188.5 -134t-73.5 -220q0 -137 119 -366
l170 -340q84 -166 84 -295q0 -141 -121 -236q115 40 188.5 134t73.5 220q0 138 -119 367l-170 340q-84 166 -84 295z" />
    <glyph glyph-name="dieresis" unicode="&#xa8;" horiz-adv-x="1228" 
d="M295 1202q-32 -32 -81.5 -32t-80.5 32t-31 80t31 80q31 31 80.5 31t81.5 -31q31 -32 31 -80t-31 -80zM670 1202q-32 -32 -81.5 -32t-80.5 32t-31 80t31 80q31 31 80.5 31t81.5 -31q31 -32 31 -80t-31 -80z" />
    <glyph glyph-name="copyright" unicode="&#xa9;" horiz-adv-x="2031" 
d="M1671 68q-254 -254 -655 -254q-402 0 -656 254q-254 251 -254 649q0 397 254 651q255 252 656 252q400 0 655 -252q254 -254 254 -651q0 -398 -254 -649zM438 135q224 -227 578 -227q352 0 579 227q226 229 226 582q0 352 -226 581q-228 228 -579 228q-353 0 -578 -228
q-227 -227 -227 -581q0 -355 227 -582zM1020 248q-216 0 -342 129q-127 130 -127 340q0 212 129 344q129 129 336 129q37 0 74.5 -5.5t65 -14t49.5 -16.5t35 -13.5t15 -5.5q17 0 23 43h55v-289h-63q-49 227 -248 227q-140 0 -220.5 -104.5t-80.5 -288.5q0 -187 81 -293
t226 -106q111 0 174 62.5t88 197.5h66l-8 -254q-152 -82 -328 -82z" />
    <glyph glyph-name="ordfeminine" unicode="&#xaa;" horiz-adv-x="815" 
d="M256 1098q0 -32 -27 -56t-65 -24q-42 0 -68 27.5t-26 72.5q0 90 102 160q101 70 221 70q112 0 175 -61.5t63 -178.5v-317q0 -60 45 -60q25 0 40 18.5t27 61.5l41 -12q-12 -86 -44 -124t-97 -38q-125 0 -137 129q-70 -135 -213 -135q-82 0 -131 42t-49 111
q0 70 51.5 114.5t159.5 76.5l180 55v66q0 168 -164 168q-88 0 -158 -37q3 -28 39 -64q35 -35 35 -65zM346 727q93 0 158 109v135l-125 -41q-72 -26 -102.5 -51.5t-30.5 -65.5q0 -39 26.5 -62.5t73.5 -23.5zM766 440h-662v80h662v-80z" />
    <glyph glyph-name="guillemotleft" unicode="&#xab;" horiz-adv-x="968" 
d="M481 63h-123l-317 412l317 412h123l-274 -412zM862 63h-125l-315 412l315 412h125l-274 -412z" />
    <glyph glyph-name="logicalnot" unicode="&#xac;" horiz-adv-x="1187" 
d="M135 807h918v-506h-82v424h-836v82z" />
    <glyph glyph-name="uni00AD" unicode="&#xad;" horiz-adv-x="724" 
d="M96 604h533v-127h-533v127z" />
    <glyph glyph-name="registered" unicode="&#xae;" horiz-adv-x="1048" 
d="M524 1599q205 0 334 -129t129 -331q0 -203 -129 -332t-334 -129q-202 0 -331 129q-132 129 -132 332q0 202 132 331q129 129 331 129zM244 854q108 -111 280 -111q173 0 281 111q108 108 108 285q0 175 -108 286q-109 109 -281 109q-171 0 -280 -109q-109 -112 -109 -286
q0 -176 109 -285zM690 1274q0 -90 -90 -125l160 -234v-28h-101l-151 248h-43v-154q0 -38 12 -51.5t49 -14.5v-28h-215v28q38 1 50 15.5t12 56.5v307q0 39 -12 54t-48 16v29h224q153 0 153 -119zM465 1358v-187h29q106 0 106 99q0 88 -92 88h-43z" />
    <glyph glyph-name="overscore" unicode="&#xaf;" horiz-adv-x="1228" 
d="M102 1214v82h541v-82h-541z" />
    <glyph glyph-name="degree" unicode="&#xb0;" horiz-adv-x="737" 
d="M563 1081q-74 -77 -194 -77q-122 0 -193 77q-74 77 -74 199t73 198t194 76t193.5 -76t72.5 -198q0 -121 -72 -199zM225 1153q49 -49 144 -49q94 0 143 49t49 127t-50.5 127t-141.5 49t-142 -49t-51 -127t49 -127z" />
    <glyph glyph-name="plusminus" unicode="&#xb1;" horiz-adv-x="1187" 
d="M635 1022v-266h418v-82h-418v-266h-82v266h-418v82h418v266h82zM1053 207h-918v82h918v-82z" />
    <glyph glyph-name="two.sups" unicode="&#xb2;" horiz-adv-x="882" 
d="M713 993h67v-342h-676v131l168 133q177 144 249.5 237t72.5 189q0 91 -55.5 144t-151.5 53q-99 0 -159 -54t-70 -153h-68q2 154 86.5 235t245.5 81q152 0 239 -75t87 -206q0 -113 -80 -205q-82 -94 -293 -260l-150 -119h336q73 1 91 10q30 14 43 76q8 36 18 125z" />
    <glyph glyph-name="three.sups" unicode="&#xb3;" horiz-adv-x="876" 
d="M475 1221q152 0 241 -78t89 -213t-101.5 -217t-271.5 -82q-150 0 -242 51.5t-92 136.5q0 44 27 72.5t68 28.5q77 0 86 -70q1 -2 2 -57t4 -70q69 -29 139 -29q116 0 181 54t65 151q0 193 -275 193q-63 0 -121 -9v103l371 309h-313q-83 0 -105 -22q-21 -24 -30 -142h-66
v295h621v-131l-338 -278q54 4 61 4z" />
    <glyph glyph-name="acute" unicode="&#xb4;" horiz-adv-x="1228" 
d="M248 1393h158l-218 -299h-86z" />
    <glyph glyph-name="uni00B5" unicode="&#xb5;" horiz-adv-x="1200" 
d="M1059 274h80q-39 -155 -104 -229t-169 -74q-159 0 -194 158q-106 -158 -264 -158q-140 0 -205 117q-29 -129 -29 -201q0 -168 133 -254q-8 -32 -36 -53.5t-68 -21.5q-65 0 -103.5 49t-38.5 143q0 180 111 447v16q0 200 223 735q21 35 119 35q68 0 78 -29
q-320 -490 -320 -669q0 -156 183 -156q125 0 209 84v2q0 237 208 743q9 25 95 25q91 0 104 -29q-317 -484 -317 -680q0 -70 38 -103.5t99 -33.5q110 0 168 137z" />
    <glyph glyph-name="paragraph" unicode="&#xb6;" horiz-adv-x="1124" 
d="M459 -442q-156 0 -245 57t-89 152q0 61 35 98t92 37q84 0 119 -78q3 -8 21 -86t28 -98q26 -11 51 -11q287 0 287 404v1235h-103v-715h-184q-193 0 -301 111q-109 112 -109 278q0 167 109 279q107 110 301 110h557v-63q-118 -3 -151 -33q-31 -28 -31 -141v-1053
q0 -241 -100 -362t-287 -121z" />
    <glyph glyph-name="middot" unicode="&#xb7;" horiz-adv-x="569" 
d="M375 639q-26 -28 -65 -34t-73.5 7t-58 44.5t-20.5 72.5q0 55 36 91t91 36q40 4 71.5 -19.5t45.5 -58t8 -74t-35 -65.5z" />
    <glyph glyph-name="cedilla" unicode="&#xb8;" horiz-adv-x="1228" 
d="M285 10h67l-57 -121q94 5 150.5 -39.5t56.5 -123.5q0 -78 -57.5 -123t-155.5 -45q-87 0 -137 31.5t-50 86.5q0 30 18 50t44 20q29 0 45 -18.5t16 -49.5q0 -8 -3 -32t-3 -29q23 -10 68 -10q51 0 81.5 27.5t30.5 74.5q0 119 -209 98z" />
    <glyph glyph-name="one.sups" unicode="&#xb9;" horiz-adv-x="708" 
d="M438 1626v-807q0 -75 31 -94q31 -22 139 -25v-49h-491v49q114 3 153 23q31 19 31 96v692l-174 -116v116l174 115h137z" />
    <glyph glyph-name="ordmasculine" unicode="&#xba;" horiz-adv-x="876" 
d="M438 631q-160 0 -257 98.5t-97 259.5t98 260t256 99q160 0 257.5 -98t97.5 -259t-98.5 -260.5t-256.5 -99.5zM449 692q83 0 136.5 69.5t53.5 203.5q0 135 -55 229t-156 94q-83 0 -136.5 -69t-53.5 -205q0 -132 55 -226q56 -96 156 -96zM106 520h662v-80h-662v80z" />
    <glyph glyph-name="guillemotright" unicode="&#xbb;" horiz-adv-x="968" 
d="M547 475l-316 -412h-125l277 412l-277 412h125zM928 475l-318 -412h-123l275 412l-275 412h123z" />
    <glyph glyph-name="onequarter" unicode="&#xbc;" horiz-adv-x="1116" 
d="M406 764v-39h-345v39q83 1 103 16t20 72v453l-116 -80v88l116 80h105v-541q0 -55 21 -70.5t96 -17.5zM84 0l819 1393h86l-819 -1393h-86zM973 297h125v-90h-125v-207h-103v207h-307v90l307 371h103v-371zM870 580l-233 -283h233v283z" />
    <glyph glyph-name="onehalf" unicode="&#xbd;" horiz-adv-x="1183" 
d="M406 764v-39h-345v39q83 1 103 16t20 72v453l-116 -80v88l116 80h105v-541q0 -55 21 -70.5t96 -17.5zM84 0l819 1393h86l-819 -1393h-86zM1081 233h52v-233h-463v100l114 88q110 87 158.5 152t48.5 127q0 61 -34.5 95t-96.5 34q-133 0 -151 -129h-47q3 215 225 215
q104 0 163.5 -51t59.5 -139q0 -83 -57 -146q-56 -61 -197 -172l-96 -74h223q59 0 76.5 22t21.5 111z" />
    <glyph glyph-name="threequarters" unicode="&#xbe;" horiz-adv-x="1228" 
d="M473 1065q59 -53 59 -147q0 -96 -69 -150q-69 -57 -189 -57q-103 0 -166 38t-63 99q0 31 19.5 50.5t48.5 19.5q55 0 61 -52q0 -70 4 -88q40 -18 90 -18q74 0 116 35t42 98q0 125 -180 125q-12 0 -78 -4v78l246 202h-203q-56 0 -72 -17t-20 -85h-49v201h426v-99l-222 -180
q8 2 33 2q106 0 166 -51zM197 0l819 1393h86l-819 -1393h-86zM1085 297h125v-90h-125v-207h-102v207h-307v90l307 371h102v-371zM983 580l-233 -283h233v283z" />
    <glyph glyph-name="questiondown" unicode="&#xbf;" horiz-adv-x="815" 
d="M438 748q-54 0 -89.5 34.5t-35.5 89.5q0 54 35.5 88.5t89.5 34.5q52 0 86.5 -34.5t34.5 -88.5q0 -55 -34.5 -89.5t-86.5 -34.5zM766 -106h80q8 -164 -93 -250t-302 -86q-172 0 -270.5 81.5t-98.5 223.5q0 111 78 207q79 97 293 245l127 91h-414v155h543v-155l-154 -117
q-177 -137 -240 -215q-61 -79 -61 -172q0 -98 60.5 -151.5t172.5 -53.5q273 0 279 197z" />
    <glyph glyph-name="Agrave" unicode="&#xc0;" horiz-adv-x="1441" 
d="M532 1677l195 -196h-94l-262 196h161zM745 1411l463 -1108q60 -141 97 -184q41 -50 102 -56v-63h-508v63q90 5 130 26.5t40 70.5q0 45 -35 129l-71 174h-572l-67 -174q-33 -85 -33 -129q0 -49 39 -70.5t131 -26.5v-63h-426v63q61 6 98 52q36 46 88 176l397 995l-51 125
h178zM668 1169l-242 -620h500z" />
    <glyph glyph-name="Aacute" unicode="&#xc1;" horiz-adv-x="1441" 
d="M815 1677h162l-262 -196h-94zM745 1411l463 -1108q60 -141 97 -184q41 -50 102 -56v-63h-508v63q90 5 130 26.5t40 70.5q0 45 -35 129l-71 174h-572l-67 -174q-33 -85 -33 -129q0 -49 39 -70.5t131 -26.5v-63h-426v63q61 6 98 52q36 46 88 176l397 995l-51 125h178z
M668 1169l-242 -620h500z" />
    <glyph glyph-name="Acircumflex" unicode="&#xc2;" horiz-adv-x="1441" 
d="M868 1481l-196 137l-197 -137h-86l195 196h174l194 -196h-84zM745 1411l463 -1108q60 -141 97 -184q41 -50 102 -56v-63h-508v63q90 5 130 26.5t40 70.5q0 45 -35 129l-71 174h-572l-67 -174q-33 -85 -33 -129q0 -49 39 -70.5t131 -26.5v-63h-426v63q61 6 98 52
q36 46 88 176l397 995l-51 125h178zM668 1169l-242 -620h500z" />
    <glyph glyph-name="Atilde" unicode="&#xc3;" horiz-adv-x="1441" 
d="M535 1583q-96 0 -111 -102h-45q3 196 164 196q65 0 145 -51t119 -51q96 0 111 102h45q-3 -196 -164 -196q-66 0 -146 51t-118 51zM745 1411l463 -1108q60 -141 97 -184q41 -50 102 -56v-63h-508v63q90 5 130 26.5t40 70.5q0 45 -35 129l-71 174h-572l-67 -174
q-33 -85 -33 -129q0 -49 39 -70.5t131 -26.5v-63h-426v63q61 6 98 52q36 46 88 176l397 995l-51 125h178zM668 1169l-242 -620h500z" />
    <glyph glyph-name="Adieresis" unicode="&#xc4;" horiz-adv-x="1441" 
d="M528 1511q-21 -23 -51.5 -27t-57 6.5t-44.5 35.5t-15 55q-6 61 45.5 86t103 0t46.5 -86q0 -43 -27 -70zM956 1511q-19 -22 -50 -26.5t-58 6t-46 35t-16 55.5q0 43 28.5 70.5t72.5 27.5q31 3 55.5 -15t34 -45t5 -57.5t-25.5 -50.5zM745 1411l463 -1108q60 -141 97 -184
q41 -50 102 -56v-63h-508v63q90 5 130 26.5t40 70.5q0 45 -35 129l-71 174h-572l-67 -174q-33 -85 -33 -129q0 -49 39 -70.5t131 -26.5v-63h-426v63q61 6 98 52q36 46 88 176l397 995l-51 125h178zM668 1169l-242 -620h500z" />
    <glyph glyph-name="Aring" unicode="&#xc5;" horiz-adv-x="1441" 
d="M809 1516q-52 -52 -137 -52q-83 0 -135 52q-54 54 -54 133t54 133q51 51 135 51q86 0 137 -51t51 -133t-51 -133zM764 1739q-34 34 -91 34t-91 -34t-34 -89t34 -89t91 -34t91 34t34 89t-34 89zM745 1411l463 -1108q60 -141 97 -184q41 -50 102 -56v-63h-508v63
q90 5 130 26.5t40 70.5q0 45 -35 129l-71 174h-572l-67 -174q-33 -85 -33 -129q0 -49 39 -70.5t131 -26.5v-63h-426v63q61 6 98 52q36 46 88 176l397 995l-51 125h178zM668 1169l-242 -620h500z" />
    <glyph glyph-name="AE" unicode="&#xc6;" horiz-adv-x="1953" 
d="M1761 416h86l-28 -416h-1016v63q114 3 153 33q31 28 31 135v232h-522l-107 -180q-55 -94 -55 -144q0 -40 38 -55.5t134 -20.5v-63h-440v63q49 3 90 50q41 44 129 190l532 883q29 50 29 78q0 65 -176 65v64h1163l19 -353h-86q-21 169 -84 226q-65 53 -240 53h-254v-571
h182q134 0 174 34q37 34 52 176h77v-495h-77q-15 142 -52 176q-41 35 -174 35h-182v-445q0 -99 33 -125q34 -30 143 -30h137q145 0 207 71q60 72 84 271zM981 1329l-465 -780h471v780h-6z" />
    <glyph glyph-name="Ccedilla" unicode="&#xc7;" horiz-adv-x="1517" 
d="M1407 487l-14 -387q-220 -115 -488 -127l-41 -84q94 5 150.5 -39.5t56.5 -123.5q0 -78 -57.5 -123t-155.5 -45q-87 0 -136.5 31.5t-49.5 86.5q0 31 17.5 50.5t43.5 19.5q29 0 45.5 -18.5t16.5 -49.5q0 -8 -3.5 -32t-3.5 -29q23 -10 68 -10q51 0 82 27.5t31 74.5
q0 119 -209 98l76 164q-330 3 -529 199q-201 198 -201 516q0 326 205 531q204 204 533 204q59 0 121.5 -8.5t110.5 -21t86.5 -25t62.5 -21t26 -8.5q18 0 26.5 13.5t16.5 52.5h78v-445h-84q-38 194 -148.5 286.5t-297.5 92.5q-247 0 -391 -170q-144 -169 -144 -467
q0 -300 150 -473q147 -172 403 -172q195 0 306 103.5t155 328.5h86z" />
    <glyph glyph-name="Egrave" unicode="&#xc8;" 
d="M633 1677l194 -196h-94l-262 196h162zM1200 416h86l-29 -416h-1161v63q127 3 162 33q31 28 31 142v917q0 112 -31 143q-36 28 -162 31v64h1145l19 -353h-84q-24 170 -89 226q-65 53 -235 53h-393v-571h321q135 0 172 34t52 176h77v-495h-77q-15 142 -52 176
q-38 35 -172 35h-321v-445q0 -99 33 -125q34 -30 143 -30h276q146 0 205 71q60 72 84 271z" />
    <glyph glyph-name="Eacute" unicode="&#xc9;" 
d="M915 1677h162l-262 -196h-94zM1200 416h86l-29 -416h-1161v63q127 3 162 33q31 28 31 142v917q0 112 -31 143q-36 28 -162 31v64h1145l19 -353h-84q-24 170 -89 226q-65 53 -235 53h-393v-571h321q135 0 172 34t52 176h77v-495h-77q-15 142 -52 176q-38 35 -172 35h-321
v-445q0 -99 33 -125q34 -30 143 -30h276q146 0 205 71q60 72 84 271z" />
    <glyph glyph-name="Ecircumflex" unicode="&#xca;" 
d="M969 1481l-197 137l-197 -137h-86l195 196h174l195 -196h-84zM1200 416h86l-29 -416h-1161v63q127 3 162 33q31 28 31 142v917q0 112 -31 143q-36 28 -162 31v64h1145l19 -353h-84q-24 170 -89 226q-65 53 -235 53h-393v-571h321q135 0 172 34t52 176h77v-495h-77
q-15 142 -52 176q-38 35 -172 35h-321v-445q0 -99 33 -125q34 -30 143 -30h276q146 0 205 71q60 72 84 271z" />
    <glyph glyph-name="Edieresis" unicode="&#xcb;" 
d="M629 1511q-21 -23 -51.5 -27t-57 6.5t-44.5 35.5t-15 55q-6 61 45 86t102.5 0t46.5 -86q0 -44 -26 -70zM987 1483q-44 0 -72 28t-28 70q0 43 28 70.5t72 27.5q59 5 83.5 -46.5t0 -103t-83.5 -46.5zM1200 416h86l-29 -416h-1161v63q127 3 162 33q31 28 31 142v917
q0 112 -31 143q-36 28 -162 31v64h1145l19 -353h-84q-24 170 -89 226q-65 53 -235 53h-393v-571h321q135 0 172 34t52 176h77v-495h-77q-15 142 -52 176q-38 35 -172 35h-321v-445q0 -99 33 -125q34 -30 143 -30h276q146 0 205 71q60 72 84 271z" />
    <glyph glyph-name="Igrave" unicode="&#xcc;" horiz-adv-x="749" 
d="M338 1481l-262 196h162l194 -196h-94zM653 0h-557v63q127 3 162 33q31 28 31 142v917q0 112 -31 143q-36 28 -162 31v64h557v-64q-125 -3 -161 -31q-33 -29 -33 -143v-917q0 -116 33 -142q35 -30 161 -33v-63z" />
    <glyph glyph-name="Iacute" unicode="&#xcd;" horiz-adv-x="749" 
d="M518 1677h162l-262 -196h-94zM653 0h-557v63q127 3 162 33q31 28 31 142v917q0 112 -31 143q-36 28 -162 31v64h557v-64q-125 -3 -161 -31q-33 -29 -33 -143v-917q0 -116 33 -142q35 -30 161 -33v-63z" />
    <glyph glyph-name="Icircumflex" unicode="&#xce;" horiz-adv-x="749" 
d="M571 1481l-196 137l-197 -137h-86l195 196h174l194 -196h-84zM96 1329v64h557v-64q-125 -3 -161 -31q-33 -29 -33 -143v-917q0 -116 33 -142q35 -30 161 -33v-63h-557v63q127 3 162 33q31 28 31 142v917q0 112 -31 143q-36 28 -162 31z" />
    <glyph glyph-name="Idieresis" unicode="&#xcf;" horiz-adv-x="749" 
d="M231 1511q-21 -23 -51.5 -27t-57 6.5t-44.5 35.5t-15 55q-6 61 45.5 86t103 0t46.5 -86q0 -43 -27 -70zM590 1483q-44 0 -72.5 28t-28.5 70q0 43 28.5 70.5t72.5 27.5q59 5 83.5 -46.5t0 -103t-83.5 -46.5zM653 0h-557v63q127 3 162 33q31 28 31 142v917q0 112 -31 143
q-36 28 -162 31v64h557v-64q-125 -3 -161 -31q-33 -29 -33 -143v-917q0 -116 33 -142q35 -30 161 -33v-63z" />
    <glyph glyph-name="Eth" unicode="&#xd0;" horiz-adv-x="1574" 
d="M96 1393h545q394 0 610.5 -185t216.5 -522q0 -323 -217 -504q-218 -182 -604 -182h-551v63q127 3 162 33q31 28 31 142v426h-176v65h176v426q0 112 -31 143q-36 28 -162 31v64zM672 72q265 0 432 170q166 169 166 442q0 295 -170 465t-465 170h-176v-590h463v-65h-463
v-375q0 -119 48 -168t165 -49z" />
    <glyph glyph-name="Ntilde" unicode="&#xd1;" horiz-adv-x="1562" 
d="M653 1583q-95 0 -110 -102h-45q3 196 164 196q65 0 145 -51t119 -51q95 0 110 102h45q-3 -196 -163 -196q-66 0 -146 51t-119 51zM1014 1329v64h471v-64q-92 -3 -119 -43q-29 -44 -29 -166v-1130h-131l-825 1091v-778q0 -152 37 -192q39 -45 186 -48v-63h-508v63
q125 3 162 46q31 42 31 194v899q-56 70 -94.5 95.5t-98.5 31.5v64h283l866 -1157v884q0 127 -41 168q-41 38 -190 41z" />
    <glyph glyph-name="Ograve" unicode="&#xd2;" horiz-adv-x="1640" 
d="M768 1481l-262 196h162l194 -196h-94zM819 -29q-309 0 -510 201q-203 200 -203 524q0 325 203 525q200 200 510 200q311 0 514 -200q201 -201 201 -525q0 -323 -201 -524q-204 -201 -514 -201zM819 55q234 0 375 176q139 177 139 465q0 290 -139 467q-140 174 -375 174
q-233 0 -370 -174q-142 -177 -142 -467q0 -288 142 -465q138 -176 370 -176z" />
    <glyph glyph-name="Oacute" unicode="&#xd3;" horiz-adv-x="1640" 
d="M950 1677h162l-262 -196h-94zM819 -29q-309 0 -510 201q-203 200 -203 524q0 325 203 525q200 200 510 200q311 0 514 -200q201 -201 201 -525q0 -323 -201 -524q-204 -201 -514 -201zM819 55q234 0 375 176q139 177 139 465q0 290 -139 467q-140 174 -375 174
q-233 0 -370 -174q-142 -177 -142 -467q0 -288 142 -465q138 -176 370 -176z" />
    <glyph glyph-name="Ocircumflex" unicode="&#xd4;" horiz-adv-x="1640" 
d="M1004 1481l-197 137l-197 -137h-86l195 196h174l194 -196h-83zM819 1421q311 0 514 -200q201 -201 201 -525q0 -323 -201 -524q-204 -201 -514 -201q-309 0 -510 201q-203 200 -203 524q0 325 203 525q200 200 510 200zM819 55q234 0 375 176q139 177 139 465
q0 290 -139 467q-140 174 -375 174q-233 0 -370 -174q-142 -177 -142 -467q0 -288 142 -465q138 -176 370 -176z" />
    <glyph glyph-name="Otilde" unicode="&#xd5;" horiz-adv-x="1640" 
d="M676 1677q-161 0 -164 -196h45q15 102 111 102q38 0 118 -51t146 -51q161 0 164 196h-45q-15 -102 -111 -102q-39 0 -119 51t-145 51zM819 -29q-309 0 -510 201q-203 200 -203 524q0 325 203 525q200 200 510 200q311 0 514 -200q201 -201 201 -525q0 -323 -201 -524
q-204 -201 -514 -201zM819 55q234 0 375 176q139 177 139 465q0 290 -139 467q-140 174 -375 174q-233 0 -370 -174q-142 -177 -142 -467q0 -288 142 -465q138 -176 370 -176z" />
    <glyph glyph-name="Odieresis" unicode="&#xd6;" horiz-adv-x="1640" 
d="M664 1511q-21 -23 -51.5 -27t-57 6.5t-44.5 35.5t-15 55q-6 61 45 86t102.5 0t46.5 -86q0 -44 -26 -70zM1092 1511q-19 -22 -50 -26.5t-58 6t-46 35t-16 55.5q0 43 28 70.5t72 27.5q31 3 55.5 -15t34.5 -45t5.5 -57.5t-25.5 -50.5zM819 -29q-309 0 -510 201
q-203 200 -203 524q0 325 203 525q200 200 510 200q311 0 514 -200q201 -201 201 -525q0 -323 -201 -524q-204 -201 -514 -201zM819 55q234 0 375 176q139 177 139 465q0 290 -139 467q-140 174 -375 174q-233 0 -370 -174q-142 -177 -142 -467q0 -288 142 -465
q138 -176 370 -176z" />
    <glyph glyph-name="multiply" unicode="&#xd7;" horiz-adv-x="1187" 
d="M920 983l57 -57l-326 -326l326 -326l-57 -57l-326 326l-326 -326l-57 57l326 326l-326 326l57 57l326 -326z" />
    <glyph glyph-name="Oslash" unicode="&#xd8;" horiz-adv-x="1640" 
d="M1475 1393l-148 -168q207 -204 207 -529q0 -323 -201 -524q-204 -201 -514 -201q-261 0 -457 152l-106 -123h-92l147 168q-205 205 -205 528q0 325 203 525q200 200 510 200q265 0 457 -151l106 123h93zM307 696q0 -250 105 -413l776 886q-140 168 -369 168
q-233 0 -370 -174q-142 -177 -142 -467zM819 55q234 0 375 176q139 177 139 465q0 248 -104 416l-776 -887q138 -170 366 -170z" />
    <glyph glyph-name="Ugrave" unicode="&#xd9;" horiz-adv-x="1460" 
d="M733 1481l-262 196h162l194 -196h-94zM735 -29q-252 0 -391 136t-139 385v649q0 115 -23 153q-19 32 -106 35v64h520v-64q-142 -3 -174 -35q-35 -35 -35 -153v-645q0 -200 99 -306t284 -106q184 0 284.5 107.5t100.5 304.5v616q0 134 -37 174t-166 43v64h432v-64
q-86 -3 -110 -43q-27 -44 -27 -174v-614q0 -249 -134 -388t-378 -139z" />
    <glyph glyph-name="Uacute" unicode="&#xda;" horiz-adv-x="1460" 
d="M913 1677h162l-262 -196h-94zM735 -29q-252 0 -391 136t-139 385v649q0 115 -23 153q-19 32 -106 35v64h520v-64q-142 -3 -174 -35q-35 -35 -35 -153v-645q0 -200 99 -306t284 -106q184 0 284.5 107.5t100.5 304.5v616q0 134 -37 174t-166 43v64h432v-64q-86 -3 -110 -43
q-27 -44 -27 -174v-614q0 -249 -134 -388t-378 -139z" />
    <glyph glyph-name="Ucircumflex" unicode="&#xdb;" horiz-adv-x="1460" 
d="M969 1481l-197 137l-197 -137h-86l195 196h174l195 -196h-84zM952 1329v64h432v-64q-86 -3 -110 -43q-27 -44 -27 -174v-614q0 -249 -134 -388t-378 -139q-252 0 -391 136t-139 385v649q0 115 -23 153q-19 32 -106 35v64h520v-64q-142 -3 -174 -35q-35 -35 -35 -153v-645
q0 -200 99 -306t284 -106q184 0 284.5 107.5t100.5 304.5v616q0 134 -37 174t-166 43z" />
    <glyph glyph-name="Udieresis" unicode="&#xdc;" horiz-adv-x="1460" 
d="M627 1511q-21 -23 -51.5 -27t-57 6.5t-44.5 35.5t-15 55q-6 61 45 86t102.5 0t46.5 -86q0 -44 -26 -70zM1055 1511q-19 -22 -50 -26.5t-58 6t-46 35t-16 55.5q0 43 28 70.5t72 27.5q31 3 55.5 -15t34.5 -45t5.5 -57.5t-25.5 -50.5zM735 -29q-252 0 -391 136t-139 385v649
q0 115 -23 153q-19 32 -106 35v64h520v-64q-142 -3 -174 -35q-35 -35 -35 -153v-645q0 -200 99 -306t284 -106q184 0 284.5 107.5t100.5 304.5v616q0 134 -37 174t-166 43v64h432v-64q-86 -3 -110 -43q-27 -44 -27 -174v-614q0 -249 -134 -388t-378 -139z" />
    <glyph glyph-name="Yacute" unicode="&#xdd;" horiz-adv-x="1382" 
d="M836 1677h161l-262 -196h-94zM938 1329v64h410v-64q-35 -8 -62.5 -32.5t-71.5 -90.5l-438 -669v-291q0 -113 39 -146q37 -34 170 -37v-63h-590v63q134 3 174 37q37 34 37 146v291l-440 663q-50 73 -74.5 97.5t-56.5 31.5v64h495v-64q-103 -6 -138.5 -21.5t-35.5 -52.5
q0 -39 58 -127l321 -491l314 479q63 92 63 139q0 37 -36 52.5t-138 21.5z" />
    <glyph glyph-name="Thorn" unicode="&#xde;" horiz-adv-x="1253" 
d="M459 1126h284q221 0 343 -101.5t122 -285.5q0 -186 -121.5 -287.5t-343.5 -101.5h-284v-112q0 -116 33 -142q35 -30 161 -33v-63h-557v63q127 3 162 33q31 28 31 142v917q0 112 -31 143q-36 28 -162 31v64h557v-64q-125 -3 -161 -31q-33 -29 -33 -143v-29zM459 428h258
q148 0 225.5 79.5t77.5 231.5q0 150 -78 230t-225 80h-258v-621z" />
    <glyph glyph-name="germandbls" unicode="&#xdf;" horiz-adv-x="1253" 
d="M899 547l107 -76q80 -57 113.5 -110.5t33.5 -129.5q0 -121 -79.5 -190.5t-219.5 -69.5q-125 0 -252 56v290h76q13 -148 56 -212t128 -64q150 0 150 135q0 51 -25 88t-88 80l-104 72q-71 48 -102 94t-31 108q0 67 38.5 113.5t139.5 102.5q102 57 146 129.5t44 183.5
q0 121 -71.5 187.5t-202.5 66.5q-169 0 -259.5 -115t-90.5 -336v-950h-347v55q126 6 162 37q35 30 35 137v611h-197v55l201 59q29 264 152.5 392.5t349.5 128.5q197 0 314.5 -84t117.5 -230q0 -113 -63 -195t-207 -163q-61 -32 -86 -62t-25 -71q0 -64 86 -123z" />
    <glyph glyph-name="agrave" unicode="&#xe0;" horiz-adv-x="1032" 
d="M356 1393l148 -299h-86l-217 299h155zM963 225l55 -16q-20 -123 -61 -176t-130 -53q-75 0 -121.5 48t-52.5 140q-44 -93 -119.5 -145t-164.5 -52q-109 0 -175.5 60t-66.5 159q0 100 69 164t216 113l241 78v92q0 250 -221 250q-122 0 -223 -58q9 -46 53 -92q45 -48 45 -92
q0 -47 -33 -77.5t-84 -30.5q-55 0 -87.5 38.5t-32.5 100.5q0 124 135 223q134 96 289 96q146 0 227.5 -87t81.5 -257v-446q0 -59 14.5 -82t50.5 -23t56.5 28t38.5 97zM428 94q136 0 225 170v201l-174 -62q-104 -37 -148 -75.5t-44 -102.5q0 -61 37.5 -96t103.5 -35z" />
    <glyph glyph-name="aacute" unicode="&#xe1;" horiz-adv-x="1032" 
d="M567 1393h158l-217 -299h-86zM963 225l55 -16q-20 -123 -61 -176t-130 -53q-75 0 -121.5 48t-52.5 140q-44 -93 -119.5 -145t-164.5 -52q-109 0 -175.5 60t-66.5 159q0 100 69 164t216 113l241 78v92q0 250 -221 250q-122 0 -223 -58q9 -46 53 -92q45 -48 45 -92
q0 -47 -33 -77.5t-84 -30.5q-55 0 -87.5 38.5t-32.5 100.5q0 124 135 223q134 96 289 96q146 0 227.5 -87t81.5 -257v-446q0 -59 14.5 -82t50.5 -23t56.5 28t38.5 97zM428 94q136 0 225 170v201l-174 -62q-104 -37 -148 -75.5t-44 -102.5q0 -61 37.5 -96t103.5 -35z" />
    <glyph glyph-name="acircumflex" unicode="&#xe2;" horiz-adv-x="1032" 
d="M614 1094l-155 209l-156 -209h-86l174 299h135l172 -299h-84zM963 225l55 -16q-20 -123 -61 -176t-130 -53q-75 0 -121.5 48t-52.5 140q-44 -93 -119.5 -145t-164.5 -52q-109 0 -175.5 60t-66.5 159q0 100 69 164t216 113l241 78v92q0 250 -221 250q-122 0 -223 -58
q9 -46 53 -92q45 -48 45 -92q0 -47 -33 -77.5t-84 -30.5q-55 0 -87.5 38.5t-32.5 100.5q0 124 135 223q134 96 289 96q146 0 227.5 -87t81.5 -257v-446q0 -59 14.5 -82t50.5 -23t56.5 28t38.5 97zM428 94q136 0 225 170v201l-174 -62q-104 -37 -148 -75.5t-44 -102.5
q0 -61 37.5 -96t103.5 -35z" />
    <glyph glyph-name="atilde" unicode="&#xe3;" horiz-adv-x="1032" 
d="M317 1241q-83 0 -92 -108h-45q0 210 146 210q60 0 149 -59q88 -61 123 -61q83 0 92 108h45q0 -211 -145 -211q-59 0 -148 62q-89 59 -125 59zM963 225l55 -16q-20 -123 -61 -176t-130 -53q-75 0 -121.5 48t-52.5 140q-44 -93 -119.5 -145t-164.5 -52q-109 0 -175.5 60
t-66.5 159q0 100 69 164t216 113l241 78v92q0 250 -221 250q-122 0 -223 -58q9 -46 53 -92q45 -48 45 -92q0 -47 -33 -77.5t-84 -30.5q-55 0 -87.5 38.5t-32.5 100.5q0 124 135 223q134 96 289 96q146 0 227.5 -87t81.5 -257v-446q0 -59 14.5 -82t50.5 -23t56.5 28t38.5 97z
M428 94q136 0 225 170v201l-174 -62q-104 -37 -148 -75.5t-44 -102.5q0 -61 37.5 -96t103.5 -35z" />
    <glyph glyph-name="adieresis" unicode="&#xe4;" horiz-adv-x="1032" 
d="M354 1202q-32 -32 -81 -32t-80 32t-31 80t31 80q31 31 80 31t81 -31q31 -32 31 -80t-31 -80zM729 1202q-32 -32 -81.5 -32t-80.5 32t-31 80t31 80q31 31 80.5 31t81.5 -31q31 -32 31 -80t-31 -80zM963 225l55 -16q-20 -123 -61 -176t-130 -53q-75 0 -121.5 48t-52.5 140
q-44 -93 -119.5 -145t-164.5 -52q-109 0 -175.5 60t-66.5 159q0 100 69 164t216 113l241 78v92q0 250 -221 250q-122 0 -223 -58q9 -46 53 -92q45 -48 45 -92q0 -47 -33 -77.5t-84 -30.5q-55 0 -87.5 38.5t-32.5 100.5q0 124 135 223q134 96 289 96q146 0 227.5 -87
t81.5 -257v-446q0 -59 14.5 -82t50.5 -23t56.5 28t38.5 97zM428 94q136 0 225 170v201l-174 -62q-104 -37 -148 -75.5t-44 -102.5q0 -61 37.5 -96t103.5 -35z" />
    <glyph glyph-name="aring" unicode="&#xe5;" horiz-adv-x="1032" 
d="M600 1130q-53 -53 -139 -53t-139 53q-54 54 -54 136q0 83 54 137q51 51 139 51t139 -51q53 -53 53 -137q0 -83 -53 -136zM555 1358q-35 35 -94 35t-94 -35q-35 -37 -35 -92t35 -90q35 -37 94 -37t94 37q35 35 35 90t-35 92zM963 225l55 -16q-20 -123 -61 -176t-130 -53
q-75 0 -121.5 48t-52.5 140q-44 -93 -119.5 -145t-164.5 -52q-109 0 -175.5 60t-66.5 159q0 100 69 164t216 113l241 78v92q0 250 -221 250q-122 0 -223 -58q9 -46 53 -92q45 -48 45 -92q0 -47 -33 -77.5t-84 -30.5q-55 0 -87.5 38.5t-32.5 100.5q0 124 135 223
q134 96 289 96q146 0 227.5 -87t81.5 -257v-446q0 -59 14.5 -82t50.5 -23t56.5 28t38.5 97zM428 94q136 0 225 170v201l-174 -62q-104 -37 -148 -75.5t-44 -102.5q0 -61 37.5 -96t103.5 -35z" />
    <glyph glyph-name="ae" unicode="&#xe6;" horiz-adv-x="1509" 
d="M1419 590h-622q-2 -10 -2 -45q0 -191 82 -297.5t229 -106.5q186 0 256 178l53 -16q-65 -332 -348 -332q-122 0 -216.5 62t-145.5 178q-105 -240 -336 -240q-107 0 -173.5 60t-66.5 159q0 101 68 165t217 112l241 78v94q0 252 -223 252q-132 0 -223 -64q6 -40 53 -90
t47 -92q0 -47 -32.5 -77.5t-83.5 -30.5q-55 0 -89 38.5t-34 100.5q0 123 133 223q134 96 284 96q205 0 273 -153q117 153 311 153q166 0 258 -107.5t90 -297.5zM1055 924q-93 0 -160 -67t-90 -189h446q0 119 -49.5 187.5t-146.5 68.5zM430 94q71 0 138 50.5t110 144.5
q-23 87 -23 176l-176 -62q-104 -39 -147 -77t-43 -101q0 -61 37.5 -96t103.5 -35z" />
    <glyph glyph-name="ccedilla" unicode="&#xe7;" horiz-adv-x="966" 
d="M823 317l58 -16q-67 -321 -349 -330l-38 -82q94 5 150 -39.5t56 -123.5q0 -78 -57.5 -123t-155.5 -45q-87 0 -136.5 31.5t-49.5 86.5q0 31 17.5 50.5t43.5 19.5q29 0 45.5 -18.5t16.5 -49.5q0 -8 -3 -32t-3 -29q23 -10 67 -10q51 0 82 27.5t31 74.5q0 119 -209 98l78 166
q-177 19 -279 149.5t-102 340.5q0 243 129 387q127 145 336 145q142 0 235 -71t93 -181q0 -68 -35 -109.5t-92 -41.5q-50 0 -82.5 32t-32.5 81q0 43 37 92q33 47 43 71q-65 47 -160 47q-147 0 -237.5 -106t-90.5 -279q0 -182 86.5 -285.5t233.5 -103.5q97 0 169 47t105 129z
" />
    <glyph glyph-name="egrave" unicode="&#xe8;" horiz-adv-x="976" 
d="M418 1393l147 -299h-86l-217 299h156zM891 590h-660q-2 -14 -2 -64q0 -179 86.5 -282t233.5 -103q203 0 274 176l58 -16q-36 -167 -123 -248.5t-238 -81.5q-198 0 -316 135t-118 363q0 240 119 383t317 143q177 0 274 -107.5t95 -297.5zM506 920q-95 0 -165.5 -66
t-96.5 -186h479q0 119 -54 185.5t-163 66.5z" />
    <glyph glyph-name="eacute" unicode="&#xe9;" horiz-adv-x="976" 
d="M627 1393h157l-217 -299h-86zM891 590h-660q-2 -14 -2 -64q0 -179 86.5 -282t233.5 -103q203 0 274 176l58 -16q-36 -167 -123 -248.5t-238 -81.5q-198 0 -316 135t-118 363q0 240 119 383t317 143q177 0 274 -107.5t95 -297.5zM506 920q-95 0 -165.5 -66t-96.5 -186h479
q0 119 -54 185.5t-163 66.5z" />
    <glyph glyph-name="ecircumflex" unicode="&#xea;" horiz-adv-x="976" 
d="M676 1094l-156 209l-155 -209h-86l174 299h135l172 -299h-84zM891 590h-660q-2 -14 -2 -64q0 -179 86.5 -282t233.5 -103q203 0 274 176l58 -16q-36 -167 -123 -248.5t-238 -81.5q-198 0 -316 135t-118 363q0 240 119 383t317 143q177 0 274 -107.5t95 -297.5zM506 920
q-95 0 -165.5 -66t-96.5 -186h479q0 119 -54 185.5t-163 66.5z" />
    <glyph glyph-name="edieresis" unicode="&#xeb;" horiz-adv-x="976" 
d="M416 1202q-32 -32 -81.5 -32t-80.5 32t-31 80t31 80q31 31 80.5 31t81.5 -31q31 -32 31 -80t-31 -80zM791 1202q-32 -32 -81.5 -32t-80.5 32t-31 80t31 80q31 31 80.5 31t81.5 -31q31 -32 31 -80t-31 -80zM891 590h-660q-2 -14 -2 -64q0 -179 86.5 -282t233.5 -103
q203 0 274 176l58 -16q-36 -167 -123 -248.5t-238 -81.5q-198 0 -316 135t-118 363q0 240 119 383t317 143q177 0 274 -107.5t95 -297.5zM506 920q-95 0 -165.5 -66t-96.5 -186h479q0 119 -54 185.5t-163 66.5z" />
    <glyph glyph-name="igrave" unicode="&#xec;" horiz-adv-x="602" 
d="M254 1094l-217 299h156l147 -299h-86zM537 0h-469v55q97 6 129 35q28 28 28 131v516q0 88 -28 113q-27 24 -131 24v48l260 61h49v-762q0 -103 31 -131q29 -29 131 -35v-55z" />
    <glyph glyph-name="iacute" unicode="&#xed;" horiz-adv-x="602" 
d="M403 1393h158l-217 -299h-86zM537 0h-469v55q97 6 129 35q28 28 28 131v516q0 88 -28 113q-27 24 -131 24v48l260 61h49v-762q0 -103 31 -131q29 -29 131 -35v-55z" />
    <glyph glyph-name="icircumflex" unicode="&#xee;" horiz-adv-x="602" 
d="M451 1094l-156 209l-156 -209h-86l174 299h135l173 -299h-84zM375 983v-762q0 -103 31 -131q29 -29 131 -35v-55h-469v55q97 6 129 35q28 28 28 131v516q0 88 -28 113q-27 24 -131 24v48l260 61h49z" />
    <glyph glyph-name="idieresis" unicode="&#xef;" horiz-adv-x="602" 
d="M190 1202q-32 -32 -81 -32t-80 32t-31 80t31 80q31 31 80 31t81 -31q31 -32 31 -80t-31 -80zM565 1202q-32 -32 -81.5 -32t-80.5 32t-31 80t31 80q31 31 80.5 31t81.5 -31q31 -32 31 -80t-31 -80zM537 0h-469v55q97 6 129 35q28 28 28 131v516q0 88 -28 113
q-27 24 -131 24v48l260 61h49v-762q0 -103 31 -131q29 -29 131 -35v-55z" />
    <glyph glyph-name="eth" unicode="&#xf0;" horiz-adv-x="1099" 
d="M928 1298l-148 -47q240 -237 240 -661q0 -299 -123 -459t-350 -160q-214 0 -337.5 133t-123.5 367t121 379t319 145q230 0 324 -192q-41 258 -186 409l-351 -112v90l275 88q-126 95 -312 129l21 68q244 -38 408 -158l223 72v-91zM565 53q139 0 213 106.5t74 303.5
q0 208 -79.5 325t-215.5 117q-135 0 -210 -115.5t-75 -318.5q0 -201 76 -309.5t217 -108.5z" />
    <glyph glyph-name="ntilde" unicode="&#xf1;" horiz-adv-x="1165" 
d="M438 1241q-83 0 -92 -108h-45q0 210 145 210q61 0 150 -59q88 -61 123 -61q83 0 92 108h45q0 -211 -145 -211q-59 0 -148 62q-89 59 -125 59zM969 655v-452q0 -86 24 -113q23 -26 117 -35v-55h-438v55q97 9 123 35q24 24 24 113v418q0 116 -52 176.5t-149 60.5
q-135 0 -256 -139v-516q0 -88 25 -113q23 -26 119 -35v-55h-440v55q93 7 120 35t27 113v534q0 88 -26.5 112.5t-120.5 24.5v48l245 61h51v-184q111 196 310 196q142 0 219.5 -88t77.5 -252z" />
    <glyph glyph-name="ograve" unicode="&#xf2;" horiz-adv-x="1099" 
d="M508 1094l-217 299h155l148 -299h-86zM887 113q-130 -142 -338 -142q-209 0 -336 142q-127 139 -127 368q0 232 129 373q126 141 336 141q209 0 336 -139q127 -142 127 -371q0 -230 -127 -372zM565 49q117 0 194 101t77 299q0 190 -78 331q-79 138 -223 138
q-117 0 -194 -101t-77 -299q0 -191 80 -330q77 -139 221 -139z" />
    <glyph glyph-name="oacute" unicode="&#xf3;" horiz-adv-x="1099" 
d="M657 1393h158l-217 -299h-86zM887 113q-130 -142 -338 -142q-209 0 -336 142q-127 139 -127 368q0 232 129 373q126 141 336 141q209 0 336 -139q127 -142 127 -371q0 -230 -127 -372zM565 49q117 0 194 101t77 299q0 190 -78 331q-79 138 -223 138q-117 0 -194 -101
t-77 -299q0 -191 80 -330q77 -139 221 -139z" />
    <glyph glyph-name="ocircumflex" unicode="&#xf4;" horiz-adv-x="1099" 
d="M705 1094l-156 209l-156 -209h-86l174 299h135l172 -299h-83zM215 854q126 141 336 141q209 0 336 -139q127 -142 127 -371q0 -230 -127 -372q-130 -142 -338 -142q-209 0 -336 142q-127 139 -127 368q0 232 129 373zM565 49q117 0 194 101t77 299q0 190 -78 331
q-79 138 -223 138q-117 0 -194 -101t-77 -299q0 -191 80 -330q77 -139 221 -139z" />
    <glyph glyph-name="otilde" unicode="&#xf5;" horiz-adv-x="1099" 
d="M416 1343q-146 0 -146 -210h45q9 108 93 108q35 0 124 -59q89 -62 148 -62q145 0 145 211h-45q-9 -108 -92 -108q-35 0 -123 61q-89 59 -149 59zM887 113q-130 -142 -338 -142q-209 0 -336 142q-127 139 -127 368q0 232 129 373q126 141 336 141q209 0 336 -139
q127 -142 127 -371q0 -230 -127 -372zM565 49q117 0 194 101t77 299q0 190 -78 331q-79 138 -223 138q-117 0 -194 -101t-77 -299q0 -191 80 -330q77 -139 221 -139z" />
    <glyph glyph-name="odieresis" unicode="&#xf6;" horiz-adv-x="1099" 
d="M444 1202q-32 -32 -81 -32t-80 32t-31 80t31 80q31 31 80 31t81 -31q31 -32 31 -80t-31 -80zM819 1202q-32 -32 -81.5 -32t-80.5 32t-31 80t31 80q31 31 80.5 31t81.5 -31q31 -32 31 -80t-31 -80zM887 113q-130 -142 -338 -142q-209 0 -336 142q-127 139 -127 368
q0 232 129 373q126 141 336 141q209 0 336 -139q127 -142 127 -371q0 -230 -127 -372zM565 49q117 0 194 101t77 299q0 190 -78 331q-79 138 -223 138q-117 0 -194 -101t-77 -299q0 -191 80 -330q77 -139 221 -139z" />
    <glyph glyph-name="divide" unicode="&#xf7;" horiz-adv-x="1187" 
d="M674 807q-23 -25 -58 -30.5t-65.5 6.5t-51 40t-16.5 62q0 50 31 81t80 31t80 -31t31 -81q0 -47 -31 -78zM1053 559h-918v82h918v-82zM674 240q-23 -25 -58 -30.5t-65.5 6t-51 39.5t-16.5 64q0 48 31 78.5t80 30.5t80 -30.5t31 -78.5t-31 -79z" />
    <glyph glyph-name="oslash" unicode="&#xf8;" horiz-adv-x="1099" 
d="M934 971h86l-119 -133q113 -137 113 -353q0 -230 -127 -372q-130 -142 -338 -142q-188 0 -309 115l-76 -86h-86l117 133q-109 139 -109 348q0 232 129 373q126 141 336 141q182 0 307 -110zM264 518q0 -142 43 -258l453 514q-82 144 -225 144q-117 0 -194 -101t-77 -299z
M836 449q0 152 -45 262l-453 -514q83 -148 227 -148q117 0 194 101t77 299z" />
    <glyph glyph-name="ugrave" unicode="&#xf9;" horiz-adv-x="1099" 
d="M418 1393l147 -299h-86l-217 299h156zM903 971v-744q0 -93 30 -121t128 -28v-53l-279 -37l-28 22v158q-57 -103 -129 -150t-172 -47q-133 0 -211 89t-78 251v477q0 66 -24.5 93.5t-90.5 38.5v51h264v-621q0 -241 191 -241q135 0 250 139v532q0 78 -27 102.5t-119 35.5v53
h295z" />
    <glyph glyph-name="uacute" unicode="&#xfa;" horiz-adv-x="1099" 
d="M629 1393h157l-217 -299h-86zM903 971v-744q0 -93 30 -121t128 -28v-53l-279 -37l-28 22v158q-57 -103 -129 -150t-172 -47q-133 0 -211 89t-78 251v477q0 66 -24.5 93.5t-90.5 38.5v51h264v-621q0 -241 191 -241q135 0 250 139v532q0 78 -27 102.5t-119 35.5v53h295z
" />
    <glyph glyph-name="ucircumflex" unicode="&#xfb;" horiz-adv-x="1099" 
d="M676 1094l-156 209l-155 -209h-86l174 299h135l172 -299h-84zM903 971v-744q0 -93 30 -121t128 -28v-53l-279 -37l-28 22v158q-57 -103 -129 -150t-172 -47q-133 0 -211 89t-78 251v477q0 66 -24.5 93.5t-90.5 38.5v51h264v-621q0 -241 191 -241q135 0 250 139v532
q0 78 -27 102.5t-119 35.5v53h295z" />
    <glyph glyph-name="udieresis" unicode="&#xfc;" horiz-adv-x="1099" 
d="M416 1202q-32 -32 -81.5 -32t-80.5 32t-31 80t31 80q31 31 80.5 31t81.5 -31q31 -32 31 -80t-31 -80zM791 1202q-32 -32 -81.5 -32t-80.5 32t-31 80t31 80q31 31 80.5 31t81.5 -31q31 -32 31 -80t-31 -80zM903 971v-744q0 -93 30 -121t128 -28v-53l-279 -37l-28 22v158
q-57 -103 -129 -150t-172 -47q-133 0 -211 89t-78 251v477q0 66 -24.5 93.5t-90.5 38.5v51h264v-621q0 -241 191 -241q135 0 250 139v532q0 78 -27 102.5t-119 35.5v53h295z" />
    <glyph glyph-name="yacute" unicode="&#xfd;" horiz-adv-x="1030" 
d="M653 1393h158l-217 -299h-86zM653 915v56h340v-56q-42 -5 -68 -38.5t-67 -137.5l-313 -772q-87 -218 -177 -312.5t-206 -94.5q-85 0 -138 41t-53 108q0 51 29 79t80 28q27 3 50.5 -14t38 -41.5t37.5 -54.5t46 -46q56 32 109 119.5t122 257.5l2 4l-290 694
q-42 104 -73.5 141t-76.5 39v56h426v-56q-131 -6 -131 -84q0 -30 22 -88l203 -503l205 510q23 61 23 81q0 81 -140 84z" />
    <glyph glyph-name="thorn" unicode="&#xfe;" horiz-adv-x="1097" 
d="M635 995q168 0 271.5 -131.5t103.5 -351.5q0 -253 -115.5 -397t-316.5 -144q-152 0 -256 84v-260q0 -102 38 -127q40 -29 179 -35v-55h-514v55q95 6 122 33q25 28 25 129v1413q0 80 -27.5 103.5t-119.5 23.5v47l249 72h48v-655q111 196 313 196zM571 49q133 0 203 106.5
t70 305.5q0 185 -69.5 289t-192.5 104q-146 0 -260 -135v-371q0 -145 65.5 -222t183.5 -77z" />
    <glyph glyph-name="ydieresis" unicode="&#xff;" horiz-adv-x="1030" 
d="M440 1202q-32 -32 -81 -32t-80 32t-31 80t31 80q31 31 80 31t81 -31q31 -32 31 -80t-31 -80zM815 1202q-32 -32 -81.5 -32t-80.5 32t-31 80t31 80q31 31 80.5 31t81.5 -31q31 -32 31 -80t-31 -80zM653 915v56h340v-56q-42 -5 -68 -38.5t-67 -137.5l-313 -772
q-87 -218 -177 -312.5t-206 -94.5q-85 0 -138 41t-53 108q0 51 29 79t80 28q27 3 50.5 -14t38 -41.5t37.5 -54.5t46 -46q56 32 109 119.5t122 257.5l2 4l-290 694q-42 104 -73.5 141t-76.5 39v56h426v-56q-131 -6 -131 -84q0 -30 22 -88l203 -503l205 510q23 61 23 81
q0 81 -140 84z" />
    <glyph glyph-name="Amacron" unicode="&#x100;" horiz-adv-x="1441" 
d="M389 1620h565v-82h-565v82zM745 1411l463 -1108q60 -141 97 -184q41 -50 102 -56v-63h-508v63q90 5 130 26.5t40 70.5q0 45 -35 129l-71 174h-572l-67 -174q-33 -85 -33 -129q0 -49 39 -70.5t131 -26.5v-63h-426v63q61 6 98 52q36 46 88 176l397 995l-51 125h178z
M668 1169l-242 -620h500z" />
    <glyph glyph-name="amacron" unicode="&#x101;" horiz-adv-x="1032" 
d="M190 1296h541v-82h-541v82zM963 225l55 -16q-20 -123 -61 -176t-130 -53q-75 0 -121.5 48t-52.5 140q-44 -93 -119.5 -145t-164.5 -52q-109 0 -175.5 60t-66.5 159q0 100 69 164t216 113l241 78v92q0 250 -221 250q-122 0 -223 -58q9 -46 53 -92q45 -48 45 -92
q0 -47 -33 -77.5t-84 -30.5q-55 0 -87.5 38.5t-32.5 100.5q0 124 135 223q134 96 289 96q146 0 227.5 -87t81.5 -257v-446q0 -59 14.5 -82t50.5 -23t56.5 28t38.5 97zM428 94q136 0 225 170v201l-174 -62q-104 -37 -148 -75.5t-44 -102.5q0 -61 37.5 -96t103.5 -35z" />
    <glyph glyph-name="Abreve" unicode="&#x102;" horiz-adv-x="1441" 
d="M672 1481q-247 0 -256 196h86q9 -116 170 -116t170 116h86q-9 -196 -256 -196zM745 1411l463 -1108q60 -141 97 -184q41 -50 102 -56v-63h-508v63q90 5 130 26.5t40 70.5q0 45 -35 129l-71 174h-572l-67 -174q-33 -85 -33 -129q0 -49 39 -70.5t131 -26.5v-63h-426v63
q61 6 98 52q36 46 88 176l397 995l-51 125h178zM668 1169l-242 -620h500z" />
    <glyph glyph-name="abreve" unicode="&#x103;" horiz-adv-x="1032" 
d="M651 1169q-63 -75 -190 -75q-128 0 -191 75q-65 77 -65 224h86q0 -102 45 -157.5t125 -55.5t125 55.5t45 157.5h86q0 -146 -66 -224zM963 225l55 -16q-20 -123 -61 -176t-130 -53q-75 0 -121.5 48t-52.5 140q-44 -93 -119.5 -145t-164.5 -52q-109 0 -175.5 60t-66.5 159
q0 100 69 164t216 113l241 78v92q0 250 -221 250q-122 0 -223 -58q9 -46 53 -92q45 -48 45 -92q0 -47 -33 -77.5t-84 -30.5q-55 0 -87.5 38.5t-32.5 100.5q0 124 135 223q134 96 289 96q146 0 227.5 -87t81.5 -257v-446q0 -59 14.5 -82t50.5 -23t56.5 28t38.5 97zM428 94
q136 0 225 170v201l-174 -62q-104 -37 -148 -75.5t-44 -102.5q0 -61 37.5 -96t103.5 -35z" />
    <glyph glyph-name="Aogonek" unicode="&#x104;" horiz-adv-x="1441" 
d="M1407 63v-63h-219q-107 -107 -107 -213q0 -115 121 -115q74 0 107.5 46t38.5 151h49q6 -38 6 -74q0 -115 -52.5 -176t-150.5 -61t-153.5 51.5t-55.5 142.5q0 149 150 266l-183 445h-565v8l-71 -182q-51 -128 -21.5 -174.5t160.5 -51.5v-63h-426v63q61 6 98 52
q35 47 92 188l393 983l-51 125h178l465 -1114q56 -133 97 -180q42 -48 100 -54zM668 1169l-244 -620h500z" />
    <glyph glyph-name="aogonek" unicode="&#x105;" horiz-adv-x="1032" 
d="M936 -131h49q6 -38 6 -74q0 -115 -52.5 -176t-150.5 -61t-153 51.5t-55 142.5q0 150 143 260q-61 46 -70 156q-44 -93 -119.5 -145t-164.5 -52q-109 0 -175.5 60t-66.5 159q0 100 69 164t216 113l241 78v92q0 250 -221 250q-122 0 -223 -58q9 -46 53 -92q45 -48 45 -92
q0 -47 -33 -77.5t-84 -30.5q-55 0 -87.5 38.5t-32.5 100.5q0 124 135 223q134 96 289 96q146 0 227.5 -87t81.5 -257v-446q0 -59 14.5 -82t50.5 -23t56.5 28t38.5 97l55 -16q-20 -123 -61 -176t-130 -53q-28 0 -61 10q-96 -107 -96 -203q0 -115 121 -115q74 0 107 46t38 151
zM428 94q136 0 225 170v201l-174 -62q-104 -37 -148 -75.5t-44 -102.5q0 -61 37.5 -96t103.5 -35z" />
    <glyph glyph-name="Cacute" unicode="&#x106;" horiz-adv-x="1517" 
d="M993 1677h162l-262 -196h-94zM840 -29q-333 0 -533 197q-201 198 -201 518q0 326 205 531q204 204 533 204q59 0 121.5 -8.5t110.5 -21t86.5 -25t62.5 -21t26 -8.5q18 0 26.5 13.5t16.5 52.5h78v-445h-84q-38 194 -148.5 286.5t-297.5 92.5q-247 0 -391 -170
q-144 -169 -144 -467q0 -300 150 -473q147 -172 403 -172q195 0 306 103.5t155 328.5h86l-14 -387q-246 -129 -553 -129z" />
    <glyph glyph-name="cacute" unicode="&#x107;" horiz-adv-x="966" 
d="M629 1393h157l-217 -299h-86zM518 -29q-198 0 -315 133t-117 359q0 243 129 387q127 145 336 145q142 0 235 -71t93 -181q0 -68 -35 -109.5t-92 -41.5q-50 0 -82.5 32t-32.5 81q0 43 37 92q33 47 43 71q-65 47 -160 47q-147 0 -237.5 -106t-90.5 -279q0 -182 86.5 -285.5
t233.5 -103.5q97 0 169 47t105 129l58 -16q-71 -330 -363 -330z" />
    <glyph glyph-name="Ccircumflex" unicode="&#x108;" horiz-adv-x="1517" 
d="M1047 1481l-197 137l-197 -137h-86l195 196h174l194 -196h-83zM1321 487h86l-14 -387q-246 -129 -553 -129q-333 0 -533 197q-201 198 -201 518q0 326 205 531q204 204 533 204q59 0 121.5 -8.5t110.5 -21t86.5 -25t62.5 -21t26 -8.5q18 0 26.5 13.5t16.5 52.5h78v-445
h-84q-38 194 -148.5 286.5t-297.5 92.5q-247 0 -391 -170q-144 -169 -144 -467q0 -300 150 -473q147 -172 403 -172q195 0 306 103.5t155 328.5z" />
    <glyph glyph-name="ccircumflex" unicode="&#x109;" horiz-adv-x="966" 
d="M678 1094l-156 209l-155 -209h-86l174 299h135l172 -299h-84zM823 317l58 -16q-71 -330 -363 -330q-198 0 -315 133t-117 359q0 243 129 387q127 145 336 145q142 0 235 -71t93 -181q0 -68 -35 -109.5t-92 -41.5q-50 0 -82.5 32t-32.5 81q0 43 37 92q33 47 43 71
q-65 47 -160 47q-147 0 -237.5 -106t-90.5 -279q0 -182 86.5 -285.5t233.5 -103.5q97 0 169 47t105 129z" />
    <glyph glyph-name="Cdotaccent" unicode="&#x10a;" horiz-adv-x="1517" 
d="M928 1516q-31 -31 -78 -31t-76 31q-31 29 -31 75.5t31 77.5q21 24 54.5 29t63 -6.5t49.5 -39t17 -61.5q0 -45 -30 -75zM840 -29q-333 0 -533 197q-201 198 -201 518q0 326 205 531q204 204 533 204q59 0 121.5 -8.5t110.5 -21t86.5 -25t62.5 -21t26 -8.5q18 0 26.5 13.5
t16.5 52.5h78v-445h-84q-38 194 -148.5 286.5t-297.5 92.5q-247 0 -391 -170q-144 -169 -144 -467q0 -300 150 -473q147 -172 403 -172q195 0 306 103.5t155 328.5h86l-14 -387q-246 -129 -553 -129z" />
    <glyph glyph-name="cdotaccent" unicode="&#x10b;" horiz-adv-x="966" 
d="M610 1200q-34 -35 -87.5 -35t-88.5 35t-35 88t35 88t88.5 35t87.5 -35t34 -88t-34 -88zM518 -29q-198 0 -315 133t-117 359q0 243 129 387q127 145 336 145q142 0 235 -71t93 -181q0 -68 -35 -109.5t-92 -41.5q-50 0 -82.5 32t-32.5 81q0 43 37 92q33 47 43 71
q-65 47 -160 47q-147 0 -237.5 -106t-90.5 -279q0 -182 86.5 -285.5t233.5 -103.5q97 0 169 47t105 129l58 -16q-71 -330 -363 -330z" />
    <glyph glyph-name="Ccaron" unicode="&#x10c;" horiz-adv-x="1517" 
d="M1130 1677l-194 -196h-174l-195 196h86l197 -137l197 137h83zM1321 487h86l-14 -387q-246 -129 -553 -129q-333 0 -533 197q-201 198 -201 518q0 326 205 531q204 204 533 204q59 0 121.5 -8.5t110.5 -21t86.5 -25t62.5 -21t26 -8.5q18 0 26.5 13.5t16.5 52.5h78v-445
h-84q-38 194 -148.5 286.5t-297.5 92.5q-247 0 -391 -170q-144 -169 -144 -467q0 -300 150 -473q147 -172 403 -172q195 0 306 103.5t155 328.5z" />
    <glyph glyph-name="ccaron" unicode="&#x10d;" horiz-adv-x="966" 
d="M762 1393l-172 -299h-135l-174 299h86l155 -209l156 209h84zM823 317l58 -16q-71 -330 -363 -330q-198 0 -315 133t-117 359q0 243 129 387q127 145 336 145q142 0 235 -71t93 -181q0 -68 -35 -109.5t-92 -41.5q-50 0 -82.5 32t-32.5 81q0 43 37 92q33 47 43 71
q-65 47 -160 47q-147 0 -237.5 -106t-90.5 -279q0 -182 86.5 -285.5t233.5 -103.5q97 0 169 47t105 129z" />
    <glyph glyph-name="Dcaron" unicode="&#x10e;" horiz-adv-x="1574" 
d="M993 1677l-194 -196h-174l-195 196h86l197 -137l196 137h84zM96 1393h545q394 0 610.5 -185t216.5 -522q0 -323 -217 -504q-218 -182 -604 -182h-551v63q127 3 162 33q31 28 31 142v917q0 112 -31 143q-36 28 -162 31v64zM672 72q265 0 432 170q166 169 166 442
q0 295 -170 465t-465 170h-176v-1030q0 -119 48 -168t165 -49z" />
    <glyph glyph-name="dcaron" unicode="&#x10f;" horiz-adv-x="1146" 
d="M926 1454v-1223q0 -103 32 -135q27 -32 134 -41v-55h-283l-23 18l-10 150q-114 -197 -307 -197q-170 0 -276 133q-107 131 -107 351q0 250 118 395t322 145q157 0 250 -84v297q0 81 -35 105q-36 22 -153 22v47l291 72h47zM1051 1059l61 395h135l-137 -395h-59zM518 113
q138 0 258 135v389q0 134 -64 207.5t-177 73.5q-136 0 -209.5 -108t-73.5 -304q0 -186 70.5 -289.5t195.5 -103.5z" />
    <glyph glyph-name="Dcroat" unicode="&#x110;" horiz-adv-x="1574" 
d="M96 1393h545q394 0 610.5 -185t216.5 -522q0 -323 -217 -504q-218 -182 -604 -182h-551v63q127 3 162 33q31 28 31 142v426h-176v65h176v426q0 112 -31 143q-36 28 -162 31v64zM672 72q265 0 432 170q166 169 166 442q0 295 -170 465t-465 170h-176v-590h463v-65h-463
v-375q0 -119 48 -168t165 -49z" />
    <glyph glyph-name="dslash" unicode="&#x111;" horiz-adv-x="1146" 
d="M926 1108v-877q0 -103 32 -135q27 -32 134 -41v-55h-283l-23 18l-10 150q-114 -197 -307 -197q-170 0 -276 133q-107 131 -107 351q0 250 118 395t322 145q157 0 250 -84v197h-297v66h297v34q0 81 -35 105q-36 22 -153 22v47l291 72h47v-280h153v-66h-153zM518 113
q138 0 258 135v389q0 134 -64 207.5t-177 73.5q-136 0 -209.5 -108t-73.5 -304q0 -186 70.5 -289.5t195.5 -103.5z" />
    <glyph glyph-name="Emacron" unicode="&#x112;" 
d="M489 1620h566v-82h-566v82zM1200 416h86l-29 -416h-1161v63q127 3 162 33q31 28 31 142v917q0 112 -31 143q-36 28 -162 31v64h1145l19 -353h-84q-24 170 -89 226q-65 53 -235 53h-393v-571h321q135 0 172 34t52 176h77v-495h-77q-15 142 -52 176q-38 35 -172 35h-321
v-445q0 -99 33 -125q34 -30 143 -30h276q146 0 205 71q60 72 84 271z" />
    <glyph glyph-name="emacron" unicode="&#x113;" horiz-adv-x="976" 
d="M252 1296h541v-82h-541v82zM891 590h-660q-2 -14 -2 -64q0 -179 86.5 -282t233.5 -103q203 0 274 176l58 -16q-36 -167 -123 -248.5t-238 -81.5q-198 0 -316 135t-118 363q0 240 119 383t317 143q177 0 274 -107.5t95 -297.5zM506 920q-95 0 -165.5 -66t-96.5 -186h479
q0 119 -54 185.5t-163 66.5z" />
    <glyph glyph-name="Ebreve" unicode="&#x114;" 
d="M772 1481q-247 0 -256 196h86q9 -116 170 -116t170 116h86q-9 -196 -256 -196zM1200 416h86l-29 -416h-1161v63q127 3 162 33q31 28 31 142v917q0 112 -31 143q-36 28 -162 31v64h1145l19 -353h-84q-24 170 -89 226q-65 53 -235 53h-393v-571h321q135 0 172 34t52 176h77
v-495h-77q-15 142 -52 176q-38 35 -172 35h-321v-445q0 -99 33 -125q34 -30 143 -30h276q146 0 205 71q60 72 84 271z" />
    <glyph glyph-name="ebreve" unicode="&#x115;" horiz-adv-x="976" 
d="M713 1169q-63 -75 -191 -75q-127 0 -190 75q-66 78 -66 224h86q0 -102 45 -157.5t125 -55.5t125 55.5t45 157.5h86q0 -147 -65 -224zM891 590h-660q-2 -14 -2 -64q0 -179 86.5 -282t233.5 -103q203 0 274 176l58 -16q-36 -167 -123 -248.5t-238 -81.5q-198 0 -316 135
t-118 363q0 240 119 383t317 143q177 0 274 -107.5t95 -297.5zM506 920q-95 0 -165.5 -66t-96.5 -186h479q0 119 -54 185.5t-163 66.5z" />
    <glyph glyph-name="Edotaccent" unicode="&#x116;" 
d="M770 1485q-34 -4 -60.5 15.5t-38 49t-6.5 63t29 56.5q21 24 54.5 29t63 -6.5t50 -39t17.5 -61.5q0 -45 -31 -75.5t-78 -30.5zM1200 416h86l-29 -416h-1161v63q127 3 162 33q31 28 31 142v917q0 112 -31 143q-36 28 -162 31v64h1145l19 -353h-84q-24 170 -89 226
q-65 53 -235 53h-393v-571h321q135 0 172 34t52 176h77v-495h-77q-15 142 -52 176q-38 35 -172 35h-321v-445q0 -99 33 -125q34 -30 143 -30h276q146 0 205 71q60 72 84 271z" />
    <glyph glyph-name="edotaccent" unicode="&#x117;" horiz-adv-x="976" 
d="M610 1200q-34 -35 -87.5 -35t-88.5 35t-35 88t35 88t88.5 35t87.5 -35t34 -88t-34 -88zM891 590h-660q-2 -14 -2 -64q0 -179 86.5 -282t233.5 -103q203 0 274 176l58 -16q-36 -167 -123 -248.5t-238 -81.5q-198 0 -316 135t-118 363q0 240 119 383t317 143
q177 0 274 -107.5t95 -297.5zM506 920q-95 0 -165.5 -66t-96.5 -186h479q0 119 -54 185.5t-163 66.5z" />
    <glyph glyph-name="Eogonek" unicode="&#x118;" 
d="M1286 416l-29 -416h-264q-106 -106 -106 -213q0 -115 121 -115q74 0 107 46t38 151h49q6 -38 6 -74q0 -115 -52 -176t-150 -61t-153.5 51.5t-55.5 142.5q0 139 127 248h-828v63q127 3 162 33q31 28 31 142v917q0 112 -31 143q-36 28 -162 31v64h1145l19 -353h-84
q-24 170 -89 226q-65 53 -235 53h-393v-571h321q135 0 172 34t52 176h77v-495h-77q-15 142 -52 176q-38 35 -172 35h-321v-445q0 -99 33 -125q34 -30 143 -30h276q146 0 205 71q60 72 84 271h86z" />
    <glyph glyph-name="eogonek" unicode="&#x119;" horiz-adv-x="976" 
d="M854 -131h49q6 -38 6 -74q0 -115 -52 -176t-150 -61t-153.5 51.5t-55.5 142.5q0 123 102 225q-38 -6 -80 -6q-198 0 -316 135t-118 363q0 240 119 383t317 143q177 0 274 -107.5t95 -297.5h-660q-2 -14 -2 -64q0 -179 86.5 -282t233.5 -103q203 0 274 176l58 -16
q-47 -211 -168 -283q-125 -119 -125 -231q0 -115 121 -115q74 0 107 46t38 151zM506 920q-95 0 -165.5 -66t-96.5 -186h479q0 119 -54 185.5t-163 66.5z" />
    <glyph glyph-name="Ecaron" unicode="&#x11a;" 
d="M1053 1677l-195 -196h-174l-195 196h86l197 -137l197 137h84zM1200 416h86l-29 -416h-1161v63q127 3 162 33q31 28 31 142v917q0 112 -31 143q-36 28 -162 31v64h1145l19 -353h-84q-24 170 -89 226q-65 53 -235 53h-393v-571h321q135 0 172 34t52 176h77v-495h-77
q-15 142 -52 176q-38 35 -172 35h-321v-445q0 -99 33 -125q34 -30 143 -30h276q146 0 205 71q60 72 84 271z" />
    <glyph glyph-name="ecaron" unicode="&#x11b;" horiz-adv-x="976" 
d="M762 1393l-172 -299h-135l-174 299h86l155 -209l156 209h84zM891 590h-660q-2 -14 -2 -64q0 -179 86.5 -282t233.5 -103q203 0 274 176l58 -16q-36 -167 -123 -248.5t-238 -81.5q-198 0 -316 135t-118 363q0 240 119 383t317 143q177 0 274 -107.5t95 -297.5zM506 920
q-95 0 -165.5 -66t-96.5 -186h479q0 119 -54 185.5t-163 66.5z" />
    <glyph glyph-name="Gcircumflex" unicode="&#x11c;" horiz-adv-x="1583" 
d="M1051 1481l-197 137l-197 -137h-86l195 196h174l195 -196h-84zM909 590v74h607v-74q-85 -5 -112.5 -42t-27.5 -149v-264q-226 -164 -540 -164q-330 0 -529 199q-201 198 -201 516q0 328 205 533q205 202 541 202q59 0 121 -8.5t109.5 -21t85.5 -25t61.5 -21t25.5 -8.5
q18 0 26.5 14t14.5 52h80v-445h-84q-74 379 -440 379q-254 0 -399.5 -170.5t-145.5 -474.5q0 -296 144 -465q144 -172 393 -172q364 0 364 230v149q0 96 -49 123q-53 27 -250 33z" />
    <glyph glyph-name="gcircumflex" unicode="&#x11d;" horiz-adv-x="1112" 
d="M674 1094l-156 209l-156 -209h-86l175 299h135l172 -299h-84zM668 971h368v-135h-194q45 -71 45 -170q0 -149 -102.5 -239.5t-272.5 -90.5q-109 0 -190 37q-89 -59 -89 -123q0 -100 152 -100h371q280 0 280 -240q0 -164 -138 -258t-374 -94q-207 0 -334 72.5t-127 191.5
q0 112 156 194q-123 46 -123 170q0 133 174 215q-135 89 -135 265q0 149 103.5 239t273.5 90q88 0 156 -24zM520 412q93 0 149 61.5t56 175.5q0 120 -58 195.5t-165 75.5q-93 0 -149 -62t-56 -176q0 -120 58 -195t165 -75zM698 -4h-352q-11 0 -65 4q-68 -71 -68 -156
q0 -100 83 -154.5t236 -54.5q167 0 266 59.5t99 158.5q0 143 -199 143z" />
    <glyph glyph-name="Gbreve" unicode="&#x11e;" horiz-adv-x="1583" 
d="M1024 1677h86q-9 -196 -256 -196t-256 196h86q9 -116 170 -116t170 116zM836 -29q-330 0 -529 199q-201 198 -201 516q0 328 205 533q205 202 541 202q59 0 121 -8.5t109.5 -21t85.5 -25t61.5 -21t25.5 -8.5q18 0 26.5 14t14.5 52h80v-445h-84q-74 379 -440 379
q-254 0 -399.5 -170.5t-145.5 -474.5q0 -296 144 -465q144 -172 393 -172q364 0 364 230v149q0 96 -49 123q-53 27 -250 33v74h607v-74q-85 -5 -112.5 -42t-27.5 -149v-264q-226 -164 -540 -164z" />
    <glyph glyph-name="gbreve" unicode="&#x11f;" horiz-adv-x="1112" 
d="M711 1169q-63 -75 -191 -75q-127 0 -190 75q-66 78 -66 224h86q0 -102 45 -157.5t125 -55.5t125 55.5t45 157.5h86q0 -147 -65 -224zM668 971h368v-135h-194q45 -71 45 -170q0 -149 -102.5 -239.5t-272.5 -90.5q-109 0 -190 37q-89 -59 -89 -123q0 -100 152 -100h371
q280 0 280 -240q0 -164 -138 -258t-374 -94q-207 0 -334 72.5t-127 191.5q0 112 156 194q-123 46 -123 170q0 133 174 215q-135 89 -135 265q0 149 103.5 239t273.5 90q88 0 156 -24zM520 412q93 0 149 61.5t56 175.5q0 120 -58 195.5t-165 75.5q-93 0 -149 -62t-56 -176
q0 -120 58 -195t165 -75zM698 -4h-352q-11 0 -65 4q-68 -71 -68 -156q0 -100 83 -154.5t236 -54.5q167 0 266 59.5t99 158.5q0 143 -199 143z" />
    <glyph glyph-name="Gdotaccent" unicode="&#x120;" horiz-adv-x="1583" 
d="M852 1485q-34 -4 -60.5 15.5t-38 49t-6.5 63t29 56.5q21 24 54.5 29t63 -6.5t50 -39t17.5 -61.5q0 -45 -31 -75.5t-78 -30.5zM836 -29q-330 0 -529 199q-201 198 -201 516q0 328 205 533q205 202 541 202q59 0 121 -8.5t109.5 -21t85.5 -25t61.5 -21t25.5 -8.5
q18 0 26.5 14t14.5 52h80v-445h-84q-74 379 -440 379q-254 0 -399.5 -170.5t-145.5 -474.5q0 -296 144 -465q144 -172 393 -172q364 0 364 230v149q0 96 -49 123q-53 27 -250 33v74h607v-74q-85 -5 -112.5 -42t-27.5 -149v-264q-226 -164 -540 -164z" />
    <glyph glyph-name="gdotaccent" unicode="&#x121;" horiz-adv-x="1112" 
d="M608 1200q-34 -35 -87.5 -35t-88.5 35t-35 88t35 88t88.5 35t87.5 -35t34 -88t-34 -88zM668 971h368v-135h-194q45 -71 45 -170q0 -149 -102.5 -239.5t-272.5 -90.5q-109 0 -190 37q-89 -59 -89 -123q0 -100 152 -100h371q280 0 280 -240q0 -164 -138 -258t-374 -94
q-207 0 -334 72.5t-127 191.5q0 112 156 194q-123 46 -123 170q0 133 174 215q-135 89 -135 265q0 149 103.5 239t273.5 90q88 0 156 -24zM520 412q93 0 149 61.5t56 175.5q0 120 -58 195.5t-165 75.5q-93 0 -149 -62t-56 -176q0 -120 58 -195t165 -75zM698 -4h-352
q-11 0 -65 4q-68 -71 -68 -156q0 -100 83 -154.5t236 -54.5q167 0 266 59.5t99 158.5q0 143 -199 143z" />
    <glyph glyph-name="uni0122" unicode="&#x122;" horiz-adv-x="1583" 
d="M836 -29q-330 0 -529 199q-201 198 -201 516q0 328 205 533q205 202 541 202q59 0 121 -8.5t109.5 -21t85.5 -25t61.5 -21t25.5 -8.5q18 0 26.5 14t14.5 52h80v-445h-84q-74 379 -440 379q-254 0 -399.5 -170.5t-145.5 -474.5q0 -296 144 -465q144 -172 393 -172
q364 0 364 230v149q0 96 -49 123q-53 27 -250 33v74h607v-74q-85 -5 -112.5 -42t-27.5 -149v-264q-226 -164 -540 -164zM782 -432v51q81 -10 120 24t34 95q-40 -27 -76 -27q-43 0 -69.5 25.5t-26.5 68.5q0 47 29 75t79 28q60 0 91.5 -40t31.5 -114q0 -95 -53.5 -146.5
t-159.5 -39.5z" />
    <glyph glyph-name="uni0123" unicode="&#x123;" horiz-adv-x="1112" 
d="M528 1094q-135 0 -135 166q0 113 65.5 179.5t180.5 53.5v-51q-88 12 -137 -38t-43 -128q38 27 80 27q47 0 75.5 -27.5t28.5 -71.5q0 -49 -32.5 -79.5t-82.5 -30.5zM668 971h368v-135h-194q45 -71 45 -170q0 -149 -102.5 -239.5t-272.5 -90.5q-109 0 -190 37
q-89 -59 -89 -123q0 -100 152 -100h371q280 0 280 -240q0 -164 -138 -258t-374 -94q-207 0 -334 72.5t-127 191.5q0 112 156 194q-123 46 -123 170q0 133 174 215q-135 89 -135 265q0 149 103.5 239t273.5 90q88 0 156 -24zM520 412q93 0 149 61.5t56 175.5q0 120 -58 195.5
t-165 75.5q-93 0 -149 -62t-56 -176q0 -120 58 -195t165 -75zM698 -4h-352q-11 0 -65 4q-68 -71 -68 -156q0 -100 83 -154.5t236 -54.5q167 0 266 59.5t99 158.5q0 143 -199 143z" />
    <glyph glyph-name="Hcircumflex" unicode="&#x124;" horiz-adv-x="1648" 
d="M1022 1481l-197 137l-196 -137h-86l194 196h174l195 -196h-84zM1552 1393v-64q-128 -3 -159 -31q-33 -29 -33 -143v-917q0 -116 33 -142q30 -30 159 -33v-63h-557v63q127 3 162 33q33 26 33 142v436h-731v-436q0 -116 33 -142q35 -30 161 -33v-63h-557v63q127 3 162 33
q31 28 31 142v917q0 112 -31 143q-36 28 -162 31v64h557v-64q-125 -3 -161 -31q-33 -29 -33 -143v-395h731v395q0 114 -33 143q-36 28 -162 31v64h557z" />
    <glyph glyph-name="hcircumflex" unicode="&#x125;" horiz-adv-x="1159" 
d="M479 1481l-196 137l-197 -137h-86l195 196h174l194 -196h-84zM963 655v-452q0 -86 24 -113q23 -26 117 -35v-55h-438v55q96 9 122 35q25 25 25 113v418q0 116 -52 176.5t-149 60.5q-135 0 -256 -139v-520q0 -86 25 -111q24 -24 117 -33v-55h-439v55q92 8 120 34t28 110
v1009q0 80 -27.5 103.5t-120.5 23.5v47l252 72h45v-655q111 196 310 196q142 0 219.5 -88t77.5 -252z" />
    <glyph glyph-name="Hbar" unicode="&#x126;" horiz-adv-x="1648" 
d="M1552 1393v-64q-128 -3 -159 -31q-33 -29 -33 -143v-131h156v-66h-156v-720q0 -116 33 -142q30 -30 159 -33v-63h-557v63q127 3 162 33q33 26 33 142v436h-731v-436q0 -116 33 -142q35 -30 161 -33v-63h-557v63q127 3 162 33q31 28 31 142v720h-158v66h158v131
q0 112 -31 143q-36 28 -162 31v64h557v-64q-125 -3 -161 -31q-33 -29 -33 -143v-131h731v131q0 114 -33 143q-36 28 -162 31v64h557zM459 760h731v198h-731v-198z" />
    <glyph glyph-name="hbar" unicode="&#x127;" horiz-adv-x="1159" 
d="M963 655v-452q0 -86 24 -113q23 -26 117 -35v-55h-438v55q96 9 122 35q25 25 25 113v418q0 116 -52 176.5t-149 60.5q-135 0 -256 -139v-520q0 -86 25 -111q24 -24 117 -33v-55h-439v55q92 8 120 34t28 110v909h-154v66h154v34q0 80 -27.5 103.5t-120.5 23.5v47l252 72
h45v-280h297v-66h-297v-309q111 196 310 196q142 0 219.5 -88t77.5 -252z" />
    <glyph glyph-name="Itilde" unicode="&#x128;" horiz-adv-x="749" 
d="M246 1677q-161 0 -164 -196h45q15 102 111 102q38 0 118 -51t146 -51q161 0 164 196h-45q-15 -102 -111 -102q-39 0 -119 51t-145 51zM653 0h-557v63q127 3 162 33q31 28 31 142v917q0 112 -31 143q-36 28 -162 31v64h557v-64q-125 -3 -161 -31q-33 -29 -33 -143v-917
q0 -116 33 -142q35 -30 161 -33v-63z" />
    <glyph glyph-name="itilde" unicode="&#x129;" horiz-adv-x="602" 
d="M162 1343q-146 0 -146 -210h45q9 108 93 108q36 0 125 -59q89 -62 147 -62q145 0 145 211h-45q-9 -108 -92 -108q-35 0 -123 61q-89 59 -149 59zM537 0h-469v55q97 6 129 35q28 28 28 131v516q0 88 -28 113q-27 24 -131 24v48l260 61h49v-762q0 -103 31 -131
q29 -29 131 -35v-55z" />
    <glyph glyph-name="Imacron" unicode="&#x12a;" horiz-adv-x="749" 
d="M657 1538h-565v82h565v-82zM653 0h-557v63q127 3 162 33q31 28 31 142v917q0 112 -31 143q-36 28 -162 31v64h557v-64q-125 -3 -161 -31q-33 -29 -33 -143v-917q0 -116 33 -142q35 -30 161 -33v-63z" />
    <glyph glyph-name="imacron" unicode="&#x12b;" horiz-adv-x="602" 
d="M72 1214v82h450v-82h-450zM537 0h-469v55q97 6 129 35q28 28 28 131v516q0 88 -28 113q-27 24 -131 24v48l260 61h49v-762q0 -103 31 -131q29 -29 131 -35v-55z" />
    <glyph glyph-name="Ibreve" unicode="&#x12c;" horiz-adv-x="749" 
d="M545 1677h86q-9 -196 -256 -196t-256 196h86q9 -116 170 -116t170 116zM653 0h-557v63q127 3 162 33q31 28 31 142v917q0 112 -31 143q-36 28 -162 31v64h557v-64q-125 -3 -161 -31q-33 -29 -33 -143v-917q0 -116 33 -142q35 -30 161 -33v-63z" />
    <glyph glyph-name="ibreve" unicode="&#x12d;" horiz-adv-x="602" 
d="M487 1169q-63 -75 -190 -75q-128 0 -191 75q-65 77 -65 224h86q0 -102 45 -157.5t125 -55.5t125 55.5t45 157.5h86q0 -146 -66 -224zM537 0h-469v55q97 6 129 35q28 28 28 131v516q0 88 -28 113q-27 24 -131 24v48l260 61h49v-762q0 -103 31 -131q29 -29 131 -35v-55z
" />
    <glyph glyph-name="Iogonek" unicode="&#x12e;" horiz-adv-x="749" 
d="M653 1393v-64q-125 -3 -161 -31q-33 -29 -33 -143v-917q0 -116 33 -142q35 -30 161 -33v-63h-286q-107 -107 -107 -213q0 -115 121 -115q74 0 107 46t38 151h49q7 -44 7 -74q0 -115 -52.5 -176t-150.5 -61t-153.5 51.5t-55.5 142.5q0 139 127 248h-201v63q127 3 162 33
q31 28 31 142v917q0 112 -31 143q-36 28 -162 31v64h557z" />
    <glyph glyph-name="iogonek" unicode="&#x12f;" horiz-adv-x="602" 
d="M385 1200q-34 -35 -87.5 -35t-88.5 35t-35 88t35 88t88.5 35t87.5 -35t34 -88t-34 -88zM492 -131h49q6 -38 6 -74q0 -115 -52.5 -176t-150.5 -61t-153.5 51.5t-55.5 142.5q0 139 127 248h-194v55q97 6 129 35q28 28 28 131v516q0 88 -28 113q-27 24 -131 24v48l260 61h49
v-762q0 -103 31 -131q29 -29 131 -35v-55h-205q-107 -107 -107 -213q0 -115 121 -115q74 0 107.5 46t38.5 151z" />
    <glyph glyph-name="Idot" unicode="&#x130;" horiz-adv-x="749" 
d="M373 1485q-34 -4 -60.5 15.5t-38 49t-6.5 63t29 56.5q21 24 54.5 29t63 -6.5t49.5 -39t17 -61.5q0 -45 -30.5 -75.5t-77.5 -30.5zM653 0h-557v63q127 3 162 33q31 28 31 142v917q0 112 -31 143q-36 28 -162 31v64h557v-64q-125 -3 -161 -31q-33 -29 -33 -143v-917
q0 -116 33 -142q35 -30 161 -33v-63z" />
    <glyph glyph-name="dotlessi" unicode="&#x131;" horiz-adv-x="602" 
d="M537 0h-469v55q97 6 129 35q28 28 28 131v516q0 88 -28 113q-27 24 -131 24v48l260 61h49v-762q0 -103 31 -131q29 -29 131 -35v-55z" />
    <glyph glyph-name="IJ" unicode="&#x132;" horiz-adv-x="1497" 
d="M653 0h-557v63q127 3 162 33q31 28 31 142v917q0 112 -31 143q-36 28 -162 31v64h557v-64q-125 -3 -161 -31q-33 -29 -33 -143v-917q0 -116 33 -142q35 -30 161 -33v-63zM913 -442q-101 0 -160 45.5t-59 120.5q0 53 29.5 83.5t75.5 30.5q55 0 82 -32.5t47 -98.5
q14 -53 39 -78q74 20 105.5 145.5t31.5 387.5v995q0 115 -39 141q-42 28 -213 31v64h565v-64q-97 -3 -119 -31q-24 -27 -24 -141v-919q0 -317 -97.5 -498.5t-263.5 -181.5z" />
    <glyph glyph-name="ij" unicode="&#x133;" horiz-adv-x="1206" 
d="M385 1200q-34 -35 -87.5 -35t-88.5 35t-35 88t35 88t88.5 35t87.5 -35t34 -88t-34 -88zM1022 1200q-34 -35 -87.5 -35t-88.5 35t-35 88t35 88t88.5 35t87.5 -35t34 -88t-34 -88zM537 0h-469v55q97 6 129 35q28 28 28 131v516q0 88 -28 113q-27 24 -131 24v48l260 61h49
v-762q0 -103 31 -131q29 -29 131 -35v-55zM696 -442q-96 0 -150 38.5t-54 106.5q-4 35 16 61t48.5 36t59.5 5t48 -26q13 -17 41 -75.5t47 -76.5q112 40 112 424v694q0 83 -37 107q-42 22 -174 22v48l310 61h49v-881q0 -256 -82.5 -400t-233.5 -144z" />
    <glyph glyph-name="Jcircumflex" unicode="&#x134;" horiz-adv-x="747" 
d="M621 1481l-197 137l-197 -137h-86l195 196h174l195 -196h-84zM102 1329v64h566v-64q-97 -3 -119 -31q-25 -28 -25 -141v-919q0 -317 -97 -498.5t-263 -181.5q-101 0 -160 45.5t-59 120.5q0 53 29.5 83.5t74.5 30.5q55 0 82 -32.5t47 -98.5q14 -53 39 -78
q74 20 105.5 145.5t31.5 387.5v995q0 115 -39 141q-42 28 -213 31z" />
    <glyph glyph-name="jcircumflex" unicode="&#x135;" horiz-adv-x="604" 
d="M262 1393h135l172 -299h-84l-155 209l-156 -209h-86zM51 874v48l309 61h50v-881q0 -256 -82.5 -400t-233.5 -144q-96 0 -150.5 38.5t-54.5 106.5q-4 35 16 61t48.5 36t59.5 5t48 -26q13 -17 41.5 -75.5t47.5 -76.5q112 40 112 424v694q0 83 -37 107q-42 22 -174 22z" />
    <glyph glyph-name="uni0136" unicode="&#x136;" horiz-adv-x="1441" 
d="M1417 1393v-64q-53 -6 -110 -41q-59 -38 -168 -135l-416 -369l514 -596q101 -116 180 -125v-63h-520v63q143 6 143 54q0 35 -82 129l-362 426l-137 -121v-313q0 -111 33 -140q32 -32 153 -35v-63h-549v63q124 3 162 33q31 28 31 142v917q0 112 -31 143q-36 28 -162 31v64
h549v-64q-120 -3 -153 -33q-33 -26 -33 -139v-485l514 458q98 85 98 130q0 63 -153 69v64h499zM782 -92q60 0 91.5 -40t31.5 -114q0 -95 -53.5 -146.5t-159.5 -39.5v51q81 -10 120 24t34 95q-40 -27 -76 -27q-43 0 -69.5 25.5t-26.5 68.5q0 47 29 75t79 28z" />
    <glyph glyph-name="uni0137" unicode="&#x137;" horiz-adv-x="1103" 
d="M1053 971v-56q-57 -9 -117 -49q-66 -44 -188 -155l-166 -148l305 -377q55 -69 89.5 -96.5t76.5 -34.5v-55h-404v55q90 6 90 56q0 25 -51 88l-217 264l-115 -101v-151q0 -88 28 -118t114 -38v-55h-439v55q93 9 121 37q27 27 27 119v997q0 80 -27.5 103.5t-120.5 23.5v47
l252 72h45v-983l340 301q58 55 58 90q0 50 -111 53v56h410zM543 -92q60 0 91.5 -40t31.5 -114q0 -95 -53.5 -146.5t-159.5 -39.5v51q81 -10 119.5 24t33.5 95q-40 -27 -76 -27q-43 0 -69.5 25.5t-26.5 68.5q0 47 29.5 75t79.5 28z" />
    <glyph glyph-name="kgreenlandic" unicode="&#x138;" horiz-adv-x="1110" 
d="M1059 971v-56q-57 -9 -117 -49q-66 -44 -188 -155l-166 -148l303 -377q55 -67 90.5 -95.5t77.5 -35.5v-55h-397v55q86 6 86 51q0 29 -41 76l-230 281l-115 -101v-159q0 -88 25 -113q23 -26 119 -35v-55h-440v55q93 7 120 35t27 113v534q0 88 -26.5 112.5t-120.5 24.5v48
l245 61h51v-518l345 307q57 51 57 90q0 50 -102 53v56h397z" />
    <glyph glyph-name="Lacute" unicode="&#x139;" horiz-adv-x="1314" 
d="M526 1677h162l-262 -196h-94zM1206 0h-1110v63q127 3 162 33q31 28 31 142v917q0 112 -31 143q-36 28 -162 31v64h570v-64q-140 -3 -172 -35q-35 -35 -35 -153v-891q0 -106 36.5 -140t151.5 -34h219q126 0 191 80q65 77 117 331h86z" />
    <glyph glyph-name="lacute" unicode="&#x13a;" horiz-adv-x="632" 
d="M461 1677h162l-265 -176h-94zM369 1454v-1245q0 -98 28 -123t131 -31v-55h-469v55q99 6 129 33q31 25 31 121v999q0 80 -27 103.5t-120 23.5v47l252 72h45z" />
    <glyph glyph-name="uni013B" unicode="&#x13b;" horiz-adv-x="1314" 
d="M1206 0h-1110v63q127 3 162 33q31 28 31 142v917q0 112 -31 143q-36 28 -162 31v64h570v-64q-140 -3 -172 -35q-35 -35 -35 -153v-891q0 -106 36.5 -140t151.5 -34h219q126 0 191 80q65 77 117 331h86zM623 -432v51q81 -10 119.5 24t33.5 95q-41 -27 -76 -27
q-43 0 -69.5 25.5t-26.5 68.5q0 47 29.5 75t79.5 28q60 0 91.5 -40t31.5 -114q0 -95 -53.5 -146.5t-159.5 -39.5z" />
    <glyph glyph-name="uni013C" unicode="&#x13c;" horiz-adv-x="589" 
d="M369 1454v-1245q0 -98 28 -123t131 -31v-55h-469v55q99 6 129 33q31 25 31 121v999q0 80 -27 103.5t-120 23.5v47l252 72h45zM281 -92q60 0 91 -40t31 -114q0 -95 -53.5 -146.5t-159.5 -39.5v51q81 -10 120 24t34 95q-40 -27 -76 -27q-43 0 -69.5 25.5t-26.5 68.5
q0 47 29.5 75t79.5 28z" />
    <glyph glyph-name="Lcaron" unicode="&#x13d;" horiz-adv-x="1314" 
d="M891 1454h135l-137 -395h-60zM1206 0h-1110v63q127 3 162 33q31 28 31 142v917q0 112 -31 143q-36 28 -162 31v64h570v-64q-140 -3 -172 -35q-35 -35 -35 -153v-891q0 -106 36.5 -140t151.5 -34h219q126 0 191 80q65 77 117 331h86z" />
    <glyph glyph-name="lcaron" unicode="&#x13e;" horiz-adv-x="589" 
d="M369 1454v-1245q0 -98 28 -123t131 -31v-55h-469v55q99 6 129 33q31 25 31 121v999q0 80 -27 103.5t-120 23.5v47l252 72h45zM498 1059l61 395h135l-137 -395h-59z" />
    <glyph glyph-name="Ldot" unicode="&#x13f;" horiz-adv-x="1314" 
d="M1206 0h-1110v63q127 3 162 33q31 28 31 142v917q0 112 -31 143q-36 28 -162 31v64h570v-64q-140 -3 -172 -35q-35 -35 -35 -153v-891q0 -106 36.5 -140t151.5 -34h219q126 0 191 80q65 77 117 331h86zM1114 784q-37 -37 -90 -37t-90 37q-37 35 -37 90.5t37 92.5
q37 35 90 35t90 -35q37 -37 37 -92.5t-37 -90.5z" />
    <glyph glyph-name="ldot" unicode="&#x140;" horiz-adv-x="671" 
d="M369 1454v-1245q0 -98 28 -123t131 -31v-55h-469v55q99 6 129 33q31 25 31 121v999q0 80 -27 103.5t-120 23.5v47l252 72h45zM545 848q27 27 66 33t72.5 -7.5t56.5 -45t20 -72.5q0 -55 -35.5 -91t-89.5 -36q-41 -4 -72.5 19.5t-45 58t-7.5 74.5t35 67z" />
    <glyph glyph-name="Lslash" unicode="&#x141;" horiz-adv-x="1314" 
d="M1174 487h86l-54 -487h-1110v63q127 3 162 33q31 28 31 142v243l-205 -143v88l205 143v586q0 112 -31 143q-36 28 -162 31v64h570v-64q-140 -3 -172 -35q-35 -35 -35 -153v-451l516 363v-88l-516 -363v-352q0 -106 36.5 -140t151.5 -34h219q126 0 191 80q65 77 117 331z
" />
    <glyph glyph-name="lslash" unicode="&#x142;" horiz-adv-x="589" 
d="M547 1026v-86l-178 -143v-588q0 -98 28 -123t131 -31v-55h-469v55q99 6 129 33q31 25 31 121v469l-178 -143v86l178 143v444q0 80 -27 103.5t-120 23.5v47l252 72h45v-571z" />
    <glyph glyph-name="Nacute" unicode="&#x143;" horiz-adv-x="1562" 
d="M934 1677h162l-262 -196h-95zM1014 1329v64h471v-64q-92 -3 -119 -43q-29 -44 -29 -166v-1130h-131l-825 1091v-778q0 -152 37 -192q39 -45 186 -48v-63h-508v63q125 3 162 46q31 42 31 194v899q-56 70 -94.5 95.5t-98.5 31.5v64h283l866 -1157v884q0 127 -41 168
q-41 38 -190 41z" />
    <glyph glyph-name="nacute" unicode="&#x144;" horiz-adv-x="1165" 
d="M688 1393h158l-217 -299h-86zM969 655v-452q0 -86 24 -113q23 -26 117 -35v-55h-438v55q97 9 123 35q24 24 24 113v418q0 116 -52 176.5t-149 60.5q-135 0 -256 -139v-516q0 -88 25 -113q23 -26 119 -35v-55h-440v55q93 7 120 35t27 113v534q0 88 -26.5 112.5
t-120.5 24.5v48l245 61h51v-184q111 196 310 196q142 0 219.5 -88t77.5 -252z" />
    <glyph glyph-name="uni0145" unicode="&#x145;" horiz-adv-x="1562" 
d="M1014 1329v64h471v-64q-92 -3 -119 -43q-29 -44 -29 -166v-1130h-131l-825 1091v-778q0 -152 37 -192q39 -45 186 -48v-63h-508v63q125 3 162 46q31 42 31 194v899q-56 70 -94.5 95.5t-98.5 31.5v64h283l866 -1157v884q0 127 -41 168q-41 38 -190 41zM760 -92
q60 0 91.5 -40t31.5 -114q0 -95 -53.5 -146.5t-159.5 -39.5v51q81 -10 119.5 24t33.5 95q-41 -27 -75 -27q-43 0 -70 26t-27 68q0 47 29.5 75t79.5 28z" />
    <glyph glyph-name="uni0146" unicode="&#x146;" horiz-adv-x="1165" 
d="M969 655v-452q0 -86 24 -113q23 -26 117 -35v-55h-438v55q97 9 123 35q24 24 24 113v418q0 116 -52 176.5t-149 60.5q-135 0 -256 -139v-516q0 -88 25 -113q23 -26 119 -35v-55h-440v55q93 7 120 35t27 113v534q0 88 -26.5 112.5t-120.5 24.5v48l245 61h51v-184
q111 196 310 196q142 0 219.5 -88t77.5 -252zM573 -92q60 0 91.5 -40t31.5 -114q0 -95 -53.5 -146.5t-159.5 -39.5v51q81 -10 120 24t34 95q-41 -27 -76 -27q-43 0 -69.5 25.5t-26.5 68.5q0 47 29 75t79 28z" />
    <glyph glyph-name="Ncaron" unicode="&#x147;" horiz-adv-x="1562" 
d="M1073 1677l-194 -196h-174l-195 196h86l197 -137l196 137h84zM1014 1329v64h471v-64q-92 -3 -119 -43q-29 -44 -29 -166v-1130h-131l-825 1091v-778q0 -152 37 -192q39 -45 186 -48v-63h-508v63q125 3 162 46q31 42 31 194v899q-56 70 -94.5 95.5t-98.5 31.5v64h283
l866 -1157v884q0 127 -41 168q-41 38 -190 41z" />
    <glyph glyph-name="ncaron" unicode="&#x148;" horiz-adv-x="1165" 
d="M821 1393l-172 -299h-135l-174 299h86l156 -209l155 209h84zM969 655v-452q0 -86 24 -113q23 -26 117 -35v-55h-438v55q97 9 123 35q24 24 24 113v418q0 116 -52 176.5t-149 60.5q-135 0 -256 -139v-516q0 -88 25 -113q23 -26 119 -35v-55h-440v55q93 7 120 35t27 113
v534q0 88 -26.5 112.5t-120.5 24.5v48l245 61h51v-184q111 196 310 196q142 0 219.5 -88t77.5 -252z" />
    <glyph glyph-name="napostrophe" unicode="&#x149;" horiz-adv-x="1165" 
d="M328 1272q0 -101 -67 -162t-187 -61v55q90 0 137.5 44.5t42.5 115.5q-44 -23 -78 -23q-47 0 -74.5 27.5t-27.5 74.5q0 50 31.5 80.5t82.5 30.5q66 0 103 -48t37 -134zM969 655v-452q0 -86 24 -113q23 -26 117 -35v-55h-438v55q97 9 123 35q24 24 24 113v418
q0 116 -52 176.5t-149 60.5q-135 0 -256 -139v-516q0 -88 25 -113q23 -26 119 -35v-55h-440v55q93 7 120 35t27 113v534q0 88 -26.5 112.5t-120.5 24.5v48l245 61h51v-184q111 196 310 196q142 0 219.5 -88t77.5 -252z" />
    <glyph glyph-name="Eng" unicode="&#x14a;" horiz-adv-x="1562" 
d="M1014 1329v64h471v-64q-92 -3 -119 -43q-29 -44 -29 -166v-1130h-2v-37q0 -191 -85.5 -293t-245.5 -102q-137 0 -219.5 47t-82.5 125q0 56 31.5 89.5t85.5 33.5q81 0 105 -74l18 -67q17 -66 27 -81q33 -10 53 -10q109 0 167 85t58 245v39h-41l-825 1091v-778
q0 -152 37 -192q39 -45 186 -48v-63h-508v63q125 3 162 46q31 42 31 194v899q-56 70 -94.5 95.5t-98.5 31.5v64h283l866 -1157v884q0 127 -41 168q-41 38 -190 41z" />
    <glyph glyph-name="eng" unicode="&#x14b;" horiz-adv-x="1167" 
d="M674 995q140 0 217.5 -88.5t77.5 -251.5v-655q0 -202 -91 -322t-241 -120q-104 0 -163.5 42t-59.5 109q0 51 30.5 84t79.5 33q36 4 63.5 -19.5t41 -55t31.5 -67.5t34 -49q125 24 125 324v672q0 229 -201 229q-138 0 -256 -145v-512q0 -88 25 -113q23 -26 119 -35v-55
h-440v55q93 7 120 35t27 113v534q0 88 -26.5 112.5t-120.5 24.5v48l245 61h51v-188q114 200 312 200z" />
    <glyph glyph-name="Omacron" unicode="&#x14c;" horiz-adv-x="1640" 
d="M1090 1538h-566v82h566v-82zM819 -29q-309 0 -510 201q-203 200 -203 524q0 325 203 525q200 200 510 200q311 0 514 -200q201 -201 201 -525q0 -323 -201 -524q-204 -201 -514 -201zM819 55q234 0 375 176q139 177 139 465q0 290 -139 467q-140 174 -375 174
q-233 0 -370 -174q-142 -177 -142 -467q0 -288 142 -465q138 -176 370 -176z" />
    <glyph glyph-name="omacron" unicode="&#x14d;" horiz-adv-x="1099" 
d="M281 1214v82h540v-82h-540zM887 113q-130 -142 -338 -142q-209 0 -336 142q-127 139 -127 368q0 232 129 373q126 141 336 141q209 0 336 -139q127 -142 127 -371q0 -230 -127 -372zM565 49q117 0 194 101t77 299q0 190 -78 331q-79 138 -223 138q-117 0 -194 -101
t-77 -299q0 -191 80 -330q77 -139 221 -139z" />
    <glyph glyph-name="Obreve" unicode="&#x14e;" horiz-adv-x="1640" 
d="M977 1677h86q-9 -196 -256 -196t-256 196h86q9 -116 170 -116t170 116zM819 -29q-309 0 -510 201q-203 200 -203 524q0 325 203 525q200 200 510 200q311 0 514 -200q201 -201 201 -525q0 -323 -201 -524q-204 -201 -514 -201zM819 55q234 0 375 176q139 177 139 465
q0 290 -139 467q-140 174 -375 174q-233 0 -370 -174q-142 -177 -142 -467q0 -288 142 -465q138 -176 370 -176z" />
    <glyph glyph-name="obreve" unicode="&#x14f;" horiz-adv-x="1099" 
d="M741 1169q-63 -75 -190 -75q-128 0 -191 75q-65 77 -65 224h86q0 -102 45 -157.5t125 -55.5t125 55.5t45 157.5h86q0 -146 -66 -224zM887 113q-130 -142 -338 -142q-209 0 -336 142q-127 139 -127 368q0 232 129 373q126 141 336 141q209 0 336 -139q127 -142 127 -371
q0 -230 -127 -372zM565 49q117 0 194 101t77 299q0 190 -78 331q-79 138 -223 138q-117 0 -194 -101t-77 -299q0 -191 80 -330q77 -139 221 -139z" />
    <glyph glyph-name="Ohungarumlaut" unicode="&#x150;" horiz-adv-x="1640" 
d="M807 1677h133l-229 -196h-90zM1087 1677h132l-230 -196h-88zM819 -29q-309 0 -510 201q-203 200 -203 524q0 325 203 525q200 200 510 200q311 0 514 -200q201 -201 201 -525q0 -323 -201 -524q-204 -201 -514 -201zM819 55q234 0 375 176q139 177 139 465
q0 290 -139 467q-140 174 -375 174q-233 0 -370 -174q-142 -177 -142 -467q0 -288 142 -465q138 -176 370 -176z" />
    <glyph glyph-name="ohungarumlaut" unicode="&#x151;" horiz-adv-x="1099" 
d="M522 1393h131l-190 -299h-86zM784 1393h131l-192 -299h-84zM887 113q-130 -142 -338 -142q-209 0 -336 142q-127 139 -127 368q0 232 129 373q126 141 336 141q209 0 336 -139q127 -142 127 -371q0 -230 -127 -372zM565 49q117 0 194 101t77 299q0 190 -78 331
q-79 138 -223 138q-117 0 -194 -101t-77 -299q0 -191 80 -330q77 -139 221 -139z" />
    <glyph glyph-name="OE" unicode="&#x152;" horiz-adv-x="2131" 
d="M1939 416h86l-28 -416h-793q-87 0 -207 -14q-129 -15 -206 -15q-297 0 -492 195q-193 193 -193 530q0 340 193 533q192 192 492 192q86 0 206 -14t207 -14h776l19 -353h-84q-24 165 -86 224q-61 55 -238 55h-352v-571h281q132 0 172 34q36 33 51 176h78v-495h-78
q-15 145 -51 178q-39 33 -172 33h-281v-445q0 -99 33 -125q34 -30 143 -30h236q142 0 204 71q60 72 84 271zM791 47q143 0 210.5 59.5t67.5 208.5v758q0 152 -67.5 212.5t-210.5 60.5q-228 0 -356 -170t-128 -480t127.5 -479.5t356.5 -169.5z" />
    <glyph glyph-name="oe" unicode="&#x153;" horiz-adv-x="1601" 
d="M1460 319l53 -16q-32 -167 -110.5 -249.5t-220.5 -82.5q-232 0 -332 207q-115 -207 -346 -207q-191 0 -305 144q-113 143 -113 366q0 226 115 371q113 143 307 143q234 0 346 -213q103 213 330 213q160 0 244.5 -106.5t82.5 -298.5h-587v-35q0 -201 76 -310.5t225 -109.5
q92 0 145.5 43t89.5 141zM1167 924q-93 0 -154 -66t-81 -190h416q0 256 -181 256zM518 47q101 0 167.5 101.5t66.5 300.5q0 192 -68 331q-68 140 -192 140q-101 0 -166.5 -101t-65.5 -301q0 -193 68 -332q65 -139 190 -139z" />
    <glyph glyph-name="Racute" unicode="&#x154;" horiz-adv-x="1409" 
d="M774 1677h162l-262 -196h-94zM842 723l413 -557q64 -88 129 -103v-63h-241l-490 709h-194v-461q0 -112 37 -146q36 -36 157 -39v-63h-557v63q127 3 162 33q31 28 31 142v917q0 112 -31 143q-36 28 -162 31v64h656q440 0 440 -318q0 -139 -91.5 -230t-258.5 -122z
M709 1319h-250v-537h190q167 0 261 74t94 209q0 254 -295 254z" />
    <glyph glyph-name="racute" unicode="&#x155;" horiz-adv-x="827" 
d="M563 1393h158l-217 -299h-86zM645 995q60 0 98.5 -35.5t38.5 -91.5q0 -53 -33 -89t-81 -36q-43 0 -78 50q-35 47 -58 57q-103 -95 -170 -309v-338q0 -92 33 -115q30 -24 152 -33v-55h-481v55q93 7 120 35t27 113v534q0 88 -26.5 112.5t-120.5 24.5v48l245 61h51v-313
q42 125 121 227q76 98 162 98z" />
    <glyph glyph-name="uni0156" unicode="&#x156;" horiz-adv-x="1409" 
d="M842 723l413 -557q64 -88 129 -103v-63h-241l-490 709h-194v-461q0 -112 37 -146q36 -36 157 -39v-63h-557v63q127 3 162 33q31 28 31 142v917q0 112 -31 143q-36 28 -162 31v64h656q440 0 440 -318q0 -139 -91.5 -230t-258.5 -122zM709 1319h-250v-537h190q167 0 261 74
t94 209q0 254 -295 254zM811 -92q60 0 91.5 -40t31.5 -114q0 -95 -53.5 -146.5t-159.5 -39.5v51q81 -10 119.5 24t33.5 95q-40 -27 -75 -27q-43 0 -70 26t-27 68q0 47 29.5 75t79.5 28z" />
    <glyph glyph-name="uni0157" unicode="&#x157;" horiz-adv-x="827" 
d="M645 995q60 0 98.5 -35.5t38.5 -91.5q0 -53 -33 -89t-81 -36q-43 0 -78 50q-35 47 -58 57q-103 -95 -170 -309v-338q0 -92 33 -115q30 -24 152 -33v-55h-481v55q93 7 120 35t27 113v534q0 88 -26.5 112.5t-120.5 24.5v48l245 61h51v-313q42 125 121 227q76 98 162 98z
M313 -92q60 0 91.5 -40t31.5 -114q0 -95 -53.5 -146.5t-159.5 -39.5v51q81 -10 120 24t34 95q-41 -27 -76 -27q-43 0 -69.5 25.5t-26.5 68.5q0 47 29 75t79 28z" />
    <glyph glyph-name="Rcaron" unicode="&#x158;" horiz-adv-x="1409" 
d="M913 1677l-194 -196h-174l-195 196h86l197 -137l196 137h84zM842 723l413 -557q64 -88 129 -103v-63h-241l-490 709h-194v-461q0 -112 37 -146q36 -36 157 -39v-63h-557v63q127 3 162 33q31 28 31 142v917q0 112 -31 143q-36 28 -162 31v64h656q440 0 440 -318
q0 -139 -91.5 -230t-258.5 -122zM709 1319h-250v-537h190q167 0 261 74t94 209q0 254 -295 254z" />
    <glyph glyph-name="rcaron" unicode="&#x159;" horiz-adv-x="827" 
d="M696 1393l-172 -299h-135l-174 299h86l156 -209l155 209h84zM645 995q60 0 98.5 -35.5t38.5 -91.5q0 -53 -33 -89t-81 -36q-43 0 -78 50q-35 47 -58 57q-103 -95 -170 -309v-338q0 -92 33 -115q30 -24 152 -33v-55h-481v55q93 7 120 35t27 113v534q0 88 -26.5 112.5
t-120.5 24.5v48l245 61h51v-313q42 125 121 227q76 98 162 98z" />
    <glyph glyph-name="Sacute" unicode="&#x15a;" horiz-adv-x="1132" 
d="M717 1677h162l-263 -196h-94zM582 -29q-89 0 -169.5 21t-124 42t-44.5 21q-28 0 -37 -65h-80v497h86q40 -432 371 -432q124 0 192 60t68 166q0 93 -47.5 160t-155.5 120l-213 111q-148 75 -216.5 171.5t-68.5 229.5q0 161 112.5 254.5t309.5 93.5q80 0 154.5 -21
t117.5 -42t44 -21q22 0 34 66h78v-445h-84q-20 197 -102 288t-240 91q-118 0 -190 -60.5t-72 -160.5q0 -88 46.5 -150.5t156.5 -119.5l223 -115q142 -74 208.5 -167.5t66.5 -221.5q0 -174 -112 -272.5t-312 -98.5z" />
    <glyph glyph-name="sacute" unicode="&#x15b;" horiz-adv-x="870" 
d="M549 1393h158l-218 -299h-86zM418 -29q-173 0 -301 70l-11 276h80q30 -268 246 -268q87 0 136.5 39t49.5 107q0 60 -33.5 100.5t-111.5 75.5l-154 69q-208 91 -208 279q0 129 91 202.5t251 73.5q175 0 301 -69l10 -242h-82q-30 234 -242 234q-88 0 -138 -39.5t-50 -108.5
q0 -60 33.5 -100.5t113.5 -75.5l154 -70q207 -92 207 -272q0 -130 -92 -205.5t-250 -75.5z" />
    <glyph glyph-name="Scircumflex" unicode="&#x15c;" horiz-adv-x="1132" 
d="M770 1481l-197 137l-196 -137h-86l194 196h174l195 -196h-84zM508 846l223 -115q142 -74 208.5 -167.5t66.5 -221.5q0 -174 -112 -272.5t-312 -98.5q-89 0 -169.5 21t-124 42t-44.5 21q-28 0 -37 -65h-80v497h86q40 -432 371 -432q124 0 192 60t68 166q0 93 -47.5 160
t-155.5 120l-213 111q-148 75 -216.5 171.5t-68.5 229.5q0 161 112.5 254.5t309.5 93.5q80 0 154.5 -21t117.5 -42t44 -21q22 0 34 66h78v-445h-84q-20 197 -102 288t-240 91q-118 0 -190 -60.5t-72 -160.5q0 -88 46.5 -150.5t156.5 -119.5z" />
    <glyph glyph-name="scircumflex" unicode="&#x15d;" horiz-adv-x="870" 
d="M598 1094l-156 209l-155 -209h-86l174 299h135l172 -299h-84zM399 594l154 -70q207 -92 207 -272q0 -130 -92 -205.5t-250 -75.5q-173 0 -301 70l-11 276h80q30 -268 246 -268q87 0 136.5 39t49.5 107q0 60 -33.5 100.5t-111.5 75.5l-154 69q-208 91 -208 279
q0 129 91 202.5t251 73.5q175 0 301 -69l10 -242h-82q-30 234 -242 234q-88 0 -138 -39.5t-50 -108.5q0 -60 33.5 -100.5t113.5 -75.5z" />
    <glyph glyph-name="Scedilla" unicode="&#x15e;" horiz-adv-x="1132" 
d="M1006 342q0 -173 -108.5 -271.5t-303.5 -99.5l-39 -82q94 5 150.5 -39.5t56.5 -123.5q0 -78 -57.5 -123t-155.5 -45q-87 0 -137 31.5t-50 86.5q0 30 18 50t44 20q29 0 45 -18.5t16 -49.5q0 -8 -3 -32t-3 -29q23 -10 68 -10q51 0 81.5 27.5t30.5 74.5q0 119 -208 98
l77 166q-72 5 -139.5 25.5t-105 38.5t-39.5 18q-28 0 -37 -65h-80v497h86q40 -432 371 -432q124 0 192 60t68 166q0 93 -47.5 160t-155.5 120l-213 111q-148 75 -216.5 171.5t-68.5 229.5q0 161 112.5 254.5t309.5 93.5q80 0 154.5 -21t117.5 -42t44 -21q22 0 34 66h78v-445
h-84q-20 197 -102 288t-240 91q-118 0 -190 -60.5t-72 -160.5q0 -88 46.5 -150.5t156.5 -119.5l223 -115q142 -74 208.5 -167.5t66.5 -221.5z" />
    <glyph glyph-name="scedilla" unicode="&#x15f;" horiz-adv-x="870" 
d="M399 594l154 -70q207 -92 207 -272q0 -121 -79 -194.5t-216 -84.5l-41 -84q94 5 150.5 -39.5t56.5 -123.5q0 -78 -57.5 -123t-155.5 -45q-87 0 -137 31.5t-50 86.5q0 30 18 50t44 20q29 0 45 -18.5t16 -49.5q0 -8 -3 -32t-3 -29q23 -10 68 -10q51 0 81.5 27.5t30.5 74.5
q0 119 -209 98l78 164q-167 6 -280 70l-11 276h80q30 -268 246 -268q87 0 136.5 39t49.5 107q0 60 -33.5 100.5t-111.5 75.5l-154 69q-208 91 -208 279q0 129 91 202.5t251 73.5q175 0 301 -69l10 -242h-82q-30 234 -242 234q-88 0 -138 -39.5t-50 -108.5q0 -60 33.5 -100.5
t113.5 -75.5z" />
    <glyph glyph-name="Scaron" unicode="&#x160;" horiz-adv-x="1132" 
d="M854 1677l-195 -196h-174l-194 196h86l196 -137l197 137h84zM508 846l223 -115q142 -74 208.5 -167.5t66.5 -221.5q0 -174 -112 -272.5t-312 -98.5q-89 0 -169.5 21t-124 42t-44.5 21q-28 0 -37 -65h-80v497h86q40 -432 371 -432q124 0 192 60t68 166q0 93 -47.5 160
t-155.5 120l-213 111q-148 75 -216.5 171.5t-68.5 229.5q0 161 112.5 254.5t309.5 93.5q80 0 154.5 -21t117.5 -42t44 -21q22 0 34 66h78v-445h-84q-20 197 -102 288t-240 91q-118 0 -190 -60.5t-72 -160.5q0 -88 46.5 -150.5t156.5 -119.5z" />
    <glyph glyph-name="scaron" unicode="&#x161;" horiz-adv-x="870" 
d="M684 1393l-172 -299h-135l-174 299h86l155 -209l156 209h84zM399 594l154 -70q207 -92 207 -272q0 -130 -92 -205.5t-250 -75.5q-173 0 -301 70l-11 276h80q30 -268 246 -268q87 0 136.5 39t49.5 107q0 60 -33.5 100.5t-111.5 75.5l-154 69q-208 91 -208 279
q0 129 91 202.5t251 73.5q175 0 301 -69l10 -242h-82q-30 234 -242 234q-88 0 -138 -39.5t-50 -108.5q0 -60 33.5 -100.5t113.5 -75.5z" />
    <glyph glyph-name="uni0162" unicode="&#x162;" horiz-adv-x="1341" 
d="M1200 1434h80l16 -414h-84q-21 189 -61 244q-41 53 -152 53h-243v-1045q0 -130 41 -168t198 -41v-63h-288l-54 -111q94 5 150.5 -39.5t56.5 -123.5q0 -78 -57.5 -123t-155.5 -45q-87 0 -136.5 31.5t-49.5 86.5q0 31 17.5 50.5t43.5 19.5q29 0 45.5 -18.5t16.5 -49.5
q0 -8 -3 -32t-3 -29q23 -10 67 -10q51 0 82 27.5t31 74.5q0 119 -209 98l90 193h-293v63q158 3 199 41t41 168v1045h-244q-111 0 -152 -53q-37 -51 -59 -244h-86l16 414h80q7 -26 22.5 -33.5t59.5 -7.5h895q47 0 60.5 7t21.5 34z" />
    <glyph glyph-name="uni0163" unicode="&#x163;" horiz-adv-x="782" 
d="M502 -18l-43 -93q94 5 150.5 -39.5t56.5 -123.5q0 -78 -57.5 -123t-155.5 -45q-87 0 -137 31.5t-50 86.5q0 30 18 50t44 20q29 0 45 -18.5t16 -49.5q0 -8 -3 -32t-3 -29q23 -10 68 -10q51 0 81.5 27.5t30.5 74.5q0 119 -209 98l80 175q-97 11 -150 80t-53 184v590h-186
v71q225 27 260 236h76v-172h293v-135h-293v-557q0 -170 135 -170q96 0 182 86l39 -37q-61 -89 -114.5 -129.5t-120.5 -46.5z" />
    <glyph glyph-name="Tcaron" unicode="&#x164;" horiz-adv-x="1341" 
d="M952 1677l-194 -196h-174l-195 196h86l197 -137l196 137h84zM1200 1434h80l16 -414h-84q-21 189 -61 244q-41 53 -152 53h-243v-1045q0 -130 41 -168t198 -41v-63h-649v63q158 3 199 41t41 168v1045h-244q-111 0 -152 -53q-37 -51 -59 -244h-86l16 414h80
q7 -26 22.5 -33.5t59.5 -7.5h895q47 0 60.5 7t21.5 34z" />
    <glyph glyph-name="tcaron" unicode="&#x165;" horiz-adv-x="782" 
d="M565 1454h135l-137 -395h-59zM698 195l39 -37q-63 -96 -124.5 -137t-141.5 -41q-113 0 -176.5 69.5t-63.5 196.5v590h-186v71q225 27 260 236h76v-172h293v-135h-293v-557q0 -170 135 -170q96 0 182 86z" />
    <glyph glyph-name="Tbar" unicode="&#x166;" horiz-adv-x="1341" 
d="M1200 1434h80l16 -414h-84q-21 189 -61 244q-41 53 -152 53h-243v-588h344v-65h-344v-392q0 -130 41 -168t198 -41v-63h-649v63q158 3 199 41t41 168v392h-344v65h344v588h-244q-111 0 -152 -53q-37 -51 -59 -244h-86l16 414h80q7 -26 22.5 -33.5t59.5 -7.5h895
q47 0 60.5 7t21.5 34z" />
    <glyph glyph-name="tbar" unicode="&#x167;" horiz-adv-x="782" 
d="M698 195l39 -37q-63 -96 -124.5 -137t-141.5 -41q-113 0 -176.5 69.5t-63.5 196.5v268h-170v66h170v256h-186v71q225 27 260 236h76v-172h293v-135h-293v-256h291v-66h-291v-235q0 -170 135 -170q96 0 182 86z" />
    <glyph glyph-name="Utilde" unicode="&#x168;" horiz-adv-x="1460" 
d="M641 1677q-161 0 -164 -196h45q15 102 111 102q39 0 119 -51t145 -51q161 0 164 196h-45q-15 -102 -111 -102q-39 0 -119 51t-145 51zM735 -29q-252 0 -391 136t-139 385v649q0 115 -23 153q-19 32 -106 35v64h520v-64q-142 -3 -174 -35q-35 -35 -35 -153v-645
q0 -200 99 -306t284 -106q184 0 284.5 107.5t100.5 304.5v616q0 134 -37 174t-166 43v64h432v-64q-86 -3 -110 -43q-27 -44 -27 -174v-614q0 -249 -134 -388t-378 -139z" />
    <glyph glyph-name="utilde" unicode="&#x169;" horiz-adv-x="1099" 
d="M379 1241q-83 0 -92 -108h-45q0 210 145 210q61 0 150 -59q88 -61 122 -61q84 0 93 108h45q0 -211 -146 -211q-58 0 -147 62q-89 59 -125 59zM903 971v-744q0 -93 30 -121t128 -28v-53l-279 -37l-28 22v158q-57 -103 -129 -150t-172 -47q-133 0 -211 89t-78 251v477
q0 66 -24.5 93.5t-90.5 38.5v51h264v-621q0 -241 191 -241q135 0 250 139v532q0 78 -27 102.5t-119 35.5v53h295z" />
    <glyph glyph-name="Umacron" unicode="&#x16a;" horiz-adv-x="1460" 
d="M1053 1538h-566v82h566v-82zM735 -29q-252 0 -391 136t-139 385v649q0 115 -23 153q-19 32 -106 35v64h520v-64q-142 -3 -174 -35q-35 -35 -35 -153v-645q0 -200 99 -306t284 -106q184 0 284.5 107.5t100.5 304.5v616q0 134 -37 174t-166 43v64h432v-64q-86 -3 -110 -43
q-27 -44 -27 -174v-614q0 -249 -134 -388t-378 -139z" />
    <glyph glyph-name="umacron" unicode="&#x16b;" horiz-adv-x="1099" 
d="M252 1296h541v-82h-541v82zM903 971v-744q0 -93 30 -121t128 -28v-53l-279 -37l-28 22v158q-57 -103 -129 -150t-172 -47q-133 0 -211 89t-78 251v477q0 66 -24.5 93.5t-90.5 38.5v51h264v-621q0 -241 191 -241q135 0 250 139v532q0 78 -27 102.5t-119 35.5v53h295z" />
    <glyph glyph-name="Ubreve" unicode="&#x16c;" horiz-adv-x="1460" 
d="M770 1481q-247 0 -256 196h86q9 -116 170 -116t170 116h86q-9 -196 -256 -196zM735 -29q-252 0 -391 136t-139 385v649q0 115 -23 153q-19 32 -106 35v64h520v-64q-142 -3 -174 -35q-35 -35 -35 -153v-645q0 -200 99 -306t284 -106q184 0 284.5 107.5t100.5 304.5v616
q0 134 -37 174t-166 43v64h432v-64q-86 -3 -110 -43q-27 -44 -27 -174v-614q0 -249 -134 -388t-378 -139z" />
    <glyph glyph-name="ubreve" unicode="&#x16d;" horiz-adv-x="1099" 
d="M713 1169q-63 -75 -191 -75q-127 0 -190 75q-66 78 -66 224h86q0 -102 45 -157.5t125 -55.5t125 55.5t45 157.5h86q0 -147 -65 -224zM903 971v-744q0 -93 30 -121t128 -28v-53l-279 -37l-28 22v158q-57 -103 -129 -150t-172 -47q-133 0 -211 89t-78 251v477
q0 66 -24.5 93.5t-90.5 38.5v51h264v-621q0 -241 191 -241q135 0 250 139v532q0 78 -27 102.5t-119 35.5v53h295z" />
    <glyph glyph-name="Uring" unicode="&#x16e;" horiz-adv-x="1460" 
d="M907 1516q-52 -52 -137 -52q-83 0 -135 52q-53 53 -53 133t53 133q51 51 135 51q86 0 137 -51t51 -133t-51 -133zM680 1561q34 -34 91 -34t91 34t34 89t-34 89t-91 34t-91 -34t-34 -89t34 -89zM735 -29q-252 0 -391 136t-139 385v649q0 115 -23 153q-19 32 -106 35v64
h520v-64q-142 -3 -174 -35q-35 -35 -35 -153v-645q0 -200 99 -306t284 -106q184 0 284.5 107.5t100.5 304.5v616q0 134 -37 174t-166 43v64h432v-64q-86 -3 -110 -43q-27 -44 -27 -174v-614q0 -249 -134 -388t-378 -139z" />
    <glyph glyph-name="uring" unicode="&#x16f;" horiz-adv-x="1099" 
d="M662 1130q-53 -53 -140 -53q-86 0 -139 53t-53 136q0 84 53 137q51 51 139 51q89 0 140 -51q53 -53 53 -137q0 -83 -53 -136zM616 1358q-35 35 -94 35t-94 -35q-35 -37 -35 -92t35 -90q35 -37 94 -37t94 37q35 35 35 90t-35 92zM903 971v-744q0 -93 30 -121t128 -28v-53
l-279 -37l-28 22v158q-57 -103 -129 -150t-172 -47q-133 0 -211 89t-78 251v477q0 66 -24.5 93.5t-90.5 38.5v51h264v-621q0 -241 191 -241q135 0 250 139v532q0 78 -27 102.5t-119 35.5v53h295z" />
    <glyph glyph-name="Uhungarumlaut" unicode="&#x170;" horiz-adv-x="1460" 
d="M772 1677h133l-229 -196h-90zM1053 1677h131l-230 -196h-88zM735 -29q-252 0 -391 136t-139 385v649q0 115 -23 153q-19 32 -106 35v64h520v-64q-142 -3 -174 -35q-35 -35 -35 -153v-645q0 -200 99 -306t284 -106q184 0 284.5 107.5t100.5 304.5v616q0 134 -37 174
t-166 43v64h432v-64q-86 -3 -110 -43q-27 -44 -27 -174v-614q0 -249 -134 -388t-378 -139z" />
    <glyph glyph-name="uhungarumlaut" unicode="&#x171;" horiz-adv-x="1099" 
d="M494 1393h131l-191 -299h-86zM887 1393l-193 -299h-84l146 299h131zM903 971v-744q0 -93 30 -121t128 -28v-53l-279 -37l-28 22v158q-57 -103 -129 -150t-172 -47q-133 0 -211 89t-78 251v477q0 66 -24.5 93.5t-90.5 38.5v51h264v-621q0 -241 191 -241q135 0 250 139v532
q0 78 -27 102.5t-119 35.5v53h295z" />
    <glyph glyph-name="Uogonek" unicode="&#x172;" horiz-adv-x="1460" 
d="M952 1329v64h432v-64q-86 -3 -110 -43q-27 -44 -27 -174v-614q0 -362 -270 -482q-123 -120 -123 -229q0 -115 121 -115q74 0 107 46t38 151h49q7 -44 7 -74q0 -115 -52.5 -176t-150.5 -61t-153.5 51.5t-55.5 142.5q0 133 110 234q-58 -15 -139 -15q-252 0 -391 136
t-139 385v649q0 115 -23 153q-19 32 -106 35v64h520v-64q-142 -3 -174 -35q-35 -35 -35 -153v-645q0 -200 99 -306t284 -106q184 0 284.5 107.5t100.5 304.5v616q0 134 -37 174t-166 43z" />
    <glyph glyph-name="uogonek" unicode="&#x173;" horiz-adv-x="1099" 
d="M1061 78v-53l-260 -35q-96 -107 -96 -203q0 -115 120 -115q74 0 107.5 46t38.5 151h49q6 -38 6 -74q0 -115 -52.5 -176t-150.5 -61t-153.5 51.5t-55.5 142.5q0 142 140 258v158q-57 -103 -129 -150t-172 -47q-133 0 -211 89t-78 251v477q0 66 -24.5 93.5t-90.5 38.5v51
h264v-621q0 -241 191 -241q135 0 250 139v532q0 78 -27 102.5t-119 35.5v53h295v-744q0 -93 30 -121t128 -28z" />
    <glyph glyph-name="Wcircumflex" unicode="&#x174;" horiz-adv-x="2033" 
d="M1206 1481l-196 137l-197 -137h-86l195 196h174l194 -196h-84zM1567 1329v64h422v-64q-64 -3 -91 -43q-29 -43 -75 -186l-359 -1108h-129l-309 885l-311 -885h-129l-398 1153q-45 129 -63 153q-20 26 -80 29v66h475v-64q-91 -2 -126.5 -21.5t-35.5 -68.5q0 -46 25 -119
l303 -930l293 824l-55 160q-33 98 -64 129q-29 23 -125 26v64h543v-64q-105 -1 -143.5 -19.5t-38.5 -66.5q0 -45 26 -119l314 -929l297 925q24 77 24 113q0 53 -41.5 73.5t-148.5 22.5z" />
    <glyph glyph-name="wcircumflex" unicode="&#x175;" horiz-adv-x="1542" 
d="M913 1094l-155 209l-156 -209h-86l174 299h135l172 -299h-84zM1182 915v56h325v-56q-42 -5 -70 -38t-59 -123l-282 -762h-107l-211 575l-227 -575h-107l-278 745q-40 109 -64 144q-21 31 -67 34v56h389v-56q-119 -6 -119 -84q0 -22 14 -63l211 -606l207 516l-32 90
q-31 86 -60 116t-88 31v56h418v-56q-63 -2 -90 -20t-27 -59q0 -36 31 -131l184 -537l201 539q33 85 33 137q0 68 -125 71z" />
    <glyph glyph-name="Ycircumflex" unicode="&#x176;" horiz-adv-x="1382" 
d="M889 1481l-197 137l-196 -137h-86l194 196h174l195 -196h-84zM938 1329v64h410v-64q-35 -8 -62.5 -32.5t-71.5 -90.5l-438 -669v-291q0 -113 39 -146q37 -34 170 -37v-63h-590v63q134 3 174 37q37 34 37 146v291l-440 663q-50 73 -74.5 97.5t-56.5 31.5v64h495v-64
q-103 -6 -138.5 -21.5t-35.5 -52.5q0 -39 58 -127l321 -491l314 479q63 92 63 139q0 37 -36 52.5t-138 21.5z" />
    <glyph glyph-name="ycircumflex" unicode="&#x177;" horiz-adv-x="1030" 
d="M700 1094l-155 209l-156 -209h-86l174 299h135l172 -299h-84zM653 915v56h340v-56q-42 -5 -68 -38.5t-67 -137.5l-313 -772q-87 -218 -177 -312.5t-206 -94.5q-85 0 -138 41t-53 108q0 51 29 79t80 28q27 3 50.5 -14t38 -41.5t37.5 -54.5t46 -46q56 32 109 119.5
t122 257.5l2 4l-290 694q-42 104 -73.5 141t-76.5 39v56h426v-56q-131 -6 -131 -84q0 -30 22 -88l203 -503l205 510q23 61 23 81q0 81 -140 84z" />
    <glyph glyph-name="Ydieresis" unicode="&#x178;" horiz-adv-x="1382" 
d="M549 1511q-21 -23 -51.5 -27t-57 6.5t-44.5 35.5t-15 55q-6 61 45 86t102.5 0t46.5 -86q0 -44 -26 -70zM977 1511q-19 -22 -50 -26.5t-58 6t-46 35t-16 55.5q0 43 28 70.5t72 27.5q31 3 55.5 -15t34.5 -45t5.5 -57.5t-25.5 -50.5zM938 1329v64h410v-64
q-35 -8 -62.5 -32.5t-71.5 -90.5l-438 -669v-291q0 -113 39 -146q37 -34 170 -37v-63h-590v63q134 3 174 37q37 34 37 146v291l-440 663q-50 73 -74.5 97.5t-56.5 31.5v64h495v-64q-103 -6 -138.5 -21.5t-35.5 -52.5q0 -39 58 -127l321 -491l314 479q63 92 63 139
q0 37 -36 52.5t-138 21.5z" />
    <glyph glyph-name="Zacute" unicode="&#x179;" horiz-adv-x="1296" 
d="M805 1677h162l-262 -196h-95zM1124 487h84l-30 -487h-1061v168l907 1059h-604q-125 0 -158 -45q-38 -47 -59 -224h-86v486h80q6 -30 24.5 -40.5t65.5 -10.5h870v-166l-907 -1061h592q147 0 202 61q53 59 80 260z" />
    <glyph glyph-name="zacute" unicode="&#x17a;" horiz-adv-x="997" 
d="M602 1393h158l-217 -299h-86zM819 362h82l-16 -362h-768v145l608 680h-307q-155 0 -191 -26t-51 -148h-80v320h752v-146l-608 -680h348q135 0 174 39q39 36 57 178z" />
    <glyph glyph-name="Zdotaccent" unicode="&#x17b;" horiz-adv-x="1296" 
d="M739 1516q-31 -31 -77.5 -31t-75.5 31q-31 29 -31 75.5t31 77.5q21 24 54.5 29t63 -6.5t49.5 -39t17 -61.5q0 -44 -31 -75zM1124 487h84l-30 -487h-1061v168l907 1059h-604q-125 0 -158 -45q-38 -47 -59 -224h-86v486h80q6 -30 24.5 -40.5t65.5 -10.5h870v-166
l-907 -1061h592q147 0 202 61q53 59 80 260z" />
    <glyph glyph-name="zdotaccent" unicode="&#x17c;" horiz-adv-x="997" 
d="M584 1200q-34 -35 -87.5 -35t-88.5 35t-35 88t35 88t88.5 35t87.5 -35t34 -88t-34 -88zM819 362h82l-16 -362h-768v145l608 680h-307q-155 0 -191 -26t-51 -148h-80v320h752v-146l-608 -680h348q135 0 174 39q39 36 57 178z" />
    <glyph glyph-name="Zcaron" unicode="&#x17d;" horiz-adv-x="1296" 
d="M942 1677l-194 -196h-175l-194 196h86l197 -137l196 137h84zM1124 487h84l-30 -487h-1061v168l907 1059h-604q-125 0 -158 -45q-38 -47 -59 -224h-86v486h80q6 -30 24.5 -40.5t65.5 -10.5h870v-166l-907 -1061h592q147 0 202 61q53 59 80 260z" />
    <glyph glyph-name="zcaron" unicode="&#x17e;" horiz-adv-x="997" 
d="M735 1393l-172 -299h-135l-174 299h86l156 -209l155 209h84zM819 362h82l-16 -362h-768v145l608 680h-307q-155 0 -191 -26t-51 -148h-80v320h752v-146l-608 -680h348q135 0 174 39q39 36 57 178z" />
    <glyph glyph-name="florin" unicode="&#x192;" horiz-adv-x="1146" 
d="M870 1307q-73 0 -115 -92t-75 -314l-12 -86h364l-8 -45h-362l-50 -332q-34 -233 -116 -350t-236 -117q-100 0 -163.5 45t-63.5 119q0 49 26 79t74 30q70 0 88 -76q3 -11 7 -64.5t12 -72.5q15 -6 36 -6q74 0 117 93t74 312l49 340h-360l10 45h356l13 78q34 233 116 350
t236 117q100 0 163.5 -45t63.5 -119q0 -49 -26 -79t-74 -30q-70 0 -88 76q-3 11 -7 64.5t-12 72.5q-18 7 -37 7z" />
    <glyph glyph-name="AEacute" unicode="&#x1fc;" horiz-adv-x="1953" 
d="M1481 1677h161l-262 -196h-94zM1761 416h86l-28 -416h-1016v63q114 3 153 33q31 28 31 135v232h-522l-107 -180q-55 -94 -55 -144q0 -40 38 -55.5t134 -20.5v-63h-440v63q49 3 90 50q41 44 129 190l532 883q29 50 29 78q0 65 -176 65v64h1163l19 -353h-86
q-21 169 -84 226q-65 53 -240 53h-254v-571h182q134 0 174 34q37 34 52 176h77v-495h-77q-15 142 -52 176q-41 35 -174 35h-182v-445q0 -99 33 -125q34 -30 143 -30h137q145 0 207 71q60 72 84 271zM981 1329l-465 -780h471v780h-6z" />
    <glyph glyph-name="aeacute" unicode="&#x1fd;" horiz-adv-x="1509" 
d="M860 1393h158l-217 -299h-86zM1419 590h-622q-2 -10 -2 -45q0 -191 82 -297.5t229 -106.5q186 0 256 178l53 -16q-65 -332 -348 -332q-122 0 -216.5 62t-145.5 178q-105 -240 -336 -240q-107 0 -173.5 60t-66.5 159q0 101 68 165t217 112l241 78v94q0 252 -223 252
q-132 0 -223 -64q6 -40 53 -90t47 -92q0 -47 -32.5 -77.5t-83.5 -30.5q-55 0 -89 38.5t-34 100.5q0 123 133 223q134 96 284 96q205 0 273 -153q117 153 311 153q166 0 258 -107.5t90 -297.5zM1055 924q-93 0 -160 -67t-90 -189h446q0 119 -49.5 187.5t-146.5 68.5zM430 94
q71 0 138 50.5t110 144.5q-23 87 -23 176l-176 -62q-104 -39 -147 -77t-43 -101q0 -61 37.5 -96t103.5 -35z" />
    <glyph glyph-name="Oslashacute" unicode="&#x1fe;" horiz-adv-x="1640" 
d="M950 1677h162l-262 -196h-94zM1475 1393l-148 -168q207 -204 207 -529q0 -323 -201 -524q-204 -201 -514 -201q-261 0 -457 152l-106 -123h-92l147 168q-205 205 -205 528q0 325 203 525q200 200 510 200q265 0 457 -151l106 123h93zM307 696q0 -250 105 -413l776 886
q-140 168 -369 168q-233 0 -370 -174q-142 -177 -142 -467zM819 55q234 0 375 176q139 177 139 465q0 248 -104 416l-776 -887q138 -170 366 -170z" />
    <glyph glyph-name="oslashacute" unicode="&#x1ff;" horiz-adv-x="1099" 
d="M657 1393h158l-217 -299h-86zM934 971h86l-119 -133q113 -137 113 -353q0 -230 -127 -372q-130 -142 -338 -142q-188 0 -309 115l-76 -86h-86l117 133q-109 139 -109 348q0 232 129 373q126 141 336 141q182 0 307 -110zM264 518q0 -142 43 -258l453 514
q-82 144 -225 144q-117 0 -194 -101t-77 -299zM836 449q0 152 -45 262l-453 -514q83 -148 227 -148q117 0 194 101t77 299z" />
    <glyph glyph-name="uni0218" unicode="&#x218;" horiz-adv-x="1132" 
d="M582 -29q-89 0 -169.5 21t-124 42t-44.5 21q-28 0 -37 -65h-80v497h86q40 -432 371 -432q124 0 192 60t68 166q0 93 -47.5 160t-155.5 120l-213 111q-148 75 -216.5 171.5t-68.5 229.5q0 161 112.5 254.5t309.5 93.5q80 0 154.5 -21t117.5 -42t44 -21q22 0 34 66h78v-445
h-84q-20 197 -102 288t-240 91q-118 0 -190 -60.5t-72 -160.5q0 -88 46.5 -150.5t156.5 -119.5l223 -115q142 -74 208.5 -167.5t66.5 -221.5q0 -174 -112 -272.5t-312 -98.5zM477 -432v51q81 -10 120 24t34 95q-41 -27 -76 -27q-43 0 -69.5 25.5t-26.5 68.5q0 47 29 75
t79 28q60 0 91.5 -40t31.5 -114q0 -95 -53.5 -146.5t-159.5 -39.5z" />
    <glyph glyph-name="uni0219" unicode="&#x219;" horiz-adv-x="870" 
d="M418 -29q-173 0 -301 70l-11 276h80q30 -268 246 -268q87 0 136.5 39t49.5 107q0 60 -33.5 100.5t-111.5 75.5l-154 69q-208 91 -208 279q0 129 91 202.5t251 73.5q175 0 301 -69l10 -242h-82q-30 234 -242 234q-88 0 -138 -39.5t-50 -108.5q0 -60 33.5 -100.5
t113.5 -75.5l154 -70q207 -92 207 -272q0 -130 -92 -205.5t-250 -75.5zM344 -432v51q81 -10 120 24t34 95q-40 -27 -76 -27q-43 0 -69.5 25.5t-26.5 68.5q0 47 29 75t79 28q60 0 91.5 -40t31.5 -114q0 -95 -53.5 -146.5t-159.5 -39.5z" />
    <glyph glyph-name="uni021A" unicode="&#x21a;" horiz-adv-x="1341" 
d="M1200 1434h80l16 -414h-84q-21 189 -61 244q-41 53 -152 53h-243v-1045q0 -130 41 -168t198 -41v-63h-649v63q158 3 199 41t41 168v1045h-244q-111 0 -152 -53q-37 -51 -59 -244h-86l16 414h80q7 -26 22.5 -33.5t59.5 -7.5h895q47 0 60.5 7t21.5 34zM664 -92q60 0 91 -40
t31 -114q0 -95 -53.5 -146.5t-159.5 -39.5v51q81 -10 120 24t34 95q-41 -27 -76 -27q-43 0 -69.5 25.5t-26.5 68.5q0 47 29.5 75t79.5 28z" />
    <glyph glyph-name="uni021B" unicode="&#x21b;" horiz-adv-x="782" 
d="M698 195l39 -37q-63 -96 -124.5 -137t-141.5 -41q-113 0 -176.5 69.5t-63.5 196.5v590h-186v71q225 27 260 236h76v-172h293v-135h-293v-557q0 -170 135 -170q96 0 182 86zM469 -92q60 0 91.5 -40t31.5 -114q0 -95 -53.5 -146.5t-159.5 -39.5v51q81 -10 119.5 24t33.5 95
q-40 -27 -75 -27q-43 0 -70 26t-27 68q0 47 29.5 75t79.5 28z" />
    <glyph glyph-name="uni0237" unicode="&#x237;" horiz-adv-x="604" 
d="M94 -442q-96 0 -150.5 38.5t-54.5 106.5q-4 35 16 61t48.5 36t59.5 5t48 -26q13 -17 41.5 -75.5t47.5 -76.5q112 40 112 424v694q0 83 -37 107q-42 22 -174 22v48l309 61h50v-881q0 -256 -82.5 -400t-233.5 -144z" />
    <glyph glyph-name="uni02BC" unicode="&#x2bc;" horiz-adv-x="444" 
d="M102 973v59q87 0 137 54.5t48 142.5q-38 -23 -76 -23q-45 0 -73.5 28t-28.5 75q0 49 31.5 79.5t82.5 30.5q66 0 102.5 -48t36.5 -134q0 -120 -70 -192t-190 -72z" />
    <glyph glyph-name="circumflex" unicode="&#x2c6;" horiz-adv-x="1228" 
d="M412 1393l172 -299h-84l-156 209l-156 -209h-86l174 299h136z" />
    <glyph glyph-name="caron" unicode="&#x2c7;" horiz-adv-x="1228" 
d="M344 1184l156 209h84l-172 -299h-136l-174 299h86z" />
    <glyph glyph-name="breve" unicode="&#x2d8;" horiz-adv-x="1228" 
d="M549 1169q-63 -75 -191 -75q-127 0 -190 75q-66 78 -66 224h86q0 -102 45 -157.5t125 -55.5t125 55.5t45 157.5h86q0 -147 -65 -224z" />
    <glyph glyph-name="dotaccent" unicode="&#x2d9;" horiz-adv-x="1228" 
d="M313 1200q-34 -35 -87.5 -35t-88.5 35t-35 88t35 88t88.5 35t87.5 -35t34 -88t-34 -88z" />
    <glyph glyph-name="ring" unicode="&#x2da;" horiz-adv-x="1228" 
d="M434 1130q-53 -53 -139 -53t-139 53q-54 54 -54 136q0 83 54 137q51 51 139 51t139 -51q53 -53 53 -137q0 -83 -53 -136zM201 1176q35 -37 94 -37t94 37q35 35 35 90t-35 92q-35 35 -94 35t-94 -35q-35 -37 -35 -92t35 -90z" />
    <glyph glyph-name="ogonek" unicode="&#x2db;" horiz-adv-x="1228" 
d="M463 -381q-52 -61 -152 -61q-99 0 -153 51q-56 53 -56 143q0 153 154 268h63q-126 -120 -126 -233q0 -115 120 -115q74 0 107.5 46t38.5 151h49q6 -37 6 -74q0 -116 -51 -176z" />
    <glyph glyph-name="tilde" unicode="&#x2dc;" horiz-adv-x="1228" 
d="M248 1343q60 0 149 -59q88 -61 123 -61q83 0 92 108h45q0 -211 -145 -211q-58 0 -147 62q-89 59 -125 59q-84 0 -93 -108h-45q0 210 146 210z" />
    <glyph glyph-name="hungarumlaut" unicode="&#x2dd;" horiz-adv-x="1228" 
d="M248 1393h131l-191 -299h-86zM510 1393h131l-192 -299h-84z" />
    <glyph glyph-name="gravecomb" unicode="&#x300;" horiz-adv-x="0" 
d="M-188 1094l-218 299h156l148 -299h-86z" />
    <glyph glyph-name="acutecomb" unicode="&#x301;" horiz-adv-x="0" 
d="M-260 1393h158l-217 -299h-87z" />
    <glyph glyph-name="uni0302" unicode="&#x302;" horiz-adv-x="0" 
d="M-274 1393l172 -299h-84l-156 209l-156 -209h-86l174 299h136z" />
    <glyph glyph-name="tildecomb" unicode="&#x303;" horiz-adv-x="0" 
d="M-512 1343q58 0 147 -59q88 -61 125 -61q84 0 93 108h45q0 -211 -146 -211q-60 0 -149 62q-89 59 -123 59q-83 0 -92 -108h-45q0 210 145 210z" />
    <glyph glyph-name="uni0304" unicode="&#x304;" horiz-adv-x="0" 
d="M-643 1214v82h541v-82h-541z" />
    <glyph glyph-name="uni0306" unicode="&#x306;" horiz-adv-x="0" 
d="M-168 1169q-63 -75 -190 -75q-128 0 -191 75q-65 77 -65 224h86q0 -102 45 -157.5t125 -55.5t125 55.5t45 157.5h86q0 -146 -66 -224z" />
    <glyph glyph-name="uni0307" unicode="&#x307;" horiz-adv-x="0" 
d="M-137 1200q-34 -35 -86.5 -35t-87.5 35t-35 88t35 88t87.5 35t86.5 -35t34 -88t-34 -88z" />
    <glyph glyph-name="uni0308" unicode="&#x308;" horiz-adv-x="0" 
d="M-510 1202q-31 -32 -80 -32t-80 32t-31 80t31 80q31 31 80 31t80 -31q32 -32 32 -80t-32 -80zM-135 1202q-31 -32 -80 -32t-80 32t-31 80t31 80q31 31 80 31t80 -31q32 -32 32 -80t-32 -80z" />
    <glyph glyph-name="uni030A" unicode="&#x30a;" horiz-adv-x="0" 
d="M-156 1130q-53 -53 -139 -53t-139 53t-53 136q0 84 53 137q51 51 139 51t139 -51q54 -54 54 -137q0 -82 -54 -136zM-389 1176q35 -37 94 -37t94 37q35 35 35 90t-35 92q-35 35 -94 35t-94 -35q-35 -37 -35 -92t35 -90z" />
    <glyph glyph-name="uni030B" unicode="&#x30b;" horiz-adv-x="0" 
d="M-496 1393h131l-190 -299h-86zM-233 1393h131l-193 -299h-84z" />
    <glyph glyph-name="uni030C" unicode="&#x30c;" horiz-adv-x="0" 
d="M-342 1184l156 209h84l-172 -299h-136l-174 299h86z" />
    <glyph glyph-name="uni0312" unicode="&#x312;" horiz-adv-x="0" 
d="M-106 1493v-51q-88 12 -137.5 -38.5t-43.5 -127.5q38 27 80 27q47 0 76 -27.5t29 -71.5q0 -49 -32.5 -79.5t-82.5 -30.5q-135 0 -135 166q0 113 65.5 179.5t180.5 53.5z" />
    <glyph glyph-name="uni0326" unicode="&#x326;" horiz-adv-x="0" 
d="M-315 -432v51q81 -10 119.5 24t33.5 95q-40 -27 -76 -27q-43 0 -69.5 25.5t-26.5 68.5q0 47 29.5 75t79.5 28q60 0 91.5 -40t31.5 -114q0 -95 -53.5 -146.5t-159.5 -39.5z" />
    <glyph glyph-name="uni0327" unicode="&#x327;" horiz-adv-x="0" 
d="M-319 10h67l-57 -121q94 5 150.5 -39.5t56.5 -123.5q0 -78 -57.5 -123t-155.5 -45q-87 0 -137 31.5t-50 86.5q0 30 18 50t44 20q29 0 45 -18.5t16 -49.5q0 -8 -3 -32t-3 -29q23 -10 68 -10q51 0 81.5 27.5t30.5 74.5q0 119 -209 98z" />
    <glyph glyph-name="uni0328" unicode="&#x328;" horiz-adv-x="0" 
d="M-156 -381q-52 -61 -149 -61q-100 0 -154 51q-55 52 -55 143q0 153 154 268h63q-127 -121 -127 -233q0 -115 121 -115q74 0 107 46t38 151h49q7 -44 7 -74q0 -113 -54 -176z" />
    <glyph glyph-name="uni0394" unicode="&#x394;" horiz-adv-x="1359" 
d="M604 1393h152l542 -1393h-1237zM647 1282l-471 -1206h942z" />
    <glyph glyph-name="uni03A9" unicode="&#x3a9;" horiz-adv-x="1529" 
d="M680 0h-553l-21 358h87q17 -118 50 -158t117 -40h236v174q-200 24 -332 168q-131 140 -131 360q0 253 176 406t457 153q282 0 457 -153q174 -152 174 -406q0 -220 -131 -360q-132 -144 -332 -168v-174h235q84 0 117.5 40t50.5 158h86l-18 -358h-553v397q166 17 264 142.5
t98 322.5q0 229 -115 354t-333 125q-219 0 -335 -125t-116 -354q0 -198 99 -325t266 -140v-397z" />
    <glyph glyph-name="uni03BC" unicode="&#x3bc;" horiz-adv-x="1200" 
d="M1059 274h80q-39 -155 -104 -229t-169 -74q-159 0 -194 158q-106 -158 -264 -158q-140 0 -205 117q-29 -129 -29 -201q0 -168 133 -254q-8 -32 -36 -53.5t-68 -21.5q-65 0 -103.5 49t-38.5 143q0 180 111 447v16q0 200 223 735q21 35 119 35q68 0 78 -29
q-320 -490 -320 -669q0 -156 183 -156q125 0 209 84v2q0 237 208 743q9 25 95 25q91 0 104 -29q-317 -484 -317 -680q0 -70 38 -103.5t99 -33.5q110 0 168 137z" />
    <glyph glyph-name="pi" unicode="&#x3c0;" horiz-adv-x="1355" 
d="M1294 971l-45 -150h-256q-180 -384 -180 -565q0 -109 105 -109q100 0 172 140h77q-80 -305 -295 -305q-91 0 -144.5 56t-53.5 152q0 193 239 631h-335q-85 -435 -166 -639q-80 -200 -211 -200q-58 0 -99.5 45.5t-40.5 115.5q176 15 267 170q94 158 170 508h-121
q-165 0 -250 -55l-16 41q21 71 96 117.5t182 46.5h905z" />
    <glyph glyph-name="Wgrave" unicode="&#x1e80;" horiz-adv-x="2033" 
d="M872 1677l195 -196h-94l-262 196h161zM1567 1329v64h422v-64q-64 -3 -91 -43q-29 -43 -75 -186l-359 -1108h-129l-309 885l-311 -885h-129l-398 1153q-45 129 -63 153q-20 26 -80 29v66h475v-64q-91 -2 -126.5 -21.5t-35.5 -68.5q0 -46 25 -119l303 -930l293 824l-55 160
q-33 98 -64 129q-29 23 -125 26v64h543v-64q-105 -1 -143.5 -19.5t-38.5 -66.5q0 -45 26 -119l314 -929l297 925q24 77 24 113q0 53 -41.5 73.5t-148.5 22.5z" />
    <glyph glyph-name="wgrave" unicode="&#x1e81;" horiz-adv-x="1542" 
d="M655 1393l148 -299h-86l-217 299h155zM1182 915v56h325v-56q-42 -5 -70 -38t-59 -123l-282 -762h-107l-211 575l-227 -575h-107l-278 745q-40 109 -64 144q-21 31 -67 34v56h389v-56q-119 -6 -119 -84q0 -22 14 -63l211 -606l207 516l-32 90q-31 86 -60 116t-88 31v56
h418v-56q-63 -2 -90 -20t-27 -59q0 -36 31 -131l184 -537l201 539q33 85 33 137q0 68 -125 71z" />
    <glyph glyph-name="Wacute" unicode="&#x1e82;" horiz-adv-x="2033" 
d="M1153 1677h162l-262 -196h-95zM1567 1329v64h422v-64q-64 -3 -91 -43q-29 -43 -75 -186l-359 -1108h-129l-309 885l-311 -885h-129l-398 1153q-45 129 -63 153q-20 26 -80 29v66h475v-64q-91 -2 -126.5 -21.5t-35.5 -68.5q0 -46 25 -119l303 -930l293 824l-55 160
q-33 98 -64 129q-29 23 -125 26v64h543v-64q-105 -1 -143.5 -19.5t-38.5 -66.5q0 -45 26 -119l314 -929l297 925q24 77 24 113q0 53 -41.5 73.5t-148.5 22.5z" />
    <glyph glyph-name="wacute" unicode="&#x1e83;" horiz-adv-x="1542" 
d="M866 1393h158l-217 -299h-86zM1182 915v56h325v-56q-42 -5 -70 -38t-59 -123l-282 -762h-107l-211 575l-227 -575h-107l-278 745q-40 109 -64 144q-21 31 -67 34v56h389v-56q-119 -6 -119 -84q0 -22 14 -63l211 -606l207 516l-32 90q-31 86 -60 116t-88 31v56h418v-56
q-63 -2 -90 -20t-27 -59q0 -36 31 -131l184 -537l201 539q33 85 33 137q0 68 -125 71z" />
    <glyph glyph-name="Wdieresis" unicode="&#x1e84;" horiz-adv-x="2033" 
d="M866 1511q-21 -23 -51.5 -27t-57 6.5t-44.5 35.5t-15 55q-6 61 45.5 86t103 0t46.5 -86q0 -43 -27 -70zM1225 1483q-44 0 -72.5 28t-28.5 70q0 43 28.5 70.5t72.5 27.5q59 5 83.5 -46.5t0 -103t-83.5 -46.5zM1567 1329v64h422v-64q-64 -3 -91 -43q-29 -43 -75 -186
l-359 -1108h-129l-309 885l-311 -885h-129l-398 1153q-45 129 -63 153q-20 26 -80 29v66h475v-64q-91 -2 -126.5 -21.5t-35.5 -68.5q0 -46 25 -119l303 -930l293 824l-55 160q-33 98 -64 129q-29 23 -125 26v64h543v-64q-105 -1 -143.5 -19.5t-38.5 -66.5q0 -45 26 -119
l314 -929l297 925q24 77 24 113q0 53 -41.5 73.5t-148.5 22.5z" />
    <glyph glyph-name="wdieresis" unicode="&#x1e85;" horiz-adv-x="1542" 
d="M653 1202q-32 -32 -81 -32t-80 32t-31 80t31 80q31 31 80 31t81 -31q31 -32 31 -80t-31 -80zM1028 1202q-32 -32 -81.5 -32t-80.5 32t-31 80t31 80q31 31 80.5 31t81.5 -31q31 -32 31 -80t-31 -80zM1182 915v56h325v-56q-42 -5 -70 -38t-59 -123l-282 -762h-107l-211 575
l-227 -575h-107l-278 745q-40 109 -64 144q-21 31 -67 34v56h389v-56q-119 -6 -119 -84q0 -22 14 -63l211 -606l207 516l-32 90q-31 86 -60 116t-88 31v56h418v-56q-63 -2 -90 -20t-27 -59q0 -36 31 -131l184 -537l201 539q33 85 33 137q0 68 -125 71z" />
    <glyph glyph-name="uni1E9E" unicode="&#x1e9e;" horiz-adv-x="1556" 
d="M1094 -29q-62 0 -129.5 20.5t-110.5 41t-45 20.5q-26 0 -35 -63h-80v473h86q35 -410 310 -410q98 0 151 45.5t53 130.5q0 118 -141 226l-113 86q-161 124 -161 270q0 116 80 180t221 62q-14 135 -111.5 209.5t-261.5 74.5q-183 0 -281 -100.5t-98 -286.5v-950h-362v63
q124 3 159 33q33 26 33 142v667q0 239 150 377q148 139 401 139q257 0 409 -113.5t156 -308.5q-82 11 -117 11q-223 0 -223 -160q0 -47 27 -87.5t94 -94.5l127 -99q92 -73 130 -140t38 -155q0 -142 -94.5 -222.5t-261.5 -80.5z" />
    <glyph glyph-name="Ygrave" unicode="&#x1ef2;" horiz-adv-x="1382" 
d="M553 1677l195 -196h-95l-262 196h162zM938 1329v64h410v-64q-35 -8 -62.5 -32.5t-71.5 -90.5l-438 -669v-291q0 -113 39 -146q37 -34 170 -37v-63h-590v63q134 3 174 37q37 34 37 146v291l-440 663q-50 73 -74.5 97.5t-56.5 31.5v64h495v-64q-103 -6 -138.5 -21.5
t-35.5 -52.5q0 -39 58 -127l321 -491l314 479q63 92 63 139q0 37 -36 52.5t-138 21.5z" />
    <glyph glyph-name="ygrave" unicode="&#x1ef3;" horiz-adv-x="1030" 
d="M442 1393l148 -299h-86l-217 299h155zM653 915v56h340v-56q-42 -5 -68 -38.5t-67 -137.5l-313 -772q-87 -218 -177 -312.5t-206 -94.5q-85 0 -138 41t-53 108q0 51 29 79t80 28q27 3 50.5 -14t38 -41.5t37.5 -54.5t46 -46q56 32 109 119.5t122 257.5l2 4l-290 694
q-42 104 -73.5 141t-76.5 39v56h426v-56q-131 -6 -131 -84q0 -30 22 -88l203 -503l205 510q23 61 23 81q0 81 -140 84z" />
    <glyph glyph-name="uni2002" unicode="&#x2002;" horiz-adv-x="1024" 
 />
    <glyph glyph-name="uni2003" unicode="&#x2003;" horiz-adv-x="2048" 
 />
    <glyph glyph-name="uni2004" unicode="&#x2004;" horiz-adv-x="681" 
 />
    <glyph glyph-name="uni2005" unicode="&#x2005;" horiz-adv-x="512" 
 />
    <glyph glyph-name="uni2009" unicode="&#x2009;" horiz-adv-x="256" 
 />
    <glyph glyph-name="uni200A" unicode="&#x200a;" horiz-adv-x="86" 
 />
    <glyph glyph-name="endash" unicode="&#x2013;" horiz-adv-x="1044" 
d="M10 586h1024v-97h-1024v97z" />
    <glyph glyph-name="emdash" unicode="&#x2014;" horiz-adv-x="2068" 
d="M10 586h2048v-97h-2048v97z" />
    <glyph glyph-name="quoteleft" unicode="&#x2018;" horiz-adv-x="444" 
d="M342 1434v-60q-87 0 -138 -54.5t-46 -141.5q35 22 76 22.5t73.5 -28.5t28.5 -74q0 -49 -32 -80t-83 -31q-67 0 -103 47.5t-36 134.5q0 120 70 192.5t190 72.5z" />
    <glyph glyph-name="quoteright" unicode="&#x2019;" horiz-adv-x="444" 
d="M102 997v60q87 0 137 54.5t48 141.5q-36 -22 -76 -22q-45 0 -73.5 27.5t-28.5 74.5q0 50 31.5 80.5t82.5 30.5q66 0 102.5 -48t36.5 -134q0 -120 -70 -192.5t-190 -72.5z" />
    <glyph glyph-name="quotesinglbase" unicode="&#x201a;" horiz-adv-x="444" 
d="M102 -246v60q87 0 137 54.5t48 141.5q-36 -22 -76 -22q-45 0 -73.5 27.5t-28.5 74.5q0 50 31.5 80.5t82.5 30.5q66 0 102.5 -48.5t36.5 -134.5q0 -120 -70 -192t-190 -72z" />
    <glyph glyph-name="quotedblleft" unicode="&#x201c;" horiz-adv-x="778" 
d="M342 1434v-60q-87 0 -138 -54.5t-46 -141.5q35 22 76 22.5t73.5 -28.5t28.5 -74q0 -49 -32 -80t-83 -31q-67 0 -103 47.5t-36 134.5q0 120 70 192.5t190 72.5zM676 1434v-60q-87 0 -136.5 -54t-47.5 -142q36 22 75 22q45 0 74 -28t29 -74q0 -49 -32 -80t-83 -31
q-66 0 -102.5 48t-36.5 134q0 120 70 192.5t190 72.5z" />
    <glyph glyph-name="quotedblright" unicode="&#x201d;" horiz-adv-x="778" 
d="M102 997v60q87 0 137 54.5t48 141.5q-36 -22 -76 -22q-45 0 -73.5 27.5t-28.5 74.5q0 50 31.5 80.5t82.5 30.5q66 0 102.5 -48t36.5 -134q0 -120 -70 -192.5t-190 -72.5zM436 997v60q87 0 138.5 54.5t46.5 141.5q-23 -18 -55.5 -21.5t-60.5 6t-47 35t-16 60.5q0 49 32 80
t83 31q67 0 103 -47.5t36 -134.5q0 -120 -70 -192.5t-190 -72.5z" />
    <glyph glyph-name="quotedblbase" unicode="&#x201e;" horiz-adv-x="778" 
d="M102 -246v60q87 0 137 54.5t48 141.5q-36 -22 -76 -22q-45 0 -73.5 27.5t-28.5 74.5q0 50 31.5 80.5t82.5 30.5q66 0 102.5 -48.5t36.5 -134.5q0 -120 -70 -192t-190 -72zM436 -246v60q87 0 138.5 54.5t46.5 141.5q-35 -22 -76.5 -22.5t-74 28.5t-28.5 74q0 49 32 80
t83 31q67 0 103 -48t36 -135q0 -120 -70 -192t-190 -72z" />
    <glyph glyph-name="dagger" unicode="&#x2020;" horiz-adv-x="1234" 
d="M1116 1090q23 -25 23 -75t-23 -79q-297 25 -500 25q-200 0 -497 -25q-23 29 -23 79t23 75q229 -20 465 -84q-36 68 -39 204q-3 130 28 215l-30 52q26 26 74.5 26t74.5 -26l-30 -52q31 -85 28 -215q-3 -138 -41 -204q233 64 467 84zM551 37v831h131v-831q0 -238 -59 -477
h-13q-59 251 -59 477z" />
    <glyph glyph-name="daggerdbl" unicode="&#x2021;" horiz-adv-x="1234" 
d="M616 1104q-202 0 -499 -25q-20 27 -19.5 78t19.5 76q230 -20 467 -84q-38 66 -41 201q-3 139 28 219l-30 51q26 26 75.5 26t75.5 -26l-30 -51q31 -94 28 -219q-3 -130 -41 -201q237 64 467 84q23 -26 23 -75.5t-23 -78.5q-302 25 -500 25zM551 1053h131v-109
q0 -154 -59 -319h-13q-59 165 -59 319v109zM610 582h13q59 -165 59 -320v-108h-131v108q0 155 59 320zM616 102q198 0 500 25q23 -29 23 -78.5t-23 -75.5q-230 20 -467 84q38 -71 41 -200q3 -125 -28 -219l30 -52q-26 -29 -75.5 -29t-75.5 29l30 52q-31 80 -28 219
q3 134 41 200q-237 -64 -467 -84q-19 25 -19.5 76t19.5 78q297 -25 499 -25z" />
    <glyph glyph-name="bullet" unicode="&#x2022;" horiz-adv-x="598" 
d="M152 743q60 60 147 60q90 0 150 -60q57 -59 57 -147t-57 -147q-60 -60 -150 -60q-87 0 -147 60q-58 59 -58 147t58 147z" />
    <glyph glyph-name="ellipsis" unicode="&#x2026;" horiz-adv-x="1667" 
d="M375 16q-26 -28 -65 -34t-73.5 7t-58 44.5t-20.5 72.5q0 57 35.5 93.5t91.5 36.5q40 4 71.5 -20t45.5 -59t8 -75t-35 -66zM924 16q-26 -28 -65 -34t-73.5 7t-58 44.5t-20.5 72.5q0 57 35.5 93.5t91.5 36.5q40 4 71.5 -20t45.5 -59t8 -75t-35 -66zM1473 16
q-26 -28 -65.5 -34t-74 7t-58 44.5t-20.5 72.5q0 57 35.5 93.5t91.5 36.5q40 4 72 -20t45.5 -59t8 -75t-34.5 -66z" />
    <glyph glyph-name="perthousand" unicode="&#x2030;" horiz-adv-x="2131" 
d="M586 848q-74 -86 -197 -86t-194 86q-72 87 -72 244q0 156 72 243q71 86 194 86t197 -86q71 -86 71 -243q0 -158 -71 -244zM391 0h-84l819 1393h84zM389 877q91 0 145 60t54 155t-54 155t-145 60q-90 0 -143 -60t-53 -155t53 -155t143 -60zM1323 57q-71 -86 -195 -86
q-123 0 -194 86q-74 86 -74 244t74 244q71 86 194 86q124 0 195 -86q72 -87 72 -244t-72 -244zM1937 57q-71 -86 -194 -86q-124 0 -195 86q-73 85 -73 244t73 244q71 86 195 86q123 0 194 -86q72 -87 72 -244t-72 -244zM1128 86q90 0 143.5 60t53.5 155t-53.5 155t-143.5 60
q-91 0 -144.5 -60t-53.5 -155t53.5 -155t144.5 -60zM1743 86q90 0 144.5 60t54.5 155t-54.5 155t-144.5 60q-91 0 -145 -60t-54 -155t54 -155t145 -60z" />
    <glyph glyph-name="minute" unicode="&#x2032;" horiz-adv-x="491" 
d="M219 1454h150l-168 -483h-58z" />
    <glyph glyph-name="second" unicode="&#x2033;" horiz-adv-x="811" 
d="M539 1456h149l-170 -483h-57zM219 1454h150l-168 -483h-58z" />
    <glyph glyph-name="guilsinglleft" unicode="&#x2039;" horiz-adv-x="587" 
d="M481 63h-123l-317 412l317 412h123l-274 -412z" />
    <glyph glyph-name="guilsinglright" unicode="&#x203a;" horiz-adv-x="587" 
d="M547 475l-316 -412h-125l277 412l-277 412h125z" />
    <glyph glyph-name="fraction" unicode="&#x2044;" horiz-adv-x="163" 
d="M-285 0h-86l820 1393h86z" />
    <glyph glyph-name="Euro" unicode="&#x20ac;" horiz-adv-x="1355" 
d="M1192 375h74l-13 -279q-186 -125 -438 -125q-247 0 -407 160q-162 162 -189 426h-209l27 45h180q-2 12 -2 55q0 48 2 62h-207l27 43h184q27 268 199 434q170 164 420 164q208 0 395 -94v-305h-74q-20 171 -95 248t-222 77q-192 0 -310 -139t-137 -385h725l-26 -43h-703
v-47q0 -56 2 -70h725l-26 -45h-695q23 -239 138 -375.5t297 -136.5q150 0 235.5 78.5t122.5 251.5z" />
    <glyph glyph-name="uni20BF" unicode="&#x20bf;" horiz-adv-x="1306" 
d="M723 698v-6q233 -1 345 -84.5t112 -253.5q0 -165 -120.5 -259.5t-330.5 -94.5h-98l-27 -227h-45l27 227h-105l-26 -227h-45l26 227h-340v61q117 3 154 35q31 28 31 142v856q0 116 -29 145q-28 28 -148 31v61h486l24 205h45l-24 -205h47q45 0 57 -2l25 207h45l-25 -209
q361 -35 361 -313q0 -298 -422 -316zM645 1260h-203v-529h113q408 0 408 266q0 263 -318 263zM676 61q155 0 238 74.5t83 214.5q-3 65 -12.5 107.5t-34.5 77.5t-61 54.5t-100.5 33.5t-144.5 19.5t-202 8.5v-389q0 -108 55 -154.5t179 -46.5z" />
    <glyph glyph-name="uni2100" unicode="&#x2100;" horiz-adv-x="1726" 
d="M485 0l820 1393h86l-820 -1393h-86zM643 637q-125 0 -137 129q-70 -135 -213 -135q-82 0 -131 42t-49 111q0 70 51.5 114.5t159.5 76.5l180 55v66q0 168 -164 168q-88 0 -158 -37q3 -28 39 -64q35 -35 35 -65q0 -32 -27 -56t-65 -24q-42 0 -68 27.5t-26 72.5
q0 90 102 160q101 70 221 70q112 0 175 -61.5t63 -178.5v-317q0 -60 45 -60q25 0 40 18.5t27 61.5l41 -12q-12 -86 -44 -124t-97 -38zM346 727q93 0 158 109v135l-125 -41q-72 -26 -102.5 -51.5t-30.5 -65.5q0 -39 26.5 -62.5t73.5 -23.5zM1599 231l48 -16
q-52 -235 -277 -235q-150 0 -239 93t-89 251q0 167 97.5 269.5t255.5 102.5q111 0 180.5 -49.5t69.5 -128.5q0 -50 -28 -80t-73 -30q-39 0 -64.5 22.5t-25.5 58.5q0 18 12.5 42t28.5 46t18 27q-47 29 -112 29q-106 0 -172 -71t-66 -187q0 -120 64.5 -190t171.5 -70
q148 0 200 116z" />
    <glyph glyph-name="uni2105" unicode="&#x2105;" horiz-adv-x="1746" 
d="M483 0h-86l820 1393h86zM412 631q-150 0 -239 93t-89 251q0 167 97 270t255 103q110 0 180 -50t70 -129q0 -50 -27.5 -80t-72.5 -30q-39 0 -64.5 23t-25.5 59q0 18 12.5 42t28.5 45.5t18 26.5q-47 29 -113 29q-106 0 -171.5 -70.5t-65.5 -187.5q0 -120 64 -190t171 -70
q148 0 201 117l47 -17q-52 -235 -276 -235zM1309 -20q-160 0 -257.5 98.5t-97.5 259.5t98 259.5t257 98.5q160 0 257 -97.5t97 -258.5t-98 -260.5t-256 -99.5zM1319 41q83 0 136.5 69t53.5 203q0 136 -55 230t-156 94q-83 0 -136.5 -69.5t-53.5 -205.5q0 -131 55 -225
q56 -96 156 -96z" />
    <glyph glyph-name="uni2113" unicode="&#x2113;" horiz-adv-x="1165" 
d="M1116 1079q0 -212 -196 -387q-196 -176 -531 -270q-2 -18 -2 -80q0 -152 40.5 -209t129.5 -57q94 0 157.5 58.5t121.5 180.5h79q-68 -167 -163.5 -255.5t-241.5 -88.5q-283 0 -283 367q0 37 2 47q-105 -21 -198 -31v72q116 15 202 33q38 311 181 583q74 144 187.5 231
t240.5 87q110 0 192 -64t82 -217zM821 1286q-83 0 -157 -72t-129 -196q-100 -225 -138 -514q273 90 421.5 250.5t148.5 347.5q0 184 -146 184z" />
    <glyph glyph-name="uni2116" unicode="&#x2116;" horiz-adv-x="2396" 
d="M1014 1329v64h471v-64q-92 -3 -119 -43q-29 -44 -29 -166v-1130h-131l-825 1091v-778q0 -152 37 -192q39 -45 186 -48v-63h-508v63q125 3 162 46q31 42 31 194v899q-56 70 -94.5 95.5t-98.5 31.5v64h283l866 -1157v884q0 127 -41 168q-41 38 -190 41zM1960 631
q-160 0 -257 98.5t-97 259.5t98 260t256 99q160 0 257 -98t97 -259t-98 -260.5t-256 -99.5zM1950 1288q-83 0 -137 -69.5t-54 -204.5q0 -131 56 -226q56 -96 155 -96q83 0 137 69.5t54 203.5t-56 229q-55 94 -155 94zM2290 440h-662v80h662v-80z" />
    <glyph glyph-name="uni2117" unicode="&#x2117;" horiz-adv-x="1048" 
d="M524 1599q205 0 334 -129t129 -331q0 -203 -129 -332t-334 -129q-202 0 -331 129q-132 129 -132 332q0 202 132 331q129 129 331 129zM244 854q108 -111 280 -111q173 0 281 111q108 108 108 285q0 175 -108 286q-109 109 -281 109q-171 0 -280 -109q-109 -112 -109 -286
q0 -176 109 -285zM354 1393h228q75 0 118 -34.5t43 -94.5q0 -62 -41.5 -95.5t-119.5 -33.5h-76v-154q0 -38 12 -51.5t49 -14.5v-28h-215v28q38 1 50 15.5t12 56.5v307q0 39 -12 54t-48 16v29zM506 1169h49q96 0 96 95q0 94 -96 94h-49v-189z" />
    <glyph glyph-name="trademark" unicode="&#x2122;" horiz-adv-x="1961" 
d="M758 1546h51l10 -233h-57q-15 108 -39 135t-96 27h-127v-584q0 -70 22 -92q20 -20 121 -23v-39h-405v39q98 3 120 25q21 21 21 90v584h-127q-69 0 -92 -29q-26 -29 -41 -133h-58l11 233h51q9 -22 51 -22h533q42 0 51 22zM1747 1382l45 -493q6 -67 22.5 -85.5t86.5 -27.5
v-39h-342v39q82 1 104 25t16 94l-47 496l-256 -654h-84l-258 635l-45 -467q-6 -75 16.5 -101.5t100.5 -27.5v-39h-293v39q66 4 87.5 29t27.5 100l49 477q5 63 -12.5 81.5t-90.5 19.5v41h232l256 -654l254 654h233v-41q-73 -1 -90.5 -19.5t-11.5 -81.5z" />
    <glyph glyph-name="uni2126" unicode="&#x2126;" horiz-adv-x="1529" 
d="M680 0h-553l-21 358h87q17 -118 50 -158t117 -40h236v174q-200 24 -332 168q-131 140 -131 360q0 253 176 406t457 153q282 0 457 -153q174 -152 174 -406q0 -220 -131 -360q-132 -144 -332 -168v-174h235q84 0 117.5 40t50.5 158h86l-18 -358h-553v397q166 17 264 142.5
t98 322.5q0 229 -115 354t-333 125q-219 0 -335 -125t-116 -354q0 -198 99 -325t266 -140v-397z" />
    <glyph glyph-name="estimated" unicode="&#x212e;" horiz-adv-x="1714" 
d="M860 31q378 0 572 243l45 -41q-97 -131 -259 -196.5t-358 -65.5q-337 0 -545 205q-209 206 -209 516q0 307 213 520q212 209 541 209q341 0 543 -202q202 -205 205 -535h-1223v-477q194 -176 475 -176zM1329 745v457q-183 160 -469 160q-285 0 -475 -178v-439h944z" />
    <glyph glyph-name="uni2153" unicode="&#x2153;" horiz-adv-x="1185" 
d="M406 764v-39h-345v39q83 1 103 16t20 72v453l-116 -80v88l116 80h105v-541q0 -55 21 -70.5t96 -17.5zM84 0l819 1393h86l-819 -1393h-86zM926 391q105 0 165 -52.5t60 -145.5q0 -94 -70.5 -150.5t-187.5 -56.5q-103 0 -166 38t-63 99q0 31 19 50.5t48 19.5q56 0 62 -52
q0 -70 4 -88q41 -18 90 -18q74 0 115.5 35t41.5 98q0 125 -180 125q-12 0 -78 -4v76l246 204h-203q-56 0 -72 -17t-20 -85h-49v201h426v-99l-221 -180q8 2 33 2z" />
    <glyph glyph-name="uni2154" unicode="&#x2154;" horiz-adv-x="1296" 
d="M51 825l115 88q110 87 158.5 152t48.5 127q0 61 -34.5 95t-96.5 34q-134 0 -152 -129h-47q3 215 225 215q104 0 164 -51t60 -139q0 -82 -58 -146t-196 -172l-97 -74h224q59 0 76.5 22t21.5 111h51v-233h-463v100zM195 0l819 1393h86l-819 -1393h-86zM1036 391
q105 0 165.5 -52.5t60.5 -145.5q0 -94 -70.5 -150.5t-187.5 -56.5q-103 0 -166.5 38t-63.5 99q0 31 19.5 50.5t48.5 19.5q55 0 61 -52q0 -70 4 -88q41 -18 90 -18q74 0 116 35t42 98q0 125 -180 125q-12 0 -78 -4v76l246 204h-203q-56 0 -72 -17t-20 -85h-49v201h426v-99
l-221 -180q8 2 32 2z" />
    <glyph glyph-name="oneeighth" unicode="&#x215b;" horiz-adv-x="1196" 
d="M406 764v-39h-345v39q83 1 103 16t20 72v453l-116 -80v88l116 80h105v-541q0 -55 21 -70.5t96 -17.5zM84 0l819 1393h86l-819 -1393h-86zM993 356l17 -8q72 -38 104.5 -77.5t32.5 -102.5q0 -85 -64.5 -133.5t-177.5 -48.5q-110 0 -174.5 45.5t-64.5 120.5q0 124 153 159
l-16 8q-135 67 -135 181q0 86 64 134t175 48q110 0 175 -44.5t65 -119.5q0 -124 -154 -162zM774 537q0 -70 103 -123l79 -39q86 44 86 135q0 56 -36 89.5t-99 33.5q-61 0 -97 -26.5t-36 -69.5zM907 35q60 0 95.5 27t35.5 71q0 72 -100 121l-82 39q-86 -44 -86 -135
q0 -56 37 -89.5t100 -33.5z" />
    <glyph glyph-name="threeeighths" unicode="&#x215c;" horiz-adv-x="1306" 
d="M473 1065q59 -53 59 -147q0 -96 -69 -150q-69 -57 -189 -57q-103 0 -166 38t-63 99q0 31 19.5 50.5t48.5 19.5q55 0 61 -52q0 -70 4 -88q40 -18 90 -18q74 0 116 35t42 98q0 125 -180 125q-12 0 -78 -4v78l246 202h-203q-56 0 -72 -17t-20 -85h-49v201h426v-99l-222 -180
q8 2 33 2q106 0 166 -51zM197 0l819 1393h86l-819 -1393h-86zM1106 356l16 -8q72 -38 105 -77.5t33 -102.5q0 -85 -64.5 -133.5t-177.5 -48.5q-110 0 -175 45.5t-65 120.5q0 124 154 159l-17 8q-135 67 -135 181q0 86 64.5 134t175.5 48q110 0 175 -44.5t65 -119.5
q0 -124 -154 -162zM887 537q0 -71 102 -123l80 -39q86 44 86 135q0 56 -37 89.5t-98 33.5t-97 -26.5t-36 -69.5zM1020 35q60 0 95.5 27t35.5 71q0 72 -100 121l-82 39q-86 -44 -86 -135q0 -56 37 -89.5t100 -33.5z" />
    <glyph glyph-name="fiveeighths" unicode="&#x215d;" horiz-adv-x="1269" 
d="M496 930q0 -102 -69 -160.5t-183 -58.5q-96 0 -156.5 39.5t-60.5 99.5q0 31 18.5 49.5t50.5 18.5q54 0 60 -50v-40t4 -54q41 -14 84 -14q68 0 107.5 36t39.5 103q0 141 -168 141q-71 0 -147 -20l30 373h263q42 0 51 30h47l-10 -129h-307l-13 -159q52 14 113 14
q116 0 181 -59t65 -160zM160 0l819 1393h86l-819 -1393h-86zM1069 356l16 -8q72 -38 105 -77.5t33 -102.5q0 -85 -64.5 -133.5t-177.5 -48.5q-110 0 -175 45.5t-65 120.5q0 124 154 159l-16 8q-136 68 -136 181q0 86 64.5 134t175.5 48q110 0 175 -44.5t65 -119.5
q0 -124 -154 -162zM850 537q0 -71 102 -123l80 -39q86 44 86 135q0 56 -36 89.5t-99 33.5q-61 0 -97 -26.5t-36 -69.5zM983 35q60 0 95.5 27t35.5 71q0 72 -100 121l-82 39q-86 -44 -86 -135q0 -56 37 -89.5t100 -33.5z" />
    <glyph glyph-name="seveneighths" unicode="&#x215e;" horiz-adv-x="1173" 
d="M422 1290h-252q-55 0 -73.5 -18t-22.5 -80h-47v201h462v-103l-290 -565h-70zM63 0l820 1393h86l-819 -1393h-87zM973 356l16 -8q72 -38 104.5 -77.5t32.5 -102.5q0 -85 -64.5 -133.5t-176.5 -48.5q-110 0 -175 45.5t-65 120.5q0 124 154 159l-17 8q-135 67 -135 181
q0 86 64.5 134t175.5 48q110 0 174.5 -44.5t64.5 -119.5q0 -124 -153 -162zM754 537q0 -71 102 -123l80 -39q86 44 86 135q0 56 -36 89.5t-99 33.5q-61 0 -97 -26.5t-36 -69.5zM887 35q60 0 95.5 27t35.5 71q0 72 -100 121l-82 39q-86 -44 -86 -135q0 -56 37 -89.5
t100 -33.5z" />
    <glyph glyph-name="arrowleft" unicode="&#x2190;" horiz-adv-x="1433" 
d="M221 559h1151v-86h-1151l342 -369h-125l-377 412l377 412h125z" />
    <glyph glyph-name="arrowup" unicode="&#x2191;" horiz-adv-x="946" 
d="M473 1421l412 -370v-125l-369 338v-1264h-86v1264l-369 -338v125z" />
    <glyph glyph-name="arrowright" unicode="&#x2192;" horiz-adv-x="1433" 
d="M870 928h127l375 -412l-375 -412h-127l342 369h-1151v86h1151z" />
    <glyph glyph-name="arrowdown" unicode="&#x2193;" horiz-adv-x="946" 
d="M516 1393v-1264l369 338v-125l-412 -371l-412 371v125l369 -338v1264h86z" />
    <glyph glyph-name="arrowboth" unicode="&#x2194;" horiz-adv-x="1785" 
d="M1223 928h125l376 -412l-376 -412h-125l342 369h-1344l342 -369h-125l-377 412l377 412h125l-342 -369h1344z" />
    <glyph glyph-name="arrowupdn" unicode="&#x2195;" horiz-adv-x="946" 
d="M885 1051v-125l-369 338v-1135l369 338v-125l-412 -371l-412 371v125l369 -338v1135l-369 -338v125l412 370z" />
    <glyph glyph-name="uni2196" unicode="&#x2196;" horiz-adv-x="1187" 
d="M233 1124l893 -893l-59 -59l-893 891l-24 -498l-89 88l31 553l553 29l88 -88z" />
    <glyph glyph-name="uni2197" unicode="&#x2197;" horiz-adv-x="1185" 
d="M1096 1219l28 -553l-88 -88l-22 499l-893 -893l-60 60l891 893l-497 22l88 88z" />
    <glyph glyph-name="uni2198" unicode="&#x2198;" horiz-adv-x="1187" 
d="M1014 356l24 500l88 -88l-30 -553l-553 -31l-88 88l499 25l-893 893l60 59z" />
    <glyph glyph-name="uni2199" unicode="&#x2199;" horiz-adv-x="1185" 
d="M1065 1225l59 -62l-893 -893l500 -22l-88 -88l-553 28l-29 555l89 88l22 -499z" />
    <glyph glyph-name="uni21A4" unicode="&#x21a4;" horiz-adv-x="1433" 
d="M1288 559v369h84v-824h-84v369h-1067l342 -369h-125l-377 412l377 412h125l-342 -369h1067z" />
    <glyph glyph-name="uni21A5" unicode="&#x21a5;" horiz-adv-x="946" 
d="M885 1051v-125l-369 338v-1178h369v-86h-824v86h369v1178l-369 -338v125l412 370z" />
    <glyph glyph-name="uni21A6" unicode="&#x21a6;" horiz-adv-x="1433" 
d="M870 928h127l375 -412l-375 -412h-127l342 369h-1065v-369h-86v824h86v-369h1065z" />
    <glyph glyph-name="uni21A7" unicode="&#x21a7;" horiz-adv-x="946" 
d="M885 1393v-86h-369v-1178l369 338v-125l-412 -371l-412 371v125l369 -338v1178h-369v86h824z" />
    <glyph glyph-name="uni21A9" unicode="&#x21a9;" horiz-adv-x="1511" 
d="M864 1174h187q190 0 294.5 -93t104.5 -258t-104.5 -257.5t-294.5 -92.5h-830l342 -369h-125l-377 412l377 412h125l-342 -369h832q142 0 220.5 70t78.5 194t-78.5 194t-220.5 70h-189v87z" />
    <glyph glyph-name="uni21AA" unicode="&#x21aa;" horiz-adv-x="1511" 
d="M948 928h125l377 -412l-377 -412h-125l342 369h-829q-190 0 -295 92.5t-105 257.5t105 258t295 93h186v-87h-188q-142 0 -220.5 -70t-78.5 -194t78.5 -194t220.5 -70h831z" />
    <glyph glyph-name="uni21AB" unicode="&#x21ab;" horiz-adv-x="1601" 
d="M1243 1073q139 0 218 -78t79 -213q0 -152 -102.5 -230.5t-300.5 -78.5h-107v-369h-86v369h-723l342 -369h-125l-377 412l377 412h125l-342 -369h723v148q0 366 299 366zM1030 559h109q303 0 303 223q0 97 -51.5 151t-143.5 54q-217 0 -217 -280v-148z" />
    <glyph glyph-name="uni21AC" unicode="&#x21ac;" horiz-adv-x="1601" 
d="M1036 928h127l377 -412l-377 -412h-127l344 369h-725v-369h-84v369h-106q-198 0 -301 78.5t-103 230.5q0 135 79 213t218 78q297 0 297 -366v-148h725zM463 559h108v148q0 280 -217 280q-92 0 -143 -54t-51 -151q0 -223 303 -223z" />
    <glyph glyph-name="uni21AF" unicode="&#x21af;" horiz-adv-x="937" 
d="M678 840l-260 -736l459 191l-41 -117l-514 -207l-261 490l43 117l232 -445l229 631h-358l213 629h90l-188 -553h356z" />
    <glyph glyph-name="uni21B0" unicode="&#x21b0;" horiz-adv-x="1433" 
d="M563 1393l-342 -369h1151v-1024h-84v938h-1067l342 -369h-125l-377 412l377 412h125z" />
    <glyph glyph-name="uni21B1" unicode="&#x21b1;" horiz-adv-x="1433" 
d="M870 1393h127l375 -412l-375 -412h-127l342 369h-1065v-938h-86v1024h1151z" />
    <glyph glyph-name="uni21B2" unicode="&#x21b2;" horiz-adv-x="1433" 
d="M1288 455v938h84v-1024h-1151l342 -369h-125l-377 412l377 411h125l-342 -368h1067z" />
    <glyph glyph-name="uni21B3" unicode="&#x21b3;" horiz-adv-x="1433" 
d="M870 823h127l375 -411l-375 -412h-127l342 369h-1151v1024h86v-938h1065z" />
    <glyph glyph-name="uni21B4" unicode="&#x21b4;" horiz-adv-x="1478" 
d="M1049 1393v-1264l368 338v-125l-411 -371l-412 371v125l369 -338v1178h-902v86h988z" />
    <glyph glyph-name="uni21B6" unicode="&#x21b6;" horiz-adv-x="1273" 
d="M821 1421q192 0 291.5 -106.5t99.5 -310.5v-1004h-86v1006q0 333 -305 333t-305 -354v-323l369 337v-125l-412 -370l-412 370v125l369 -337v321q0 438 391 438z" />
    <glyph glyph-name="uni21B7" unicode="&#x21b7;" horiz-adv-x="1273" 
d="M844 983v-321l368 337v-125l-411 -370l-412 370v125l369 -337v323q0 354 -305 354q-306 0 -306 -333v-1006h-86v1004q0 417 392 417q391 0 391 -438z" />
    <glyph glyph-name="uni21BA" unicode="&#x21ba;" horiz-adv-x="1894" 
d="M1421 991l412 -370v-125l-358 327v-86q0 -350 -189 -557q-188 -209 -500 -209q-319 0 -522 203t-203 522q0 321 207 525q206 200 539 200v-86q-289 0 -467 -178q-180 -177 -180 -461q0 -279 176 -458q175 -181 450 -181q268 0 433 183q161 179 161 497v99l-370 -340v125z
" />
    <glyph glyph-name="uni21BB" unicode="&#x21bb;" horiz-adv-x="1894" 
d="M1087 1335v86q335 0 541 -200q205 -202 205 -525q0 -319 -203 -522t-522 -203q-312 0 -500 209q-188 206 -188 557v86l-359 -327v125l412 370l412 -370v-125l-371 340v-99q0 -315 164 -497q165 -183 430 -183q278 0 453 181q174 177 174 458q0 282 -179 461
q-181 178 -469 178z" />
    <glyph glyph-name="uni21C4" unicode="&#x21c4;" horiz-adv-x="1638" 
d="M1202 569h-127l342 369h-1356v86h1356l-342 369h127l375 -412zM438 823h125l-342 -368h1356v-86h-1356l342 -369h-125l-377 412z" />
    <glyph glyph-name="uni21C5" unicode="&#x21c5;" horiz-adv-x="1523" 
d="M885 1051v-125l-369 338v-1264h-86v1264l-369 -338v125l412 370zM1094 1393v-1264l368 338v-125l-411 -371l-412 371v125l369 -338v1264h86z" />
    <glyph glyph-name="uni21C6" unicode="&#x21c6;" horiz-adv-x="1638" 
d="M563 1393l-342 -369h1356v-86h-1356l342 -369h-125l-377 412l377 412h125zM1417 455l-342 368h127l375 -411l-375 -412h-127l342 369h-1356v86h1356z" />
    <glyph glyph-name="uni21C7" unicode="&#x21c7;" horiz-adv-x="1433" 
d="M446 1311l-227 -248h1153v-86h-1153l227 -248h-124l-261 291l261 291h124zM322 664h124l-227 -248h1153v-86h-1153l227 -248h-124l-261 291z" />
    <glyph glyph-name="uni21C8" unicode="&#x21c8;" horiz-adv-x="1429" 
d="M61 1036v125l291 260l291 -260v-125l-248 228v-1264h-86v1264zM1077 1421l291 -260v-125l-248 228v-1264h-86v1264l-248 -228v125z" />
    <glyph glyph-name="uni21C9" unicode="&#x21c9;" horiz-adv-x="1433" 
d="M1112 729h-123l225 248h-1153v86h1153l-225 248h123l260 -291zM1214 416l-225 248h123l260 -291l-260 -291h-123l225 248h-1153v86h1153z" />
    <glyph glyph-name="uni21CA" unicode="&#x21ca;" horiz-adv-x="1429" 
d="M309 1421h86v-1263l248 227v-125l-291 -260l-291 260v125l248 -227v1263zM1120 1421v-1263l248 227v-125l-291 -260l-291 260v125l248 -227v1263h86z" />
    <glyph glyph-name="arrowdblleft" unicode="&#x21d0;" horiz-adv-x="1433" 
d="M1372 647h-1069l-123 -131l123 -131h1069v-86h-989l180 -195h-125l-377 412l377 412h125l-180 -195h989v-86z" />
    <glyph glyph-name="arrowdblup" unicode="&#x21d1;" horiz-adv-x="946" 
d="M473 1421l412 -377v-124l-195 180v-1100h-86v1180l-131 123l-131 -123v-1180h-86v1100l-195 -180v124z" />
    <glyph glyph-name="arrowdblright" unicode="&#x21d2;" horiz-adv-x="1433" 
d="M870 928h127l375 -412l-375 -412h-127l181 195h-990v86h1069l123 131l-123 131h-1069v86h990z" />
    <glyph glyph-name="arrowdbldown" unicode="&#x21d3;" horiz-adv-x="946" 
d="M690 1393v-1100l195 180v-125l-412 -377l-412 377v125l195 -180v1100h86v-1180l131 -123l131 123v1180h86z" />
    <glyph glyph-name="arrowdblboth" unicode="&#x21d4;" horiz-adv-x="1843" 
d="M1280 928h127l375 -412l-375 -412h-127l180 195h-1077l180 -195h-125l-377 412l377 412h125l-180 -195h1077zM180 516l123 -131h1237l123 131l-123 131h-1237z" />
    <glyph glyph-name="uni21D5" unicode="&#x21d5;" horiz-adv-x="946" 
d="M885 1044v-124l-195 180v-807l195 180v-125l-412 -377l-412 377v125l195 -180v807l-195 -180v124l412 377zM473 90l131 123v967l-131 123l-131 -123v-967z" />
    <glyph glyph-name="uni21D6" unicode="&#x21d6;" horiz-adv-x="1306" 
d="M1186 295l-836 833l-178 -6l-6 -180l833 -833l-61 -60l-776 776l-10 -264l-91 88l27 557l557 25l88 -88l-266 -10l778 -779z" />
    <glyph glyph-name="uni21D7" unicode="&#x21d7;" horiz-adv-x="1304" 
d="M1219 1219l24 -557l-88 -89l-10 265l-778 -777l-60 60l834 833l-6 181l-181 6l-833 -834l-60 60l777 778l-265 10l89 88z" />
    <glyph glyph-name="uni21D8" unicode="&#x21d8;" horiz-adv-x="1306" 
d="M1145 530l10 267l90 -90l-26 -557l-557 -25l-89 90l267 8l-779 778l60 62l835 -836l179 6l6 183l-834 831l62 62z" />
    <glyph glyph-name="uni21D9" unicode="&#x21d9;" horiz-adv-x="1304" 
d="M1184 1049l59 -60l-778 -778l266 -10l-88 -88l-557 24l-25 557l89 90l10 -266l778 778l59 -61l-833 -834l6 -180l178 -6z" />
    <glyph glyph-name="uni21F5" unicode="&#x21f5;" horiz-adv-x="1523" 
d="M1051 1421l411 -370v-125l-368 338v-1264h-86v1264l-369 -338v125zM430 1393h86v-1264l369 338v-125l-412 -371l-412 371v125l369 -338v1264z" />
    <glyph glyph-name="partialdiff" unicode="&#x2202;" horiz-adv-x="1245" 
d="M571 -23q-200 0 -333 127q-134 128 -134 336q0 213 129 357q126 141 334 141q159 0 267.5 -87.5t128.5 -227.5q16 85 16 172q0 261 -135 430q-137 168 -422 168q-92 0 -197 -27v78q124 31 232 31q333 0 510 -207q172 -205 172 -529q0 -431 -250 -647q-133 -115 -318 -115
zM565 55q123 0 205 76q86 80 115 170q30 95 30 191q0 151 -86.5 236t-224.5 85q-171 0 -254 -127q-84 -128 -84 -303q0 -156 83.5 -242t215.5 -86z" />
    <glyph glyph-name="emptyset" unicode="&#x2205;" horiz-adv-x="1667" 
d="M1266 1425l-54 -98q166 -93 258.5 -257t92.5 -372q0 -317 -203 -520q-206 -203 -526 -203q-169 0 -306 58l-32 -62h-93l52 97q-165 93 -257 257.5t-92 372.5q0 318 203 521q203 200 525 200q173 0 307 -57l35 63h90zM190 698q0 -183 80 -329t222 -232l614 1155
q-130 54 -272 54q-282 0 -463 -181t-181 -467zM834 49q280 0 462 182q181 181 181 467q0 183 -79.5 330t-221.5 229l-611 -1157q122 -51 269 -51z" />
    <glyph glyph-name="uni2206" unicode="&#x2206;" horiz-adv-x="1359" 
d="M604 1393h152l542 -1393h-1237zM647 1282l-471 -1206h942z" />
    <glyph glyph-name="product" unicode="&#x220f;" horiz-adv-x="1619" 
d="M1335 1155v-1122q0 -113 33 -142q37 -29 156 -32v-64h-539v64q123 3 152 32q28 31 28 142v1179q0 62 -19.5 78.5t-98.5 16.5h-474q-81 0 -100.5 -16.5t-19.5 -78.5v-1179q0 -112 30 -142q29 -29 152 -32v-64h-539v64q117 3 154 32q33 29 33 142v1122q0 115 -31 143
t-152 31v64h1420v-64q-121 -3 -152 -31q-33 -26 -33 -143z" />
    <glyph glyph-name="summation" unicode="&#x2211;" horiz-adv-x="1220" 
d="M1028 283h86l-33 -488h-985v160l516 627l-516 737v74h959l18 -435h-86q-15 219 -84 291q-67 70 -256 70h-328l465 -676l-567 -688h512q155 0 215 63t84 265z" />
    <glyph glyph-name="minus" unicode="&#x2212;" horiz-adv-x="1187" 
d="M1053 559h-918v82h918v-82z" />
    <glyph glyph-name="radical" unicode="&#x221a;" horiz-adv-x="1398" 
d="M999 1393h338v-76h-276l-397 -1317h-129l-312 895h-162v76h226l313 -901z" />
    <glyph glyph-name="infinity" unicode="&#x221e;" horiz-adv-x="1409" 
d="M1044 971q138 0 221 -102t83 -265t-86 -260.5t-228 -97.5q-210 0 -321 262l-35 -57q-124 -207 -313 -207q-138 0 -221 101.5t-83 264.5q0 164 86 261.5t228 97.5q210 0 321 -262l35 57q127 207 313 207zM1040 371q110 0 175 65.5t65 175.5q0 105 -60.5 172.5t-154.5 67.5
q-143 0 -244 -168l-65 -106q103 -207 284 -207zM588 530l65 107q-103 207 -284 207q-110 0 -175 -66t-65 -176q0 -104 60.5 -172t154.5 -68q143 0 244 168z" />
    <glyph glyph-name="integral" unicode="&#x222b;" horiz-adv-x="884" 
d="M201 16l104 936q50 467 350 467q100 0 165 -45t65 -117q0 -49 -26.5 -79.5t-74.5 -30.5q-70 0 -88 78q-1 6 -6.5 62t-13.5 75q-15 6 -37 6q-75 0 -120 -98t-68 -309l-105 -936q-50 -467 -352 -467q-100 0 -163.5 44.5t-63.5 118.5q0 49 26 79t74 30q70 0 88 -76
q3 -12 6.5 -65t11.5 -72q15 -6 37 -6q78 0 123 96.5t68 308.5z" />
    <glyph glyph-name="approxequal" unicode="&#x2248;" horiz-adv-x="1187" 
d="M854 672q-54 0 -154 35l-245 92q-96 35 -140 35q-47 0 -78 -36t-42 -98h-48q24 222 187 222q53 0 153 -35l246 -92q96 -35 141 -35q43 0 76 36t43 97h47q-24 -221 -186 -221zM854 381q-54 0 -154 35l-245 92q-90 35 -140 35q-47 0 -78 -35t-42 -98h-48q24 221 187 221
q53 0 153 -35l246 -92q96 -35 141 -35q43 0 76 36t43 97h47q-24 -221 -186 -221z" />
    <glyph glyph-name="notequal" unicode="&#x2260;" horiz-adv-x="1187" 
d="M1053 815v-82h-340l-154 -266h494v-82h-541l-100 -174h-88l100 174h-289v82h336l154 266h-490v82h537l104 180h88l-104 -180h293z" />
    <glyph glyph-name="lessequal" unicode="&#x2264;" horiz-adv-x="1187" 
d="M135 752l918 260v-88l-791 -217l791 -209v-88l-918 249v93zM1053 207h-918v82h918v-82z" />
    <glyph glyph-name="greaterequal" unicode="&#x2265;" horiz-adv-x="1187" 
d="M135 924v88l918 -260v-93l-918 -249v88l791 209zM1053 207h-918v82h918v-82z" />
    <glyph glyph-name="uni231B" unicode="&#x231b;" horiz-adv-x="1351" 
d="M1219 1354v-33q0 -37 -60 -49q23 -77 23 -160q0 -208 -242 -330l-117 -59q-36 -19 -37.5 -47.5t35.5 -52.5l119 -64q242 -128 242 -328q0 -82 -23 -159q60 -12 60 -49v-33q30 -9 30 -31v-53q0 -33 -157 -51q-168 -19 -416 -19q-249 0 -414 19q-160 18 -160 51v53
q0 22 31 31v33q0 37 60 49q-23 77 -23 159q0 200 242 328l118 64q37 24 35.5 52.5t-37.5 47.5l-116 59q-242 122 -242 330q0 83 23 160q-60 12 -60 49v33q-31 9 -31 30v54q0 80 574 80q573 0 573 -80v-54q0 -21 -30 -30zM793 756l125 61q219 109 219 287q0 108 -43 190
q-56 39 -418 39t-418 -39q-43 -82 -43 -190q0 -178 219 -287l125 -61q48 -23 51 -80t-47 -84l-129 -72q-219 -124 -219 -280q0 -111 43 -193q76 -27 418 -27t418 27q43 82 43 193q0 156 -219 280l-130 72q-50 27 -47 84q3 56 52 80zM471 514q148 79 203 76q57 0 200 -76
q78 -40 129 -83t80 -97t26.5 -120.5t-36.5 -147.5q-95 -29 -399 -29q-307 0 -402 29q-34 81 -36.5 147.5t26.5 120.5t80 97t129 83z" />
    <glyph glyph-name="uni2328" unicode="&#x2328;" horiz-adv-x="2557" 
d="M2269 1026v-25h29v-401h-29v-876q0 -75 -52.5 -129t-127.5 -54h-1296q-75 0 -129 54t-54 129v876h-28v336l-9 -16h2v-238h-30v186l-6 -12v-201q0 -28 -21 -28h-72q-19 0 -22 20l-227 -418q-22 -42 -53 -48.5t-39 20t14 69.5l305 482v192q0 31 22 31h72q21 0 21 -31v-10
l43 67h28v25q0 28 16 44.5t42 16.5h129v650h1288v-650h127q25 0 41 -16t16 -45zM2064 1720h-1247v-856h113q6 25 31 25h145q25 0 31 -25h630q6 25 33 25h144q26 0 32 -25h88v856zM1278 1526h-317q-11 0 -15.5 7t0 14t15.5 7h317q12 0 12 -14t-12 -14zM1788 1327h-827
q-17 0 -17 14q0 13 17 13h827q14 0 14 -13q0 -14 -14 -14zM1747 1229h-786q-17 0 -17 14q0 12 17 12h786q14 0 14 -12q0 -14 -14 -14zM1817 1128h-856q-11 0 -15.5 7t0 14.5t15.5 7.5h856q13 0 13 -14.5t-13 -14.5zM1710 1032h-749q-17 0 -17 10q0 17 17 17h749q14 0 14 -17
q0 -10 -14 -10zM2361 975h72q23 0 23 -31v-289q0 -28 -23 -28h-72q-20 0 -20 28v289q0 31 20 31zM1882 932h-921q-17 0 -17 12q0 14 17 14h921q14 0 14 -14q0 -12 -14 -12zM2335 682h-31v238h31v-238zM1634 625h430v198h-88q-9 -20 -32 -20h-144q-24 0 -33 20h-630
q-6 -20 -31 -20h-145q-25 0 -31 20h-113v-198h430q37 0 64.5 -26.5t27.5 -63.5q0 -38 -27.5 -65.5t-64.5 -27.5h-164q-37 0 -62.5 -27t-25.5 -65q0 -37 25.5 -62.5t62.5 -25.5h713q37 0 63.5 25.5t26.5 62.5q0 38 -26.5 65t-63.5 27h-162q-37 0 -64.5 27.5t-27.5 65.5
q0 37 27.5 63.5t64.5 26.5zM961 762h307q14 0 14 -14.5t-14 -14.5h-307q-11 0 -15.5 7.5t0 14.5t15.5 7zM1260 227h-15l4 -8l-20 -39q-3 -8 -8 -8v-4h22v4q-13 0 -4 12h29q9 -12 -6 -12v-4h32v4q-5 0 -10 8zM1604 227h-15l4 -8l-20 -39q-3 -8 -8 -8v-4h22v4q-13 0 -4 12h29
q9 -12 -6 -12v-4h32v4q-5 0 -10 8zM1303 225v-4q10 0 10 -6v-35q0 -8 -10 -8v-4h59l4 20h-6q-6 -16 -23 -16q-12 0 -12 8v35q0 6 12 6v4h-34zM1374 225v-4q10 0 10 -6v-37q0 -6 -10 -6v-4h37v4q-14 0 -14 6v17h12q27 0 27 16q0 14 -27 14h-35zM1446 225v-4q10 0 10 -6v-37
q0 -6 -10 -6v-4h33v4q-11 0 -11 6v37q0 6 11 6v4h-33zM1489 225v-4q6 0 12 -6v-33v-7.5t-2 -1.5t-10 -1v-4h31v4h-6.5t-3.5 1t-2.5 3t-0.5 6v25l39 -39h6v45q0 8 11 8v4h-29v-4q12 0 12 -8v-27l-39 39h-18zM1421 211q0 -12 -12 -12h-12v22h12q12 0 12 -10zM1241 190l12 23
l13 -23h-25zM1585 190l12 23l13 -23h-25zM682 98v-43q0 -26 27 -26h43q28 0 28 26v43q0 29 -28 29h-43q-27 0 -27 -29zM811 98v-43q0 -26 27 -26h43q28 0 28 26v43q0 29 -28 29h-43q-27 0 -27 -29zM940 98v-43q0 -26 27 -26h43q28 0 28 26v43q0 29 -28 29h-43q-27 0 -27 -29
zM1069 98v-43q0 -26 27 -26h43q28 0 28 26v43q0 29 -28 29h-43q-27 0 -27 -29zM1268 127h-43q-27 0 -27 -29v-43q0 -26 27 -26h43q28 0 28 26v43q0 29 -28 29zM1397 127h-43q-27 0 -27 -29v-43q0 -26 27 -26h43q28 0 28 26v43q0 29 -28 29zM1526 127h-43q-27 0 -27 -29v-43
q0 -26 27 -26h43q28 0 28 26v43q0 29 -28 29zM1655 127h-43q-27 0 -27 -29v-43q0 -26 27 -26h43q28 0 28 26v43q0 29 -28 29zM1714 98v-43q0 -26 27 -26h43q28 0 28 26v43q0 29 -28 29h-43q-27 0 -27 -29zM1870 29h43q29 0 29 26v43q0 29 -29 29h-43q-27 0 -27 -29v-43
q0 -26 27 -26zM2071 55v43q0 29 -29 29h-43q-27 0 -27 -29v-43q0 -26 27 -26h43q29 0 29 26zM2200 55v43q0 29 -29 29h-43q-27 0 -27 -29v-43q0 -26 27 -26h43q29 0 29 26zM774 -104h43q27 0 27 28v43q0 27 -27 27h-43q-29 0 -29 -27v-43q0 -28 29 -28zM874 -33v-43
q0 -28 29 -28h43q27 0 27 28v43q0 27 -27 27h-43q-29 0 -29 -27zM1032 -104h43q27 0 27 28v43q0 27 -27 27h-43q-28 0 -28 -27v-43q0 -28 28 -28zM1161 -104h43q27 0 27 28v43q0 27 -27 27h-43q-28 0 -28 -27v-43q0 -28 28 -28zM1290 -104h43q27 0 27 28v43q0 27 -27 27h-43
q-28 0 -28 -27v-43q0 -28 28 -28zM1419 -104h43q27 0 27 28v43q0 27 -27 27h-43q-28 0 -28 -27v-43q0 -28 28 -28zM1548 -104h43q27 0 27 28v43q0 27 -27 27h-43q-28 0 -28 -27v-43q0 -28 28 -28zM1677 -104h43q27 0 27 28v43q0 27 -27 27h-43q-28 0 -28 -27v-43
q0 -28 28 -28zM1876 -76v43q0 27 -27 27h-43q-28 0 -28 -27v-43q0 -28 28 -28h43q27 0 27 28zM2005 -76v43q0 27 -27 27h-43q-28 0 -28 -27v-43q0 -28 28 -28h43q27 0 27 28zM2134 -76v43q0 27 -27 27h-43q-28 0 -28 -27v-43q0 -28 28 -28h43q27 0 27 28zM905 -209v41
q0 27 -26 27h-41q-27 0 -27 -27v-41q0 -27 27 -27h41q26 0 26 27zM940 -168v-41q0 -27 27 -27h41q26 0 26 27v41q0 27 -26 27h-41q-27 0 -27 -27zM1069 -168v-41q0 -27 27 -27h41q26 0 26 27v41q0 27 -26 27h-41q-27 0 -27 -27zM1198 -168v-41q0 -27 27 -27h41q26 0 26 27
v41q0 27 -26 27h-41q-27 0 -27 -27zM1327 -168v-41q0 -27 27 -27h41q26 0 26 27v41q0 27 -26 27h-41q-27 0 -27 -27zM1456 -168v-41q0 -27 27 -27h41q26 0 26 27v41q0 27 -26 27h-41q-27 0 -27 -27zM1585 -168v-41q0 -27 27 -27h41q26 0 26 27v41q0 27 -26 27h-41
q-27 0 -27 -27zM1714 -168v-41q0 -27 27 -27h41q26 0 26 27v41q0 27 -26 27h-41q-27 0 -27 -27zM1911 -141h-41q-27 0 -27 -27v-41q0 -27 27 -27h41q26 0 26 27v41q0 27 -26 27zM1942 -352v49q0 27 -29 27h-946q-27 0 -27 -27v-49q0 -29 27 -29h946q29 0 29 29z" />
    <glyph glyph-name="uni2336" unicode="&#x2336;" horiz-adv-x="1114" 
d="M1012 1481h-176q-207 0 -207 -236v-702h280v-144h-280v-442q0 -236 207 -236h176v-143h-176q-241 0 -271 164h-12q-13 -79 -84.5 -121.5t-189.5 -42.5h-177v143h177q204 0 204 236v442h-280v144h280v702q0 236 -204 236h-177v143h177q118 0 189.5 -42.5t84.5 -121.5h12
q30 164 271 164h176v-143z" />
    <glyph glyph-name="uni23F3" unicode="&#x23f3;" horiz-adv-x="1351" 
d="M1219 1354v-33q0 -37 -60 -49q23 -77 23 -160q0 -208 -242 -330l-117 -59q-36 -19 -37.5 -47.5t35.5 -52.5l119 -64q242 -128 242 -328q0 -82 -23 -159q60 -12 60 -49v-33q30 -9 30 -31v-53q0 -33 -157 -51q-168 -19 -416 -19q-249 0 -414 19q-160 18 -160 51v53
q0 22 31 31v33q0 37 60 49q-23 77 -23 159q0 200 242 328l118 64q37 24 35.5 52.5t-37.5 47.5l-116 59q-242 122 -242 330q0 83 23 160q-60 12 -60 49v33q-31 9 -31 30v54q0 80 574 80q573 0 573 -80v-54q0 -21 -30 -30zM793 756l125 61q219 109 219 287q0 108 -43 190
q-56 39 -418 39t-418 -39q-43 -82 -43 -190q0 -178 219 -287l125 -61q48 -23 51 -80t-47 -84l-129 -72q-219 -124 -219 -280q0 -111 43 -193q76 -27 418 -27t418 27q43 82 43 193q0 156 -219 280l-130 72q-50 27 -47 84q3 56 52 80zM238 1133q98 49 438 49t438 -49
q2 -109 -61 -182t-224 -148q-62 -29 -91 -66t-42 -104q-20 -105 4.5 -207.5t85.5 -165.5q25 -25 108 -76t91 -57q39 -26 39 -57q-21 -27 -348 -27t-348 27q0 13 9 26t28 27.5t39 27t53 31.5q9 5 14 8q61 37 94 70q61 63 85.5 165.5t4.5 207.5q-13 67 -42 104t-91 66
q-161 75 -223.5 148t-60.5 182z" />
    <glyph glyph-name="uni2460" unicode="&#x2460;" horiz-adv-x="2031" 
d="M360 1368q255 252 656 252q400 0 655 -252q254 -254 254 -651q0 -398 -254 -649q-254 -254 -655 -254q-402 0 -656 254q-254 251 -254 649q0 397 254 651zM438 135q224 -227 578 -227q352 0 579 227q226 229 226 582q0 352 -226 581q-228 228 -579 228q-353 0 -578 -228
q-227 -227 -227 -581q0 -355 227 -582zM1106 1204v-776q0 -76 31 -98t145 -25v-51h-514v51q122 3 158 25q30 18 30 98v655l-178 -112v119l178 114h150z" />
    <glyph glyph-name="uni2461" unicode="&#x2461;" horiz-adv-x="2031" 
d="M360 1368q255 252 656 252q400 0 655 -252q254 -254 254 -651q0 -398 -254 -649q-254 -254 -655 -254q-402 0 -656 254q-254 251 -254 649q0 397 254 651zM438 135q224 -227 578 -227q352 0 579 227q226 229 226 582q0 352 -226 581q-228 228 -579 228q-353 0 -578 -228
q-227 -227 -227 -581q0 -355 227 -582zM803 389h344q88 0 119 31q28 28 37 166h71v-332h-700v135l172 127q177 134 251 223.5t74 180.5q0 88 -54.5 138t-151.5 50q-209 0 -236 -193h-70q3 306 342 306q158 0 249 -73t91 -200q0 -107 -84 -200q-87 -93 -303 -248z" />
    <glyph glyph-name="uni2462" unicode="&#x2462;" horiz-adv-x="2031" 
d="M1671 68q-254 -254 -655 -254q-402 0 -656 254q-254 251 -254 649q0 397 254 651q255 252 656 252q400 0 655 -252q254 -254 254 -651q0 -398 -254 -649zM438 135q224 -227 578 -227q352 0 579 227q226 229 226 582q0 352 -226 581q-228 228 -579 228q-353 0 -578 -228
q-227 -227 -227 -581q0 -355 227 -582zM1042 811q159 0 250.5 -75t91.5 -208q0 -134 -105.5 -214.5t-283.5 -80.5q-155 0 -250.5 53t-95.5 138q0 44 28 71t73 27q79 0 88 -69q0 -1 1.5 -52.5t6.5 -72.5q58 -27 141 -27q117 0 183.5 51.5t66.5 143.5q0 180 -281 180
q-54 0 -122 -6v104l378 293h-319q-82 0 -105 -23q-23 -20 -32 -126h-72v288h643v-139l-338 -260q50 4 53 4z" />
    <glyph glyph-name="uni2463" unicode="&#x2463;" horiz-adv-x="2031" 
d="M1671 68q-254 -254 -655 -254q-402 0 -656 254q-254 251 -254 649q0 397 254 651q255 252 656 252q400 0 655 -252q254 -254 254 -651q0 -398 -254 -649zM438 135q224 -227 578 -227q352 0 579 227q226 229 226 582q0 352 -226 581q-228 228 -579 228q-353 0 -578 -228
q-227 -227 -227 -581q0 -355 227 -582zM1204 254h-145v299h-475v123l475 528h145v-528h193v-123h-193v-299zM1059 1087l-371 -411h371v411z" />
    <glyph glyph-name="uni2464" unicode="&#x2464;" horiz-adv-x="2031" 
d="M1671 68q-254 -254 -655 -254q-402 0 -656 254q-254 251 -254 649q0 397 254 651q255 252 656 252q400 0 655 -252q254 -254 254 -651q0 -398 -254 -649zM438 135q224 -227 578 -227q352 0 579 227q226 229 226 582q0 352 -226 581q-228 228 -579 228q-353 0 -578 -228
q-227 -227 -227 -581q0 -355 227 -582zM985 233q-145 0 -237.5 54.5t-92.5 136.5q0 43 28 69.5t77 26.5q72 0 84 -67q0 -4 1 -55.5t5 -75.5q71 -23 135 -23q110 0 172 52.5t62 148.5q0 205 -267 205q-75 0 -223 -29l47 528h395q44 0 60 7.5t22 31.5h66l-14 -176h-465
l-21 -236q97 19 172 19q176 0 274.5 -82.5t98.5 -226.5q0 -142 -104 -225t-275 -83z" />
    <glyph glyph-name="uni2465" unicode="&#x2465;" horiz-adv-x="2031" 
d="M1671 68q-254 -254 -655 -254q-402 0 -656 254q-254 251 -254 649q0 397 254 651q255 252 656 252q400 0 655 -252q254 -254 254 -651q0 -398 -254 -649zM438 135q224 -227 578 -227q352 0 579 227q226 229 226 582q0 352 -226 581q-228 228 -579 228q-353 0 -578 -228
q-227 -227 -227 -581q0 -355 227 -582zM995 233q-193 0 -304 116t-111 319q0 256 157 407q157 148 422 148q59 0 117 -9v-69q-62 6 -100 6q-206 0 -321 -118t-114 -333q83 150 291 150q149 0 243.5 -81.5t94.5 -213.5q0 -143 -103 -232.5t-272 -89.5zM995 299q97 0 151 61
t54 168q0 110 -58.5 172t-158.5 62q-104 0 -165.5 -60.5t-61.5 -164.5q0 -106 66.5 -172t172.5 -66z" />
    <glyph glyph-name="uni2466" unicode="&#x2466;" horiz-adv-x="2031" 
d="M360 1368q255 252 656 252q400 0 655 -252q254 -254 254 -651q0 -398 -254 -649q-254 -254 -655 -254q-402 0 -656 254q-254 251 -254 649q0 397 254 651zM438 135q224 -227 578 -227q352 0 579 227q226 229 226 582q0 352 -226 581q-228 228 -579 228q-353 0 -578 -228
q-227 -227 -227 -581q0 -355 227 -582zM735 915h-69v289h702v-141l-455 -809h-96l451 809h-387q-79 0 -109 -23q-31 -25 -37 -125z" />
    <glyph glyph-name="uni2467" unicode="&#x2467;" horiz-adv-x="2031" 
d="M1671 68q-254 -254 -655 -254q-402 0 -656 254q-254 251 -254 649q0 397 254 651q255 252 656 252q400 0 655 -252q254 -254 254 -651q0 -398 -254 -649zM438 135q224 -227 578 -227q352 0 579 227q226 229 226 582q0 352 -226 581q-228 228 -579 228q-353 0 -578 -228
q-227 -227 -227 -581q0 -355 227 -582zM1282 303q-98 -70 -266 -70t-266 64q-99 65 -99 172q0 86 62.5 146t177.5 85q-129 57 -183.5 118t-54.5 149q0 119 98.5 187.5t268.5 68.5q167 0 264.5 -62.5t97.5 -171.5q0 -87 -61 -147t-176 -86q128 -55 181.5 -115.5t53.5 -148.5
q0 -122 -98 -189zM965 838l122 -56q148 59 148 199q0 80 -59 129t-158 49q-96 0 -153.5 -39.5t-57.5 -103.5q0 -101 158 -178zM1018 299q96 0 153.5 39t57.5 102q0 107 -160 181l-119 53q-151 -59 -151 -197q0 -82 59.5 -130t159.5 -48z" />
    <glyph glyph-name="uni2468" unicode="&#x2468;" horiz-adv-x="2031" 
d="M1671 68q-254 -254 -655 -254q-402 0 -656 254q-254 251 -254 649q0 397 254 651q255 252 656 252q400 0 655 -252q254 -254 254 -651q0 -398 -254 -649zM438 135q224 -227 578 -227q352 0 579 227q226 229 226 582q0 352 -226 581q-228 228 -579 228q-353 0 -578 -228
q-227 -227 -227 -581q0 -355 227 -582zM887 246q-73 0 -150 14v72q57 -13 131 -13q199 0 309.5 117.5t98.5 319.5q-71 -148 -272 -148q-156 0 -253.5 83t-97.5 218q0 139 105 226.5t272 87.5q193 0 302.5 -116t109.5 -325q0 -247 -150 -391q-151 -145 -405 -145zM1044 694
q104 0 163 61t59 167q0 109 -62.5 172t-167.5 63q-100 0 -156.5 -60.5t-56.5 -166.5q0 -112 59 -174t162 -62z" />
    <glyph glyph-name="uni24EA" unicode="&#x24ea;" horiz-adv-x="2031" 
d="M1671 68q-254 -254 -655 -254q-402 0 -656 254q-254 251 -254 649q0 397 254 651q255 252 656 252q400 0 655 -252q254 -254 254 -651q0 -398 -254 -649zM438 135q224 -227 578 -227q352 0 579 227q226 229 226 582q0 352 -226 581q-228 228 -579 228q-353 0 -578 -228
q-227 -227 -227 -581q0 -355 227 -582zM1016 1223q186 0 284.5 -128t98.5 -366q0 -240 -98.5 -368t-284.5 -128q-184 0 -282.5 129t-98.5 367t98.5 366t282.5 128zM1016 1057q-135 0 -217 -89.5t-82 -238.5t82 -238.5t217 -89.5q137 0 219 89.5t82 238.5t-82 238.5
t-219 89.5z" />
    <glyph glyph-name="uni24FF" unicode="&#x24ff;" horiz-adv-x="2031" 
d="M365 68q-259 256 -259 649t259 649q257 254 651 254t651 -254q258 -255 258 -649t-258 -649q-257 -254 -651 -254t-651 254zM1016 1223q-184 0 -282.5 -128t-98.5 -366t98.5 -367t282.5 -129q186 0 284.5 128t98.5 368q0 238 -98.5 366t-284.5 128zM1016 1057
q137 0 219 -89.5t82 -238.5t-82 -238.5t-219 -89.5q-135 0 -217 89.5t-82 238.5t82 238.5t217 89.5z" />
    <glyph glyph-name="uni2581" unicode="&#x2581;" 
d="M1393 0h-1393v174h1393v-174z" />
    <glyph glyph-name="uni2582" unicode="&#x2582;" 
d="M1393 0h-1393v348h1393v-348z" />
    <glyph glyph-name="uni2583" unicode="&#x2583;" 
d="M1393 0h-1393v522h1393v-522z" />
    <glyph glyph-name="dnblock" unicode="&#x2584;" 
d="M1393 0h-1393v696h1393v-696z" />
    <glyph glyph-name="uni2585" unicode="&#x2585;" 
d="M1393 0h-1393v870h1393v-870z" />
    <glyph glyph-name="uni2586" unicode="&#x2586;" 
d="M1393 0h-1393v1044h1393v-1044z" />
    <glyph glyph-name="uni2587" unicode="&#x2587;" 
d="M1393 4h-1393v1219h1393v-1219z" />
    <glyph glyph-name="block" unicode="&#x2588;" 
d="M1393 0h-1393v1393h1393v-1393z" />
    <glyph glyph-name="uni2589" unicode="&#x2589;" 
d="M1219 0h-1219v1393h1219v-1393z" />
    <glyph glyph-name="uni258A" unicode="&#x258a;" 
d="M1044 0h-1044v1393h1044v-1393z" />
    <glyph glyph-name="uni258B" unicode="&#x258b;" 
d="M870 0h-870v1393h870v-1393z" />
    <glyph glyph-name="lfblock" unicode="&#x258c;" 
d="M696 0h-696v1393h696v-1393z" />
    <glyph glyph-name="uni258D" unicode="&#x258d;" 
d="M522 0h-522v1393h522v-1393z" />
    <glyph glyph-name="uni258E" unicode="&#x258e;" 
d="M348 0h-348v1393h348v-1393z" />
    <glyph glyph-name="uni258F" unicode="&#x258f;" 
d="M174 0h-174v1393h174v-1393z" />
    <glyph glyph-name="ltshade" unicode="&#x2591;" horiz-adv-x="696" 
d="M57 1331h-57v62h57v-62zM291 1331h-58v62h58v-62zM522 1331h-57v62h57v-62zM174 1212h-57v60h57v-60zM406 1212h-58v60h58v-60zM639 1212h-59v60h59v-60zM57 1090h-57v61h57v-61zM291 1090h-58v61h58v-61zM522 1090h-57v61h57v-61zM174 969h-57v59h57v-59zM406 969h-58
v59h58v-59zM639 969h-59v59h59v-59zM57 848h-57v61h57v-61zM291 848h-58v61h58v-61zM522 848h-57v61h57v-61zM174 727h-57v59h57v-59zM406 727h-58v59h58v-59zM639 727h-59v59h59v-59zM57 606h-57v62h57v-62zM291 606h-58v62h58v-62zM522 606h-57v62h57v-62zM174 483h-57v62
h57v-62zM406 483h-58v62h58v-62zM639 483h-59v62h59v-62zM57 365h-57v59h57v-59zM291 365h-58v59h58v-59zM522 365h-57v59h57v-59zM174 242h-57v61h57v-61zM406 242h-58v61h58v-61zM639 242h-59v61h59v-61zM57 121h-57v61h57v-61zM291 121h-58v61h58v-61zM522 121h-57v61h57
v-61zM174 0h-57v61h57v-61zM406 0h-58v61h58v-61zM639 0h-59v61h59v-61z" />
    <glyph glyph-name="shade" unicode="&#x2592;" horiz-adv-x="696" 
d="M57 1331h-57v62h57v-62zM174 1331h-57v62h57v-62zM291 1331h-58v62h58v-62zM406 1331h-58v62h58v-62zM522 1331h-57v62h57v-62zM639 1331h-59v62h59v-62zM117 1212h-60v60h60v-60zM233 1212h-59v60h59v-60zM348 1212h-57v60h57v-60zM465 1212h-59v60h59v-60zM580 1212
h-58v60h58v-60zM696 1212h-57v60h57v-60zM57 1090h-57v61h57v-61zM174 1090h-57v61h57v-61zM291 1090h-58v61h58v-61zM406 1090h-58v61h58v-61zM522 1090h-57v61h57v-61zM639 1090h-59v61h59v-61zM117 969h-60v59h60v-59zM233 969h-59v59h59v-59zM348 969h-57v59h57v-59z
M465 969h-59v59h59v-59zM580 969h-58v59h58v-59zM696 969h-57v59h57v-59zM57 848h-57v61h57v-61zM174 848h-57v61h57v-61zM291 848h-58v61h58v-61zM406 848h-58v61h58v-61zM522 848h-57v61h57v-61zM639 848h-59v61h59v-61zM117 729h-60v57h60v-57zM233 729h-59v57h59v-57z
M348 729h-57v57h57v-57zM465 729h-59v57h59v-57zM580 729h-58v57h58v-57zM696 729h-57v57h57v-57zM57 606h-57v62h57v-62zM174 606h-57v62h57v-62zM291 606h-58v62h58v-62zM406 606h-58v62h58v-62zM522 606h-57v62h57v-62zM639 606h-59v62h59v-62zM117 483h-60v62h60v-62z
M233 483h-59v62h59v-62zM348 483h-57v62h57v-62zM465 483h-59v62h59v-62zM580 483h-58v62h58v-62zM696 483h-57v62h57v-62zM57 365h-57v59h57v-59zM174 365h-57v59h57v-59zM291 365h-58v59h58v-59zM406 365h-58v59h58v-59zM522 365h-57v59h57v-59zM639 365h-59v59h59v-59z
M117 242h-60v61h60v-61zM233 242h-59v61h59v-61zM348 242h-57v61h57v-61zM465 242h-59v61h59v-61zM580 242h-58v61h58v-61zM696 242h-57v61h57v-61zM57 121h-57v61h57v-61zM174 121h-57v61h57v-61zM291 121h-58v61h58v-61zM406 121h-58v61h58v-61zM522 121h-57v61h57v-61z
M639 121h-59v61h59v-61zM117 0h-60v61h60v-61zM233 0h-59v61h59v-61zM348 0h-57v61h57v-61zM465 0h-59v61h59v-61zM580 0h-58v61h58v-61zM696 0h-57v61h57v-61z" />
    <glyph glyph-name="dkshade" unicode="&#x2593;" horiz-adv-x="696" 
d="M57 0h-57v121h57v61h-57v183h57v59h-57v182h57v62h-57v180h57v61h-57v181h57v61h-57v180h57v62h60v-62h57v62h59v-62h58v62h57v-62h58v62h59v-62h57v62h58v-62h59v62h57v-121h-57v-60h57v-184h-57v-59h57v-183h-57v-59h57v-182h-57v-62h57v-180h-57v-61h57v-181h-57v-61
h-59v61h-58v-61h-57v61h-59v-61h-58v61h-57v-61h-58v61h-59v-61h-57v61h-60v-61zM57 1272v-60h60v60h-60zM174 1272v-60h59v60h-59zM291 1272v-60h57v60h-57zM406 1272v-60h59v60h-59zM522 1272v-60h58v60h-58zM117 1151v-61h57v61h-57zM233 1151v-61h58v61h-58zM348 1151
v-61h58v61h-58zM465 1151v-61h57v61h-57zM580 1151v-61h59v61h-59zM57 1028v-59h60v59h-60zM174 1028v-59h59v59h-59zM291 1028v-59h57v59h-57zM406 1028v-59h59v59h-59zM522 1028v-59h58v59h-58zM117 909v-61h57v61h-57zM233 909v-61h58v61h-58zM348 909v-61h58v61h-58z
M465 909v-61h57v61h-57zM580 909v-61h59v61h-59zM57 786v-59h60v59h-60zM174 786v-59h59v59h-59zM291 786v-59h57v59h-57zM406 786v-59h59v59h-59zM522 786v-59h58v59h-58zM117 668v-62h57v62h-57zM233 668v-62h58v62h-58zM348 668v-62h58v62h-58zM465 668v-62h57v62h-57z
M580 668v-62h59v62h-59zM57 545v-62h60v62h-60zM174 545v-62h59v62h-59zM291 545v-62h57v62h-57zM406 545v-62h59v62h-59zM522 545v-62h58v62h-58zM117 424v-59h57v59h-57zM233 424v-59h58v59h-58zM348 424v-59h58v59h-58zM465 424v-59h57v59h-57zM580 424v-59h59v59h-59z
M57 303v-61h60v61h-60zM174 303v-61h59v61h-59zM291 303v-61h57v61h-57zM406 303v-61h59v61h-59zM522 303v-61h58v61h-58zM117 182v-61h57v61h-57zM233 182v-61h58v61h-58zM348 182v-61h58v61h-58zM465 182v-61h57v61h-57zM580 182v-61h59v61h-59z" />
    <glyph glyph-name="uni2596" unicode="&#x2596;" 
d="M696 0h-696v696h696v-696z" />
    <glyph glyph-name="uni2597" unicode="&#x2597;" 
d="M1393 0h-697v696h697v-696z" />
    <glyph glyph-name="uni2598" unicode="&#x2598;" 
d="M696 696h-696v697h696v-697z" />
    <glyph glyph-name="uni2599" unicode="&#x2599;" 
d="M696 1393v-697h697v-696h-1393v1393h696z" />
    <glyph glyph-name="uni259A" unicode="&#x259a;" 
d="M696 696h-696v697h696v-697zM1393 0h-697v696h697v-696z" />
    <glyph glyph-name="uni259B" unicode="&#x259b;" 
d="M0 1393h1393v-697h-697v-696h-696v1393z" />
    <glyph glyph-name="uni259C" unicode="&#x259c;" 
d="M0 1393h1393v-1393h-697v696h-696v697z" />
    <glyph glyph-name="uni259D" unicode="&#x259d;" 
d="M1393 696h-697v697h697v-697z" />
    <glyph glyph-name="uni259E" unicode="&#x259e;" 
d="M1393 696h-697v697h697v-697zM696 0h-696v696h696v-696z" />
    <glyph glyph-name="uni259F" unicode="&#x259f;" 
d="M696 696v697h697v-1393h-1393v696h696z" />
    <glyph glyph-name="filledbox" unicode="&#x25a0;" 
d="M1425 -33h-1458v1458h1458v-1458z" />
    <glyph glyph-name="uni25A1" unicode="&#x25a1;" 
d="M1425 -33h-1458v1458h1458v-1458zM33 1360v-1327h1327v1327h-1327z" />
    <glyph glyph-name="uni25A2" unicode="&#x25a2;" 
d="M1217 -33h-1041q-91 0 -150 59t-59 150v1041q0 91 59 149.5t150 58.5h1041q91 0 149.5 -58.5t58.5 -149.5v-1041q0 -91 -58.5 -150t-149.5 -59zM176 33h1041q63 0 103 40t40 103v1041q0 63 -40 103t-103 40h-1041q-63 0 -103 -40t-40 -103v-1041q0 -63 40 -103t103 -40z
" />
    <glyph glyph-name="uni25A3" unicode="&#x25a3;" 
d="M1425 -33h-1458v1458h1458v-1458zM33 1360v-1327h1327v1327h-1327zM1118 274h-844v846h844v-846z" />
    <glyph glyph-name="uni25A4" unicode="&#x25a4;" 
d="M-33 -33v1458h1458v-1458h-1458zM1360 1227v133h-1327v-133h1327zM33 1161v-133h1327v133h-1327zM33 963v-134h1327v134h-1327zM33 764v-133h1327v133h-1327zM33 565v-135h1327v135h-1327zM1360 231v134h-1327v-134h1327zM33 166v-133h1327v133h-1327z" />
    <glyph glyph-name="uni25A5" unicode="&#x25a5;" 
d="M-33 -33v1458h1458v-1458h-1458zM166 1360h-133v-1327h133v1327zM231 33h134v1327h-134v-1327zM563 1360h-133v-1327h133v1327zM762 1360h-133v-1327h133v1327zM963 1360h-136v-1327h136v1327zM1161 1360h-133v-1327h133v1327zM1227 33h133v1327h-133v-1327z" />
    </font>
</defs>
</svg>
