<?xml version="1.0" standalone="no"?>
<!DOCTYPE svg PUBLIC "-//W3C//DTD SVG 1.1//EN" "http://www.w3.org/Graphics/SVG/1.1/DTD/svg11.dtd" >
<svg xmlns="http://www.w3.org/2000/svg" xmlns:xlink="http://www.w3.org/1999/xlink" version="1.1">
<metadata>
Created by FontForge 20201107 at Mon Aug 11 13:05:49 2025
 By 
(c) 2014 Adobe Systems Incorporated. All Rights Reserved.
</metadata>
<defs>
<font id="AcuminPro-Medium" horiz-adv-x="819" >
  <font-face 
    font-family="Acumin Pro Medium"
    font-weight="500"
    font-stretch="normal"
    units-per-em="2048"
    panose-1="2 11 6 4 2 2 2 2 2 4"
    ascent="1638"
    descent="-410"
    x-height="1042"
    cap-height="1423"
    bbox="-385 -537 2535 2138"
    underline-thickness="102"
    underline-position="-204"
    unicode-range="U+0020-FB02"
  />
<missing-glyph horiz-adv-x="1024" 
d="M0 0v1434h1024v-1434h-1024zM512 809l348 522h-696zM573 717l349 -522v1044zM164 102h696l-348 523zM102 1239v-1044l349 522z" />
    <glyph glyph-name="f_f" unicode="ff" horiz-adv-x="1165" 
d="M752 883h-369v-883h-201v883h-164v159h164v117q0 363 310 363q66 0 104 -15v-164q-37 11 -82 11q-71 0 -101 -46t-30 -145v-121h369v117q0 363 307 363q65 0 106 -15v-164q-37 11 -82 11q-71 0 -101 -46t-30 -145v-121h201v-159h-201v-883h-200v883z" />
    <glyph glyph-name=".notdef" horiz-adv-x="1024" 
d="M0 0v1434h1024v-1434h-1024zM512 809l348 522h-696zM573 717l349 -522v1044zM164 102h696l-348 523zM102 1239v-1044l349 522z" />
    <glyph glyph-name=".null" horiz-adv-x="0" 
 />
    <glyph glyph-name="nonmarkingreturn" horiz-adv-x="682" 
 />
    <glyph glyph-name="space" unicode=" " horiz-adv-x="514" 
 />
    <glyph glyph-name="exclam" unicode="!" horiz-adv-x="628" 
d="M455 485h-166l-25 689v249h215v-252zM469 -2h-199v295h199v-295z" />
    <glyph glyph-name="quotedbl" unicode="&#x22;" horiz-adv-x="739" 
d="M268 942h-145l-21 383v176h187v-176zM616 942h-147l-18 383v176h186v-176z" />
    <glyph glyph-name="numbersign" unicode="#" horiz-adv-x="1226" 
d="M575 0l97 397l-262 -2l-95 -395h-151l96 395h-174v164h215l74 303h-189v164h230l86 354h145l-86 -354h264l86 354h144l-84 -354h164l-2 -164h-201l-74 -303h182v-162h-221l-94 -397h-150zM711 559l73 303h-262l-71 -303h260z" />
    <glyph glyph-name="dollar" unicode="$" horiz-adv-x="1077" 
d="M279 1020q0 -73 41 -120.5t145 -84.5v391q-96 -10 -141 -60.5t-45 -125.5zM791 350q0 82 -45 135.5t-160 94.5v-437q205 21 205 207zM586 -197h-121v185q-182 15 -290.5 113t-123.5 251h201q18 -87 74.5 -139t138.5 -66v469q-211 64 -298 151.5t-87 229.5q0 155 108 253
t277 110v137h121v-139q98 -10 173 -45t116.5 -85t63 -101t26.5 -105h-197q-37 150 -182 180v-424q225 -63 317 -162t92 -243q0 -171 -108.5 -271t-300.5 -114v-185z" />
    <glyph glyph-name="percent" unicode="%" horiz-adv-x="1818" 
d="M424 1372q160 0 254 -102t94 -281q0 -172 -92 -280.5t-258 -108.5q-162 0 -253 103.5t-91 283.5q0 107 38.5 192.5t118 139t189.5 53.5zM424 1231q-83 0 -130.5 -62.5t-47.5 -179.5q0 -115 46 -180.5t134 -65.5q87 0 134.5 64t47.5 182q0 117 -48.5 179.5t-135.5 62.5z
M565 0h-166l869 1348h166zM1409 745q161 0 253.5 -102t92.5 -283q0 -111 -38.5 -197t-119 -137.5t-192.5 -52.5q-160 0 -251 105t-91 280q0 108 38 194t117.5 139.5t190.5 53.5zM1407 602q-80 0 -129 -64.5t-49 -177.5t47.5 -179t134.5 -66q86 0 133 64t47 181t-48.5 179.5
t-135.5 62.5z" />
    <glyph glyph-name="ampersand" unicode="&#x26;" horiz-adv-x="1540" 
d="M532 156q92 0 161 38.5t151 139.5l-338 332q-112 -75 -154.5 -137.5t-42.5 -147.5q0 -92 63.5 -158.5t159.5 -66.5zM1229 899h213l-365 -528l379 -371h-270l-221 217q-97 -122 -198.5 -179.5t-250.5 -57.5q-100 0 -181 33t-131 87.5t-77 120.5t-27 137q0 124 66.5 218
t234.5 198q-84 89 -123.5 158.5t-39.5 159.5q0 148 99 250t267 102q159 0 256.5 -97t97.5 -235q0 -105 -64 -184.5t-212 -169.5l274 -269zM602 1292q-79 0 -126.5 -50t-47.5 -138q0 -58 35.5 -112t116.5 -132q113 72 152.5 126.5t39.5 123.5q0 76 -44 129t-126 53z" />
    <glyph glyph-name="quotesingle" unicode="'" horiz-adv-x="378" 
d="M270 942h-164l-18 383v176h203v-176z" />
    <glyph glyph-name="parenleft" unicode="(" horiz-adv-x="704" 
d="M424 1501h201q-324 -425 -324 -915q0 -506 324 -940h-201q-135 180 -221 418t-86 524q0 504 307 913z" />
    <glyph glyph-name="parenright" unicode=")" horiz-adv-x="704" 
d="M281 -354h-201q321 421 321 915q0 256 -83 495t-238 445h201q135 -180 221 -418t86 -524q0 -504 -307 -913z" />
    <glyph glyph-name="asterisk" unicode="*" horiz-adv-x="835" 
d="M338 1423h158l-29 -305l233 191l86 -144l-290 -127l288 -131l-84 -143l-235 194l31 -309h-160l31 307l-232 -192l-84 143l289 131l-291 127l86 144l230 -191z" />
    <glyph glyph-name="plus" unicode="+" horiz-adv-x="1435" 
d="M631 1143h176v-479h473v-175h-473v-489h-176v489h-475v175h475v479z" />
    <glyph glyph-name="comma" unicode="," horiz-adv-x="452" 
d="M170 -236h-162q128 279 148 549h204q-14 -146 -64 -294.5t-126 -254.5z" />
    <glyph glyph-name="hyphen" unicode="-" horiz-adv-x="776" 
d="M117 614h542v-180h-542v180z" />
    <glyph glyph-name="period" unicode="." horiz-adv-x="434" 
d="M324 0h-213v313h213v-313z" />
    <glyph glyph-name="slash" unicode="/" horiz-adv-x="923" 
d="M264 -104h-176l571 1548h177z" />
    <glyph glyph-name="zero" unicode="0" horiz-adv-x="1157" 
d="M584 1372q106 0 189 -38.5t136 -102.5t87.5 -154t48.5 -186.5t14 -206.5q0 -90 -9.5 -171.5t-30.5 -163.5t-58 -148t-88.5 -117.5t-127 -80t-167.5 -28.5q-108 0 -192.5 39.5t-138 104.5t-88 157.5t-48 189.5t-13.5 208q0 110 14.5 207.5t50.5 189t90 157t139 105
t192 39.5zM586 1204q-66 0 -115 -27t-79.5 -73t-49.5 -115.5t-26 -144.5t-7 -170q0 -531 271 -531q56 0 99 20t71.5 59t48 86.5t29.5 112t14 125.5t4 136q0 70 -4 129.5t-14.5 121t-29.5 108.5t-47 85t-70 58t-95 20z" />
    <glyph glyph-name="one" unicode="1" horiz-adv-x="759" 
d="M561 0h-205v1110q-48 -33 -131.5 -65t-140.5 -41v159q81 20 170.5 72.5t157.5 118.5h149v-1354z" />
    <glyph glyph-name="two" unicode="2" horiz-adv-x="1087" 
d="M995 0h-905v12q0 308 406 613q71 54 110 85.5t74.5 66.5t51 63.5t24 62t8.5 76.5q0 105 -55 166t-166 61q-115 0 -174 -59t-80 -180h-197q18 181 133.5 293t317.5 112q90 0 163.5 -22t122 -59t81 -87.5t47 -105t14.5 -113.5q0 -61 -12 -110t-33 -89.5t-65.5 -86.5
t-92.5 -86t-131 -103q-138 -105 -211 -185t-96 -151h694z" />
    <glyph glyph-name="three" unicode="3" horiz-adv-x="1130" 
d="M315 1022h-194q6 52 24 100t53 94.5t83 80.5t119 54.5t157 20.5q104 0 185.5 -29.5t130.5 -79.5t74.5 -112t25.5 -131q0 -112 -53 -181.5t-125 -97.5v-4q46 -16 85.5 -41.5t74 -65t54 -99t19.5 -132.5q0 -83 -26.5 -156t-80.5 -134.5t-148.5 -97.5t-219.5 -36
q-92 0 -168.5 22.5t-128 59t-89 86.5t-56.5 102.5t-25 108.5h199q20 -94 89.5 -154.5t186.5 -60.5q129 0 194.5 73.5t65.5 186.5q0 125 -71.5 187.5t-206.5 62.5h-101v162h86q125 0 183.5 49t58.5 152q0 88 -57.5 141t-161.5 53q-109 0 -162.5 -49t-73.5 -135z" />
    <glyph glyph-name="four" unicode="4" horiz-adv-x="1112" 
d="M893 0h-193v338h-628v180l604 830h217v-840h172l-23 -170h-149v-338zM700 508v321q0 170 7 324q-16 -30 -51.5 -85t-90.5 -134t-97.5 -140t-111 -156.5t-92.5 -129.5h436z" />
    <glyph glyph-name="five" unicode="5" horiz-adv-x="1126" 
d="M995 1348l-28 -172h-559q-8 -80 -56 -361q96 103 275 103q187 0 297 -122t110 -327q0 -101 -27.5 -188t-82.5 -156.5t-148 -109.5t-213 -40q-186 0 -309.5 96.5t-149.5 268.5h203q25 -92 90.5 -146.5t171.5 -54.5q127 0 193.5 84.5t66.5 231.5q0 135 -59.5 214t-189.5 79
q-110 0 -169 -42t-96 -126l-186 32q26 118 60.5 347.5t52.5 388.5h753z" />
    <glyph glyph-name="six" unicode="6" horiz-adv-x="1136" 
d="M1008 1047h-199q-44 163 -217 163q-282 0 -293 -469q108 177 334 177q192 0 304 -125t112 -324q0 -137 -52 -247.5t-158.5 -178.5t-252.5 -68q-488 0 -488 680q0 116 15.5 217t52 194.5t93 160t144.5 106t199 39.5q99 0 177 -30t124.5 -79t72.5 -103.5t32 -112.5z
M584 143q67 0 118 25.5t81.5 69t45.5 98t15 117.5q0 58 -12.5 108.5t-40.5 95t-80 70t-123 25.5q-123 0 -196 -76t-73 -219q0 -36 7 -75.5t26 -83t48 -77t76.5 -56t107.5 -22.5z" />
    <glyph glyph-name="seven" unicode="7" horiz-adv-x="980" 
d="M41 1348h895v-162q-178 -241 -322 -568.5t-192 -617.5h-207q43 278 193.5 617.5t316.5 558.5h-684v172z" />
    <glyph glyph-name="eight" unicode="8" horiz-adv-x="1142" 
d="M561 -25q-203 0 -337 111t-134 297q0 67 21 124.5t57 99t76.5 70t85.5 46.5q-183 94 -183 285q0 164 114 264t321 100q191 0 304 -99t113 -261q0 -105 -50 -175.5t-134 -103.5q98 -33 167 -125t69 -219q0 -193 -135.5 -303.5t-354.5 -110.5zM573 139q124 0 198.5 65
t74.5 187q0 121 -72.5 184.5t-202.5 63.5q-135 0 -204.5 -68.5t-69.5 -179.5q0 -110 74.5 -181t201.5 -71zM575 1208q-118 0 -174.5 -53t-56.5 -149q0 -87 59 -143t175 -56q225 0 225 194q0 91 -58.5 149t-169.5 58z" />
    <glyph glyph-name="nine" unicode="9" horiz-adv-x="1120" 
d="M106 303h205q29 -81 83 -121.5t147 -40.5q51 0 93 19.5t69.5 49.5t48.5 75.5t32 87t19 96t10 90t4 80.5q-87 -152 -313 -152q-190 0 -304 121t-114 310q0 126 53 228t159.5 164t248.5 62q125 0 218 -47t147 -133t80 -195.5t26 -246.5q0 -773 -486 -773q-100 0 -179 28
t-128 76t-78 103t-41 119zM545 1206q-125 0 -188.5 -78t-63.5 -202q0 -125 66.5 -199t181.5 -74q258 0 258 265q0 30 -5 62.5t-21.5 74.5t-42.5 74t-74 54.5t-111 22.5z" />
    <glyph glyph-name="colon" unicode=":" horiz-adv-x="530" 
d="M369 0h-207v305h207v-305zM369 733h-207v305h207v-305z" />
    <glyph glyph-name="semicolon" unicode=";" horiz-adv-x="534" 
d="M188 -236h-161q131 281 145 549h205q-10 -152 -65 -303.5t-124 -245.5zM379 725h-211v313h211v-313z" />
    <glyph glyph-name="less" unicode="&#x3c;" horiz-adv-x="1259" 
d="M168 494v163l924 494v-193l-730 -380l730 -394v-194z" />
    <glyph glyph-name="equal" unicode="=" horiz-adv-x="1460" 
d="M168 412h1124v-176h-1124v176zM168 924h1124v-176h-1124v176z" />
    <glyph glyph-name="greater" unicode="&#x3e;" horiz-adv-x="1259" 
d="M1092 649v-166l-924 -493v194l729 381l-729 393v193z" />
    <glyph glyph-name="question" unicode="?" horiz-adv-x="1030" 
d="M621 432h-209v33q0 93 41.5 175t154.5 183q79 69 106 128.5t27 129.5q0 80 -51.5 139.5t-152.5 59.5q-196 0 -230 -225h-196q2 45 14.5 92.5t44 102t77.5 96.5t122.5 70t171.5 28q88 -1 159.5 -24.5t116 -60.5t75 -86t42.5 -97.5t12 -98.5q0 -107 -41.5 -188t-152.5 -182
q-73 -66 -102 -124t-29 -132v-19zM621 0h-209v293h209v-293z" />
    <glyph glyph-name="at" unicode="@" horiz-adv-x="1916" 
d="M1389 -100l41 -138q-182 -120 -500 -120q-173 0 -321.5 58t-254.5 163.5t-166.5 260t-60.5 339.5q0 260 109.5 465.5t314 323.5t471.5 118q127 0 242 -29.5t212 -89t168.5 -144t111.5 -201t40 -253.5q0 -272 -128 -433t-335 -161q-93 0 -149 38.5t-62 115.5
q-56 -76 -123 -114t-165 -38q-130 0 -210.5 92.5t-80.5 264.5q0 152 56 278.5t153 199.5t213 73q106 0 163.5 -44.5t75.5 -107.5l33 131h180l-123 -569q-20 -95 -0.5 -130.5t78.5 -35.5q112 0 184 119.5t72 312.5q0 264 -167.5 421t-444.5 157q-324 0 -518.5 -208
t-194.5 -554q-1 -187 76 -338t223.5 -239.5t337.5 -88.5q263 0 449 105zM989 819q-77 0 -136 -57t-88.5 -145t-29.5 -189q0 -104 39 -158.5t111 -54.5q92 0 155 69.5t97 223.5q69 311 -148 311z" />
    <glyph glyph-name="A" unicode="A" horiz-adv-x="1361" 
d="M950 408h-559l-143 -408h-211l502 1423h262l524 -1423h-225zM444 588h455q-208 576 -233 667h-2q-16 -55 -45 -144t-85.5 -256.5t-89.5 -266.5z" />
    <glyph glyph-name="B" unicode="B" horiz-adv-x="1335" 
d="M184 0v1423h559q112 0 199.5 -28.5t141 -78t81 -113t27.5 -138.5q0 -116 -57.5 -196.5t-143.5 -112.5q41 -14 80.5 -39t78.5 -64.5t63 -100.5t24 -134q0 -193 -133.5 -305.5t-343.5 -112.5h-576zM391 838h318q142 0 206 53.5t64 155.5q0 93 -65 148.5t-181 55.5h-342
v-413zM391 666v-494h338q136 0 213.5 62.5t77.5 185.5q0 115 -79 180.5t-243 65.5h-307z" />
    <glyph glyph-name="C" unicode="C" horiz-adv-x="1415" 
d="M1114 410h211q-48 -195 -192.5 -311.5t-380.5 -116.5q-157 0 -281.5 56.5t-203.5 155.5t-120 229.5t-41 283.5q0 148 41.5 279t120.5 234t206 163.5t286 60.5q125 0 227 -34.5t170.5 -95t110.5 -138t57 -168.5h-211q-19 59 -46.5 104t-69.5 82t-104 56.5t-142 19.5
q-109 0 -193 -46.5t-133 -126.5t-73.5 -177t-24.5 -207q0 -85 14 -163t47 -150.5t81.5 -126t123 -85.5t166.5 -32q77 0 138 21t102 59.5t67.5 79.5t46.5 94z" />
    <glyph glyph-name="D" unicode="D" horiz-adv-x="1482" 
d="M184 0v1423h518q303 0 488.5 -190.5t185.5 -505.5q0 -210 -82.5 -374.5t-238.5 -258.5t-361 -94h-510zM395 1245v-1069h285q119 0 210.5 41t149 115.5t86.5 173t29 217.5q0 105 -27.5 196.5t-83 165.5t-148.5 117t-214 43h-287z" />
    <glyph glyph-name="E" unicode="E" horiz-adv-x="1230" 
d="M1094 834v-179h-703v-477h772l-26 -178h-953v1423h942v-180h-735v-409h703z" />
    <glyph glyph-name="F" unicode="F" horiz-adv-x="1165" 
d="M184 0v1423h928v-180h-721v-440h676v-178h-676v-625h-207z" />
    <glyph glyph-name="G" unicode="G" horiz-adv-x="1501" 
d="M1354 774v-774h-160q-14 43 -20 182q-131 -202 -437 -202q-151 0 -272 54.5t-199 151.5t-119 227t-41 283q0 161 44 297t127.5 236.5t211.5 157.5t287 57q246 0 401 -120.5t185 -315.5h-211q-81 262 -379 262q-95 0 -170.5 -29.5t-126 -81t-84 -123.5t-48.5 -153.5
t-15 -175.5q0 -111 25 -207t76 -174.5t137.5 -124t199.5 -45.5q381 0 381 424v14h-383v180h590z" />
    <glyph glyph-name="H" unicode="H" horiz-adv-x="1499" 
d="M184 0v1423h211v-587h709v587h211v-1423h-211v657h-709v-657h-211z" />
    <glyph glyph-name="I" unicode="I" horiz-adv-x="579" 
d="M184 1423h211v-1423h-211v1423z" />
    <glyph glyph-name="J" unicode="J" horiz-adv-x="765" 
d="M592 1423v-1001q0 -237 -91 -339.5t-284 -102.5q-83 0 -158 14v174q54 -8 134 -8q60 0 99 20t57.5 58.5t25 78.5t6.5 97v1009h211z" />
    <glyph glyph-name="K" unicode="K" horiz-adv-x="1323" 
d="M184 0v1423h209v-686q31 33 287.5 294t380.5 392h260l-604 -600l633 -823h-256l-525 688l-176 -162v-526h-209z" />
    <glyph glyph-name="L" unicode="L" horiz-adv-x="1159" 
d="M184 0v1423h211v-1245h735l-28 -178h-918z" />
    <glyph glyph-name="M" unicode="M" horiz-adv-x="1783" 
d="M1395 0v592q0 429 10 682h-8q-17 -69 -50.5 -175t-85.5 -256.5t-92 -263.5t-109 -306t-97 -273h-187q-14 44 -130 398t-180.5 559.5t-92.5 318.5h-8q16 -219 16 -719v-557h-197v1423h316q118 -333 232.5 -681t150.5 -484h2q25 103 154 466.5t257 698.5h306v-1423h-207z
" />
    <glyph glyph-name="N" unicode="N" horiz-adv-x="1527" 
d="M383 0h-199v1423h275q59 -98 238.5 -392.5t302 -500t157.5 -274.5h2q-12 151 -12 637v530h196v-1423h-258q-601 1000 -710 1206h-4q12 -187 12 -663v-543z" />
    <glyph glyph-name="O" unicode="O" horiz-adv-x="1544" 
d="M780 1444q198 0 348.5 -92.5t230 -256.5t79.5 -376q0 -150 -42.5 -282t-124.5 -234.5t-212.5 -162.5t-294.5 -60q-155 0 -281 56.5t-207.5 156t-125.5 232t-44 286.5t45 287.5t129 232.5t213 156t287 57zM772 1266q-112 0 -199 -43.5t-139.5 -119.5t-79 -173.5
t-26.5 -212.5q0 -114 28.5 -214.5t82.5 -178t140 -122t193 -44.5q93 0 168.5 30t126.5 81.5t85 123t49.5 152t15.5 170.5q0 115 -27.5 213.5t-81 174.5t-140 119.5t-196.5 43.5z" />
    <glyph glyph-name="P" unicode="P" horiz-adv-x="1296" 
d="M184 0v1423h549q215 0 344 -112.5t129 -306.5q0 -206 -133.5 -318.5t-349.5 -112.5h-328v-573h-211zM395 1247v-497h314q138 0 210 63.5t72 185.5t-75.5 185t-200.5 63h-320z" />
    <glyph glyph-name="Q" unicode="Q" horiz-adv-x="1554" 
d="M780 1444q198 0 348.5 -92.5t230 -256.5t79.5 -376q0 -183 -63 -339t-183 -257l340 -238l-125 -145l-399 278q-109 -38 -244 -38q-155 0 -281 56.5t-207.5 156t-125.5 232t-44 286.5t45 287.5t129 232.5t213 156t287 57zM772 1266q-112 0 -199 -43.5t-139.5 -119.5
t-79 -173.5t-26.5 -212.5q0 -114 28.5 -214.5t82.5 -178t140 -122t193 -44.5q93 0 168.5 30t126.5 81.5t85 123t49.5 152t15.5 170.5q0 115 -27.5 213.5t-81 174.5t-140 119.5t-196.5 43.5z" />
    <glyph glyph-name="R" unicode="R" horiz-adv-x="1323" 
d="M666 616h-273v-616h-209v1423h570q215 0 333.5 -106t118.5 -277q0 -132 -65.5 -218t-169.5 -117q209 -57 209 -363v-61v-42v-47.5t0.5 -42t2 -46t3.5 -37t5.5 -38t8.5 -28.5h-205q-12 29 -17.5 83t-6 93t-0.5 133v27q0 77 -12.5 126.5t-45.5 86t-93 52t-154 15.5z
M393 1247v-456h299q155 0 226 57t71 174q0 108 -70.5 166.5t-207.5 58.5h-318z" />
    <glyph glyph-name="S" unicode="S" horiz-adv-x="1253" 
d="M82 399h213q60 -252 350 -252q151 0 223 61.5t72 164.5q0 107 -72.5 168.5t-273.5 109.5q-253 61 -355 154.5t-102 247.5q0 172 124.5 281.5t356.5 109.5q124 0 221.5 -33.5t156 -90.5t90.5 -123.5t40 -141.5h-215q-43 221 -299 221q-123 0 -190.5 -52t-67.5 -149
q0 -94 68 -143t254 -94q119 -29 206.5 -66.5t140 -77.5t83.5 -91t42 -98.5t11 -107.5q0 -185 -136 -300t-392 -115q-130 0 -231.5 33t-166 91.5t-102 131.5t-49.5 161z" />
    <glyph glyph-name="T" unicode="T" horiz-adv-x="1155" 
d="M471 0v1243h-455v180h1123v-180h-455v-1243h-213z" />
    <glyph glyph-name="U" unicode="U" horiz-adv-x="1468" 
d="M170 1423h213v-856q0 -116 29.5 -200t81.5 -128t111 -63.5t130 -19.5q81 0 142.5 20.5t109.5 66.5t73 127.5t25 196.5v856h211v-843q0 -598 -565 -598q-94 0 -174.5 18t-153 60.5t-123 108.5t-80.5 167t-30 231v856z" />
    <glyph glyph-name="V" unicode="V" horiz-adv-x="1325" 
d="M778 0h-248l-516 1423h228l243 -700q130 -374 172 -543h5q31 131 178 537l254 706h217z" />
    <glyph glyph-name="W" unicode="W" horiz-adv-x="1923" 
d="M645 0h-223l-379 1423h225q42 -183 112 -476t111 -470.5t52 -249.5h2q23 109 150 577t165 619h203q268 -1010 301 -1187h2q21 116 77 334t135 505t95 348h207l-410 -1423h-223q-26 102 -99.5 379.5t-126 480.5t-69.5 285h-2q-15 -76 -56.5 -236.5t-76.5 -288t-96.5 -348
t-75.5 -272.5z" />
    <glyph glyph-name="X" unicode="X" horiz-adv-x="1196" 
d="M1204 0h-246l-364 569h-2l-367 -569h-233l479 719l-463 704h246l346 -538h2l354 538h230l-469 -686z" />
    <glyph glyph-name="Y" unicode="Y" horiz-adv-x="1220" 
d="M711 0h-213v518q0 21 -11 39l-499 866h241q354 -649 385 -710q52 108 394 710h225l-514 -868q-8 -16 -8 -37v-518z" />
    <glyph glyph-name="Z" unicode="Z" horiz-adv-x="1230" 
d="M61 0v160l850 1083h-809v180h1053v-176l-833 -1069h862l-29 -178h-1094z" />
    <glyph glyph-name="bracketleft" unicode="[" horiz-adv-x="706" 
d="M629 -354h-457v1855h457v-158h-279v-1538h279v-159z" />
    <glyph glyph-name="backslash" unicode="\" horiz-adv-x="923" 
d="M659 -104l-571 1548h176l572 -1548h-177z" />
    <glyph glyph-name="bracketright" unicode="]" horiz-adv-x="706" 
d="M78 1501h457v-1855h-457v159h280v1536h-280v160z" />
    <glyph glyph-name="asciicircum" unicode="^" horiz-adv-x="991" 
d="M920 637h-166l-262 577l-254 -577h-166l346 733h157z" />
    <glyph glyph-name="underscore" unicode="_" horiz-adv-x="1087" 
d="M2 -160h1085v-104h-1085v104z" />
    <glyph glyph-name="grave" unicode="`" 
d="M41 1522h248l256 -312h-187z" />
    <glyph glyph-name="a" unicode="a" horiz-adv-x="1093" 
d="M942 723v-487q0 -168 14 -236h-190q-11 31 -18 129q-79 -154 -316 -154q-89 0 -159 27.5t-111 73.5t-61.5 102t-20.5 117q0 171 128 256.5t365 85.5h172v84q0 38 -8 68t-28.5 60t-64.5 47t-109 17q-59 0 -100 -12.5t-62.5 -38t-31.5 -49t-17 -59.5h-195q6 62 28.5 114
t68 99t126 74t189.5 26q401 0 401 -344zM748 469v33h-160q-153 0 -228 -47t-75 -148q0 -79 51 -128.5t141 -49.5q69 0 119.5 19t79 48.5t45.5 76.5t22 91.5t5 104.5z" />
    <glyph glyph-name="b" unicode="b" horiz-adv-x="1179" 
d="M150 348v1153h200v-600q93 166 326 166q196 0 311 -145.5t115 -378.5q0 -159 -50.5 -286t-155 -204.5t-247.5 -77.5q-118 0 -188 39.5t-113 116.5q0 -73 -8 -131h-193q3 176 3 348zM897 539q0 165 -71 262.5t-201 97.5q-151 0 -218 -96.5t-67 -284.5q0 -375 278 -375
q131 0 205 106t74 290z" />
    <glyph glyph-name="c" unicode="c" horiz-adv-x="1048" 
d="M788 322h199q-17 -71 -49 -130t-82.5 -109.5t-129 -79t-177.5 -28.5q-219 0 -344 146t-125 395q0 112 32 211.5t91.5 175.5t152.5 120t207 44q88 0 161 -24.5t119 -61.5t78.5 -85.5t47 -93t18.5 -87.5h-199q-42 186 -229 186q-129 0 -200.5 -102.5t-71.5 -276.5
q0 -177 70 -280t196 -103q173 0 235 183z" />
    <glyph glyph-name="d" unicode="d" horiz-adv-x="1181" 
d="M834 1501h200v-1208q0 -193 2 -293h-194q-8 58 -8 141q-81 -166 -322 -166q-199 0 -316.5 147.5t-117.5 387.5q0 161 56 287t163 198t250 72q120 0 190.5 -37.5t96.5 -89.5v561zM287 516q0 -177 74 -275t196 -98q85 0 143 30t87.5 87t41 122t11.5 153q0 71 -6.5 123.5
t-23.5 100t-47 77t-78 46.5t-114 17q-134 0 -209 -100.5t-75 -282.5z" />
    <glyph glyph-name="e" unicode="e" horiz-adv-x="1083" 
d="M1006 483h-725q2 -152 73.5 -247t196.5 -95q56 0 98 12.5t68.5 36.5t41.5 47t29 56h203q-14 -45 -33.5 -85t-56.5 -84t-83.5 -75.5t-117 -52.5t-155.5 -21q-96 0 -175 30t-132.5 80.5t-90 119.5t-53 145.5t-16.5 159.5q0 119 30 219.5t88 176t150.5 118.5t210.5 43
q98 0 177 -30t129.5 -79t84.5 -115t48 -134t14 -140q0 -57 -4 -86zM287 621h520q-2 128 -66 209t-186 81q-241 0 -268 -290z" />
    <glyph glyph-name="f" unicode="f" horiz-adv-x="595" 
d="M383 0h-201v883h-164v159h164v119q0 77 16.5 140t52 114t97 79t144.5 28q77 0 118 -13v-168q-34 9 -86 9q-76 0 -108.5 -47t-32.5 -156v-105h205v-159h-205v-883z" />
    <glyph glyph-name="g" unicode="g" horiz-adv-x="1173" 
d="M1026 741v-641q0 -260 -115.5 -394t-371.5 -134q-94 0 -169.5 20.5t-122 53t-79.5 76.5t-47.5 85.5t-20.5 86.5h205q22 -80 84.5 -123t159.5 -43q83 0 139 25t86.5 76.5t42.5 116.5t12 158v78q-43 -87 -119.5 -131.5t-199.5 -44.5q-194 0 -313 143.5t-119 370.5
q0 247 128.5 397t323.5 150q132 0 204.5 -48t94.5 -110q3 77 9 133h190q0 -29 -1 -138t-1 -163zM287 528q0 -160 74.5 -256t197.5 -96q153 0 215 93.5t62 271.5q0 180 -59 269t-212 89q-132 0 -205 -101t-73 -270z" />
    <glyph glyph-name="h" unicode="h" horiz-adv-x="1171" 
d="M150 1501h200v-606q102 172 320 172q69 0 129 -20.5t111.5 -65t81.5 -125t30 -190.5v-666h-201v633q0 264 -215 264q-256 0 -256 -330v-567h-200v1501z" />
    <glyph glyph-name="i" unicode="i" horiz-adv-x="499" 
d="M150 0v1042h200v-1042h-200zM350 1270h-200v231h200v-231z" />
    <glyph glyph-name="j" unicode="j" horiz-adv-x="499" 
d="M150 1042h200v-1065q0 -224 -64 -314.5t-239 -90.5q-38 0 -74 4v168q12 -2 37 -2q85 0 112.5 44t27.5 155v1101zM350 1270h-200v231h200v-231z" />
    <glyph glyph-name="k" unicode="k" horiz-adv-x="1054" 
d="M350 1501v-944q49 58 218 243t220 242h238l-387 -403l430 -639h-233l-334 510l-152 -148v-362h-200v1501h200z" />
    <glyph glyph-name="l" unicode="l" horiz-adv-x="499" 
d="M350 0h-200v1501h200v-1501z" />
    <glyph glyph-name="m" unicode="m" horiz-adv-x="1742" 
d="M150 0v774q0 139 -3 268h193q8 -62 8 -153q97 178 301 178q107 0 181 -49.5t104 -130.5q107 180 330 180q67 0 124.5 -21t104 -64.5t73.5 -119.5t27 -178v-684h-196v662q0 46 -9.5 85.5t-31 74.5t-61.5 55t-95 20q-116 0 -172.5 -79t-56.5 -220v-598h-197v653
q0 52 -8.5 93t-28.5 76.5t-59.5 55t-95.5 19.5q-116 0 -175 -84.5t-59 -234.5v-578h-198z" />
    <glyph glyph-name="n" unicode="n" horiz-adv-x="1169" 
d="M150 0v780q0 142 -3 262h197q8 -62 8 -163q85 188 322 188q157 0 252.5 -100t95.5 -297v-670h-201v645q0 252 -211 252q-132 0 -195 -90t-63 -250v-557h-202z" />
    <glyph glyph-name="o" unicode="o" horiz-adv-x="1136" 
d="M575 1067q219 0 351.5 -149t132.5 -394q0 -115 -32.5 -214.5t-94 -174t-156.5 -117.5t-213 -43q-148 0 -259 71t-168.5 194t-57.5 280q0 239 133 393t364 154zM567 901q-136 0 -209 -101t-73 -278q0 -170 77 -275.5t209 -105.5q133 0 208 102.5t75 276.5
q0 176 -75.5 278.5t-211.5 102.5z" />
    <glyph glyph-name="p" unicode="p" horiz-adv-x="1177" 
d="M350 -408h-200v1196q0 131 -3 254h195q8 -66 8 -157q43 82 126 132t206 50q184 0 301 -141.5t117 -376.5q0 -270 -129 -422t-326 -152q-211 0 -295 146v-529zM893 541q0 164 -70 261t-196 97q-152 0 -219.5 -93.5t-67.5 -283.5q0 -188 62 -283.5t210 -95.5
q136 0 208.5 105t72.5 293z" />
    <glyph glyph-name="q" unicode="q" horiz-adv-x="1177" 
d="M834 -408v551q-87 -168 -322 -168q-89 0 -167.5 35t-138 100.5t-94 168.5t-34.5 231q0 127 36.5 233t98.5 176.5t145.5 109t178.5 38.5q128 0 201 -44.5t96 -104.5q0 46 8 124h190q-2 -104 -2 -286v-1164h-196zM287 518q0 -164 70 -269.5t204 -105.5q80 0 134.5 26.5
t85.5 78.5t44 119t13 159q0 93 -12.5 158.5t-42.5 115.5t-83.5 74.5t-132.5 24.5q-136 0 -208 -104t-72 -277z" />
    <glyph glyph-name="r" unicode="r" horiz-adv-x="737" 
d="M150 0v760q0 78 -1.5 169.5t-1.5 112.5h197q6 -44 6 -206q41 105 130.5 166.5t217.5 64.5v-199q-168 -3 -258 -91t-90 -281v-496h-200z" />
    <glyph glyph-name="s" unicode="s" horiz-adv-x="985" 
d="M61 301h201q42 -170 244 -170q199 0 199 148q0 70 -48.5 107.5t-187.5 72.5q-113 27 -186.5 59t-112.5 71.5t-53.5 81t-14.5 99.5q0 57 22 108.5t66.5 94.5t121 68.5t175.5 25.5q100 0 177.5 -26.5t123.5 -71.5t70 -96.5t29 -108.5h-193q-35 151 -215 151q-94 0 -136 -37
t-42 -92q0 -57 45 -88.5t182 -64.5q96 -22 164.5 -49.5t110.5 -57.5t66.5 -68t33 -75.5t8.5 -87.5q0 -142 -107.5 -231t-305.5 -89q-199 0 -307 88.5t-130 237.5z" />
    <glyph glyph-name="t" unicode="t" horiz-adv-x="669" 
d="M23 883v159h176v304h200v-304h226v-159h-226v-592q0 -77 25.5 -111.5t91.5 -34.5q56 0 86 9v-150q-53 -18 -162 -18q-127 0 -184 65t-57 199v633h-176z" />
    <glyph glyph-name="u" unicode="u" horiz-adv-x="1150" 
d="M1001 1042v-739q0 -54 1.5 -163.5t1.5 -139.5h-197q-6 40 -6 150q-82 -175 -309 -175q-72 0 -132 20t-109.5 63t-77.5 119.5t-28 180.5v684h201v-641q0 -254 205 -254q135 0 192.5 81t57.5 270v544h200z" />
    <glyph glyph-name="v" unicode="v" horiz-adv-x="1005" 
d="M23 1042h215q218 -676 262 -858h2q4 21 11 48t18 64.5t22 72.5t28.5 89t31.5 95t37.5 110t39 115.5t44.5 129.5t46 134h203l-381 -1042h-217z" />
    <glyph glyph-name="w" unicode="w" horiz-adv-x="1585" 
d="M47 1042h213q193 -746 211 -858h2q30 149 229 858h195q200 -747 217 -839h2q45 200 219 839h203l-319 -1042h-218q-34 133 -88.5 341t-83 319.5t-38.5 164.5h-3q-3 -19 -8 -44t-14 -62t-17 -68.5t-22.5 -85.5t-24 -90.5t-29.5 -107.5t-31 -111t-35 -126t-36 -130h-223z
" />
    <glyph glyph-name="x" unicode="x" horiz-adv-x="944" 
d="M10 1042h228q218 -353 233 -376h2q6 10 89.5 140.5t152.5 235.5h225l-350 -499l352 -543h-231q-221 364 -242 399h-2q-13 -21 -92.5 -152.5t-149.5 -246.5h-223l344 518z" />
    <glyph glyph-name="y" unicode="y" horiz-adv-x="999" 
d="M18 1042h218q231 -688 276 -862h2q53 202 264 862h203l-371 -1087q-78 -229 -159 -306t-246 -77q-53 0 -117 6v172q41 -6 84 -6q94 0 143 46.5t93 170.5z" />
    <glyph glyph-name="z" unicode="z" horiz-adv-x="940" 
d="M53 0v160l584 717h-555v165h784v-165l-575 -711h604l-29 -166h-813z" />
    <glyph glyph-name="braceleft" unicode="{" horiz-adv-x="763" 
d="M55 494v163q71 0 117 15t68.5 47.5t30.5 69.5t8 94v258q0 177 98 268.5t260 91.5h47v-149h-31q-100 0 -144 -56t-44 -166v-245q0 -268 -205 -307q108 -23 156.5 -99.5t48.5 -212.5v-243q0 -111 51 -170.5t141 -59.5h27v-149h-47q-71 0 -133 19.5t-113.5 60.5t-81.5 113
t-30 167v264q0 55 -7 90.5t-29 69t-68.5 49.5t-119.5 17z" />
    <glyph glyph-name="bar" unicode="|" horiz-adv-x="593" 
d="M207 1599h180v-2136h-180v2136z" />
    <glyph glyph-name="braceright" unicode="}" horiz-adv-x="763" 
d="M684 653v-164q-57 0 -98 -11t-65 -29t-37.5 -48.5t-18 -62t-4.5 -76.5v-258q0 -177 -98 -268.5t-261 -91.5h-47v149h31q99 0 143.5 56t44.5 165v246q0 268 205 307q-108 24 -156.5 100.5t-48.5 211.5v245q0 109 -51 168.5t-141 59.5h-27v149h47q71 0 133 -19.5t114 -60.5
t82 -112t30 -166v-266q0 -43 4 -72.5t17 -60.5t36.5 -49.5t65 -30t100.5 -11.5z" />
    <glyph glyph-name="asciitilde" unicode="~" horiz-adv-x="1380" 
d="M330 412h-152v65q-3 143 64.5 209t173.5 66q70 0 153 -29t145.5 -63.5t130 -63.5t109.5 -29q52 0 75.5 33t23.5 107v36h151v-45q0 -295 -237 -295q-66 0 -147.5 28.5t-144.5 63t-132 63t-113 28.5q-100 0 -100 -133v-41z" />
    <glyph glyph-name="uni00A0" unicode="&#xa0;" horiz-adv-x="514" 
 />
    <glyph glyph-name="exclamdown" unicode="&#xa1;" horiz-adv-x="522" 
d="M145 555h166l27 -686v-250h-217v250zM131 1042h201v-292h-201v292z" />
    <glyph glyph-name="cent" unicode="&#xa2;" horiz-adv-x="1099" 
d="M827 475h199q-27 -130 -128 -216t-259 -101v-185h-123v187q-191 20 -303.5 157t-112.5 349q0 202 110.5 344t305.5 166v143h123v-141q99 -7 176 -42t119.5 -84.5t64.5 -97.5t27 -94h-199q-44 137 -188 154v-692q74 9 118 46t70 107zM305 672q0 -135 54 -229.5t157 -118.5
v688q-106 -21 -158.5 -109t-52.5 -231z" />
    <glyph glyph-name="sterling" unicode="&#xa3;" horiz-adv-x="1064" 
d="M1001 0h-929v162q85 44 120 141.5t35 257.5v49h-182v156h174q-4 90 -4 156q0 205 97.5 326.5t291.5 121.5q79 0 143.5 -21.5t105.5 -55.5t70 -80t42 -91.5t18 -93.5h-195q-31 174 -188 174q-101 0 -141.5 -66t-40.5 -196q0 -68 4 -174h303v-156h-299v-35
q0 -273 -104 -399h706z" />
    <glyph glyph-name="currency" unicode="&#xa4;" horiz-adv-x="1110" 
d="M559 1141q139 0 244 -76l141 145l113 -118l-146 -150q58 -99 58 -231q0 -130 -58 -240l146 -149l-113 -119l-141 143q-107 -76 -246 -76q-136 0 -244 78l-137 -145l-113 119l144 145q-60 110 -60 240q0 129 62 237l-146 148l113 118l141 -145q103 73 242 76zM557 985
q-115 0 -178.5 -75t-63.5 -201q0 -140 70.5 -212.5t171.5 -72.5q109 0 174.5 69.5t65.5 215.5q0 126 -61.5 201t-178.5 75z" />
    <glyph glyph-name="yen" unicode="&#xa5;" horiz-adv-x="993" 
d="M860 332h-270v-332h-201v332h-266v133h266v127h-266v133h235l-366 623h227q169 -306 217.5 -397.5t63.5 -131.5h2q32 72 284 529h211l-374 -623h237v-133h-270v-127h270v-133z" />
    <glyph glyph-name="brokenbar" unicode="&#xa6;" horiz-adv-x="487" 
d="M166 367h170v-734h-170v734zM166 1411h170v-729h-170v729z" />
    <glyph glyph-name="section" unicode="&#xa7;" horiz-adv-x="1161" 
d="M993 1090h-190q-18 68 -72.5 115.5t-157.5 47.5q-104 0 -153 -44t-49 -119q0 -34 13 -61t32.5 -46.5t59 -41t75.5 -36.5t98 -40q9 -3 13 -5q205 -83 297 -177t92 -241q0 -183 -152 -301q80 -73 80 -213q0 -161 -114 -254.5t-312 -93.5q-201 0 -319 89.5t-140 250.5h199
q20 -83 85.5 -133.5t180.5 -50.5q225 0 225 176q0 57 -24 95t-90 75t-195 82q-219 79 -305 168.5t-86 230.5q0 92 49 172t129 129q-82 76 -82 205q0 147 106.5 242.5t297.5 95.5q75 0 137.5 -15t105 -40.5t74.5 -57t51 -68.5t28.5 -70t12.5 -66zM268 594q0 -51 16 -87
t72 -76.5t158 -78.5q197 -72 264 -116q38 29 61 77t23 99q0 89 -51 146.5t-197 121.5q-141 58 -229 102q-117 -75 -117 -188z" />
    <glyph glyph-name="dieresis" unicode="&#xa8;" 
d="M305 1270h-172v231h172v-231zM684 1270h-170v231h170v-231z" />
    <glyph glyph-name="copyright" unicode="&#xa9;" horiz-adv-x="1615" 
d="M1008 571l139 2q-30 -125 -116 -197.5t-222 -72.5q-164 0 -267.5 114t-103.5 296q0 179 102.5 297t270.5 118q79 0 142.5 -24t103.5 -64t63 -86.5t29 -97.5h-141q-38 150 -197 150q-101 0 -163 -75.5t-62 -211.5q0 -134 62.5 -211.5t162.5 -77.5q146 0 197 141zM801 1442
q198 0 357.5 -93t250 -260t90.5 -376t-91 -377t-250.5 -262t-356.5 -94q-152 0 -282.5 53.5t-223.5 148.5t-146 232t-53 299q0 206 92 373t253.5 261.5t359.5 94.5zM799 1331q-123 0 -229.5 -43t-184.5 -121.5t-123 -197t-45 -262.5q0 -174 76 -315t209 -220.5t297 -79.5
q123 0 229.5 43.5t184 122.5t121.5 196t44 259q0 270 -163.5 444t-415.5 174z" />
    <glyph glyph-name="ordfeminine" unicode="&#xaa;" horiz-adv-x="731" 
d="M635 999v-309q0 -80 4 -158h-147q-2 11 -3 27.5t-2 36t-2 27.5q-59 -99 -206 -99q-111 0 -172.5 59.5t-61.5 151.5q0 113 81 168t230 55h123v50q0 116 -125 116q-62 0 -90.5 -26.5t-36.5 -75.5h-151q5 42 20.5 76.5t46.5 66.5t86.5 50t130.5 18q81 0 138 -20.5
t85.5 -56.5t40 -74t11.5 -83zM485 836v18h-116q-84 0 -125 -24.5t-41 -77.5q0 -47 30 -76t93 -29q79 0 119 50.5t40 138.5z" />
    <glyph glyph-name="guillemotleft" unicode="&#xab;" horiz-adv-x="1140" 
d="M612 930l-305 -398l307 -401h-186l-313 401l313 398h184zM1024 930l-309 -398l311 -401h-190l-312 401l312 398h188z" />
    <glyph glyph-name="logicalnot" unicode="&#xac;" horiz-adv-x="1460" 
d="M156 836h1124v-668h-178v491h-946v177z" />
    <glyph glyph-name="uni00AD" unicode="&#xad;" horiz-adv-x="776" 
d="M117 614h542v-180h-542v180z" />
    <glyph glyph-name="registered" unicode="&#xae;" horiz-adv-x="720" 
d="M328 930h-86v342h149q60 0 98.5 -23t38.5 -75q0 -31 -17.5 -52t-39.5 -28q47 -16 47 -90q0 -49 4 -74h-86q-8 24 -8 71q0 34 -11 47t-44 13h-45v-131zM330 1210v-86h53q53 0 53 45q0 22 -12 31.5t-41 9.5h-53zM379 1444q149 0 242.5 -101.5t93.5 -246.5
q0 -151 -93.5 -251t-242.5 -100q-145 0 -241.5 100t-96.5 251q0 148 95 248t243 100zM379 1372q-122 0 -191 -80.5t-69 -197.5q0 -115 74.5 -195t185.5 -80q123 0 189.5 75.5t66.5 199.5q0 120 -71 199t-185 79z" />
    <glyph glyph-name="macron" unicode="&#xaf;" 
d="M121 1436h577v-158h-577v158z" />
    <glyph glyph-name="degree" unicode="&#xb0;" horiz-adv-x="671" 
d="M344 1401q127 0 204 -80.5t77 -196.5q0 -127 -83 -205.5t-202 -78.5q-122 0 -199.5 77.5t-77.5 198.5q0 123 80.5 204t200.5 81zM342 1296q-73 0 -114.5 -51t-41.5 -127q0 -73 43.5 -122.5t112.5 -49.5q73 0 116.5 49t43.5 127q0 70 -41.5 122t-118.5 52z" />
    <glyph glyph-name="plusminus" unicode="&#xb1;" horiz-adv-x="1460" 
d="M649 1376h164v-452h479v-160h-479v-459h-164v459h-481v160h481v452zM1294 0h-1126v162h1126v-162z" />
    <glyph glyph-name="two.sups" unicode="&#xb2;" horiz-adv-x="747" 
d="M680 879h-604v10q0 112 62.5 206t199.5 179q104 63 135 94t31 80q0 56 -33.5 89.5t-97.5 33.5q-126 0 -150 -141l-153 2q11 122 94 196t215 74q78 0 137 -24t91 -62.5t47.5 -79.5t15.5 -82q0 -49 -12 -85.5t-42 -68t-65 -55.5t-96 -59q-161 -96 -191 -178h441z" />
    <glyph glyph-name="three.sups" unicode="&#xb3;" horiz-adv-x="768" 
d="M303 1239v135h66q133 0 133 94q0 46 -32.5 77.5t-100.5 31.5q-70 0 -102 -32t-46 -81h-147q3 26 12 54t31 61.5t53.5 59.5t85 43.5t119.5 17.5q139 0 213 -63t74 -160q0 -63 -35.5 -104.5t-81.5 -57.5q61 -17 106 -67.5t45 -127.5q0 -48 -17 -91t-52.5 -80t-99 -59
t-148.5 -22q-73 0 -130.5 18.5t-91.5 45.5t-57 62.5t-31.5 64.5t-11.5 57h154q11 -53 56 -89t114 -36q72 0 110.5 35t38.5 92q0 121 -151 121h-76z" />
    <glyph glyph-name="acute" unicode="&#xb4;" 
d="M535 1522h245l-317 -312h-187z" />
    <glyph glyph-name="uni00B5" unicode="&#xb5;" horiz-adv-x="1142" 
d="M510 -20q-113 0 -176 79q6 -163 10 -477h-199q1 61 1 212t-0.5 336.5t-0.5 227.5v684h201v-643q0 -41 4.5 -75t18 -67.5t35 -56t57.5 -36.5t84 -14q116 0 183 79t67 244v569h200v-739q0 -252 4 -303h-194q-10 58 -10 156q-42 -88 -108 -132t-177 -44z" />
    <glyph glyph-name="paragraph" unicode="&#xb6;" horiz-adv-x="1245" 
d="M991 -319h-153v600h-254q-240 -1 -367 135.5t-127 382.5q0 240 125.5 377t362.5 137h260q5 101 8 117h147q-2 -39 -2 -164v-1585zM739 442h97v719h-95q-40 0 -70 -12t-49 -38t-31 -54t-18 -73t-8.5 -80.5t-3.5 -90.5q0 -163 15 -228q34 -143 163 -143z" />
    <glyph glyph-name="periodcentered" unicode="&#xb7;" horiz-adv-x="434" 
d="M324 410h-213v313h213v-313z" />
    <glyph glyph-name="cedilla" unicode="&#xb8;" 
d="M377 20l137 -20l-84 -102q33 -6 62 -17.5t61.5 -32.5t52 -58t19.5 -85q0 -59 -24 -101t-65 -63t-82.5 -30t-88.5 -9q-94 0 -150 25v129q58 -21 129 -21q107 0 107 68q0 84 -205 88v59z" />
    <glyph glyph-name="one.sups" unicode="&#xb9;" horiz-adv-x="516" 
d="M377 877h-164v626q-29 -14 -82.5 -25.5t-83.5 -11.5v123q126 20 219 113h111v-825z" />
    <glyph glyph-name="ordmasculine" unicode="&#xba;" horiz-adv-x="782" 
d="M395 1233q153 0 242.5 -96.5t89.5 -257.5q-1 -170 -96 -262.5t-246 -92.5q-147 0 -238.5 97t-91.5 256q0 163 95 259.5t245 96.5zM389 1114q-84 0 -130 -62t-46 -173q0 -106 47.5 -171t128.5 -65q87 0 133.5 59.5t46.5 176.5q-3 111 -48 173t-132 62z" />
    <glyph glyph-name="guillemotright" unicode="&#xbb;" horiz-adv-x="1140" 
d="M526 131l308 397l-308 402h187l313 -402l-313 -397h-187zM115 131l311 397l-311 402h190l309 -402l-309 -397h-190z" />
    <glyph glyph-name="onequarter" unicode="&#xbc;" horiz-adv-x="1611" 
d="M381 2h-154l879 1348h151zM397 535h-164v626q-29 -14 -82 -25.5t-83 -11.5v123q126 20 219 113h110v-825zM1430 0h-152v207h-404v123l363 479h193v-479h122l-12 -123h-110v-207zM1030 330h248v155q0 121 6 195q-15 -24 -60 -86t-105.5 -143.5t-88.5 -120.5z" />
    <glyph glyph-name="onehalf" unicode="&#xbd;" horiz-adv-x="1681" 
d="M377 0h-154l879 1348h151zM403 535h-163v626q-29 -14 -82.5 -25.5t-83.5 -11.5v123q126 20 219 113h110v-825zM1593 0h-604v10q0 112 62.5 206t199.5 179q104 63 135 94t31 80q0 56 -33.5 89.5t-97.5 33.5q-125 0 -149 -141l-154 2q11 122 94 196t215 74q78 0 137 -24
t91 -62.5t47.5 -79.5t15.5 -82q0 -49 -12 -85.5t-42 -68t-65 -55.5t-96 -59q-160 -96 -190 -178h440z" />
    <glyph glyph-name="threequarters" unicode="&#xbe;" horiz-adv-x="1783" 
d="M604 2h-153l878 1348h152zM1614 0h-152v207h-403v123l362 479h193v-479h123l-13 -123h-110v-207zM1214 330h248v155q0 121 6 195q-15 -24 -60 -86t-105.5 -143.5t-88.5 -120.5zM332 897v135h65q133 0 133 94q0 46 -32.5 77.5t-100.5 31.5q-70 0 -101.5 -31.5t-45.5 -81.5
h-148q3 26 12 54t31 61.5t53.5 59.5t85 43.5t119.5 17.5q139 0 213 -63t74 -160q0 -63 -35.5 -104.5t-81.5 -57.5q62 -17 107 -67.5t45 -127.5q0 -48 -17 -91t-52.5 -80t-99 -59t-148.5 -22q-73 0 -130.5 18.5t-91.5 45.5t-57 62.5t-31.5 64.5t-11.5 57h154q11 -53 56 -89
t114 -36q72 0 110.5 35t38.5 92q0 121 -151 121h-76z" />
    <glyph glyph-name="questiondown" unicode="&#xbf;" horiz-adv-x="927" 
d="M47 -39q0 108 42.5 193.5t150.5 183.5q74 68 103.5 124.5t29.5 127.5v18h209v-35q0 -91 -42 -170t-155 -182q-81 -73 -110 -132t-29 -126q0 -81 55.5 -142t157.5 -61q215 0 243 238h181q-1 -55 -13.5 -107t-44 -106.5t-78.5 -94.5t-124 -65.5t-174 -25.5
q-102 0 -181.5 31t-126.5 83t-70.5 115t-23.5 133zM373 1042h209v-292h-209v292z" />
    <glyph glyph-name="Agrave" unicode="&#xc0;" horiz-adv-x="1361" 
d="M950 408h-559l-143 -408h-211l502 1423h262l524 -1423h-225zM444 588h455q-208 576 -233 667h-2q-16 -55 -45 -144t-85.5 -256.5t-89.5 -266.5zM240 1831h262l274 -283h-198z" />
    <glyph glyph-name="Aacute" unicode="&#xc1;" horiz-adv-x="1361" 
d="M950 408h-559l-143 -408h-211l502 1423h262l524 -1423h-225zM444 588h455q-208 576 -233 667h-2q-16 -55 -45 -144t-85.5 -256.5t-89.5 -266.5zM858 1831h260l-354 -283h-203z" />
    <glyph glyph-name="Acircumflex" unicode="&#xc2;" horiz-adv-x="1361" 
d="M950 408h-559l-143 -408h-211l502 1423h262l524 -1423h-225zM444 588h455q-208 576 -233 667h-2q-16 -55 -45 -144t-85.5 -256.5t-89.5 -266.5zM571 1819h207l266 -271h-204l-166 164l-174 -164h-205z" />
    <glyph glyph-name="Atilde" unicode="&#xc3;" horiz-adv-x="1361" 
d="M950 408h-559l-143 -408h-211l502 1423h262l524 -1423h-225zM444 588h455q-208 576 -233 667h-2q-16 -55 -45 -144t-85.5 -256.5t-89.5 -266.5zM459 1565h-142v51q0 109 46 156t133 47q55 0 121 -26.5t121.5 -52.5t84.5 -26q30 0 46 19t16 67v21h137v-43
q0 -119 -45.5 -169t-134.5 -50q-50 0 -114 26.5t-121.5 53t-90.5 26.5q-57 0 -57 -66v-34z" />
    <glyph glyph-name="Adieresis" unicode="&#xc4;" horiz-adv-x="1361" 
d="M950 408h-559l-143 -408h-211l502 1423h262l524 -1423h-225zM444 588h455q-208 576 -233 667h-2q-16 -55 -45 -144t-85.5 -256.5t-89.5 -266.5zM555 1573h-172v231h172v-231zM956 1573h-170v231h170v-231z" />
    <glyph glyph-name="Aring" unicode="&#xc5;" horiz-adv-x="1361" 
d="M950 408h-559l-143 -408h-211l502 1423h262l524 -1423h-225zM444 588h455q-208 576 -233 667h-2q-16 -55 -45 -144t-85.5 -256.5t-89.5 -266.5zM670 1499q-102 0 -163 57t-61 144q0 86 60.5 144.5t163.5 58.5q102 0 162.5 -57t60.5 -144q0 -88 -61.5 -145.5t-161.5 -57.5
zM670 1597q50 0 77 30t27 73t-27 74.5t-77 31.5q-52 0 -78.5 -30t-26.5 -72q0 -44 26.5 -75.5t78.5 -31.5z" />
    <glyph glyph-name="AE" unicode="&#xc6;" horiz-adv-x="1990" 
d="M829 1423h1057v-182h-735v-405h702v-181h-702v-475h772l-27 -180h-952v469h-475l-289 -469h-227zM567 649h377v611h-6z" />
    <glyph glyph-name="Ccedilla" unicode="&#xc7;" horiz-adv-x="1415" 
d="M1114 410h211q-43 -174 -164.5 -287t-316.5 -137l-74 -88q33 -6 62 -17.5t61.5 -32.5t52 -58t19.5 -85q0 -59 -24 -101t-65 -63t-82.5 -30t-88.5 -9q-94 0 -150 25v129q58 -21 129 -21q107 0 107 68q0 84 -205 88v59l102 134q-188 15 -321.5 116t-197 256.5t-63.5 350.5
q0 148 41.5 279t120.5 234t206 163.5t286 60.5q125 0 227 -34.5t170.5 -95t110.5 -138t57 -168.5h-211q-19 59 -46.5 104t-69.5 82t-104 56.5t-142 19.5q-109 0 -193 -46.5t-133 -126.5t-73.5 -177t-24.5 -207q0 -85 14 -163t47 -150.5t81.5 -126t123 -85.5t166.5 -32
q77 0 138 21t102 59.5t67.5 79.5t46.5 94z" />
    <glyph glyph-name="Egrave" unicode="&#xc8;" horiz-adv-x="1230" 
d="M1094 834v-179h-703v-477h772l-26 -178h-953v1423h942v-180h-735v-409h703zM254 1849h262l275 -282h-199z" />
    <glyph glyph-name="Eacute" unicode="&#xc9;" horiz-adv-x="1230" 
d="M1094 834v-179h-703v-477h772l-26 -178h-953v1423h942v-180h-735v-409h703zM827 1845h260l-354 -282h-203z" />
    <glyph glyph-name="Ecircumflex" unicode="&#xca;" horiz-adv-x="1230" 
d="M1094 834v-179h-703v-477h772l-26 -178h-953v1423h942v-180h-735v-409h703zM557 1829h207l266 -270h-205l-166 163l-174 -163h-204z" />
    <glyph glyph-name="Edieresis" unicode="&#xcb;" horiz-adv-x="1230" 
d="M1094 834v-179h-703v-477h772l-26 -178h-953v1423h942v-180h-735v-409h703zM543 1581h-172v231h172v-231zM944 1581h-170v231h170v-231z" />
    <glyph glyph-name="Igrave" unicode="&#xcc;" horiz-adv-x="579" 
d="M184 1423h211v-1423h-211v1423zM-137 1837h262l274 -283h-198z" />
    <glyph glyph-name="Iacute" unicode="&#xcd;" horiz-adv-x="579" 
d="M184 1423h211v-1423h-211v1423zM479 1831h260l-354 -283h-203z" />
    <glyph glyph-name="Icircumflex" unicode="&#xce;" horiz-adv-x="579" 
d="M184 1423h211v-1423h-211v1423zM190 1819h207l267 -271h-205l-166 164l-174 -164h-205z" />
    <glyph glyph-name="Idieresis" unicode="&#xcf;" horiz-adv-x="579" 
d="M184 1423h211v-1423h-211v1423zM174 1573h-172v231h172v-231zM575 1573h-169v231h169v-231z" />
    <glyph glyph-name="Eth" unicode="&#xd0;" horiz-adv-x="1501" 
d="M37 809h168v614h518q303 0 488.5 -190.5t185.5 -505.5q0 -210 -82.5 -374.5t-238.5 -258.5t-361 -94h-510v653h-168v156zM416 1245v-436h354v-156h-354v-477h284q119 0 211 41t149 115.5t86.5 173t29.5 217.5q0 105 -28 196.5t-83 165.5t-148.5 117t-214.5 43h-286z" />
    <glyph glyph-name="Ntilde" unicode="&#xd1;" horiz-adv-x="1527" 
d="M383 0h-199v1423h275q59 -98 238.5 -392.5t302 -500t157.5 -274.5h2q-12 151 -12 637v530h196v-1423h-258q-601 1000 -710 1206h-4q12 -187 12 -663v-543zM553 1565h-141v51q0 109 45.5 156t132.5 47q55 0 121.5 -26.5t122 -52.5t84.5 -26q30 0 45.5 19t15.5 67v21h137
v-43q0 -119 -45.5 -169t-134.5 -50q-50 0 -114 26.5t-121.5 53t-90.5 26.5q-57 0 -57 -66v-34z" />
    <glyph glyph-name="Ograve" unicode="&#xd2;" horiz-adv-x="1544" 
d="M780 1444q198 0 348.5 -92.5t230 -256.5t79.5 -376q0 -150 -42.5 -282t-124.5 -234.5t-212.5 -162.5t-294.5 -60q-155 0 -281 56.5t-207.5 156t-125.5 232t-44 286.5t45 287.5t129 232.5t213 156t287 57zM772 1266q-112 0 -199 -43.5t-139.5 -119.5t-79 -173.5
t-26.5 -212.5q0 -114 28.5 -214.5t82.5 -178t140 -122t193 -44.5q93 0 168.5 30t126.5 81.5t85 123t49.5 152t15.5 170.5q0 115 -27.5 213.5t-81 174.5t-140 119.5t-196.5 43.5zM367 1858h262l274 -283h-198z" />
    <glyph glyph-name="Oacute" unicode="&#xd3;" horiz-adv-x="1544" 
d="M780 1444q198 0 348.5 -92.5t230 -256.5t79.5 -376q0 -150 -42.5 -282t-124.5 -234.5t-212.5 -162.5t-294.5 -60q-155 0 -281 56.5t-207.5 156t-125.5 232t-44 286.5t45 287.5t129 232.5t213 156t287 57zM772 1266q-112 0 -199 -43.5t-139.5 -119.5t-79 -173.5
t-26.5 -212.5q0 -114 28.5 -214.5t82.5 -178t140 -122t193 -44.5q93 0 168.5 30t126.5 81.5t85 123t49.5 152t15.5 170.5q0 115 -27.5 213.5t-81 174.5t-140 119.5t-196.5 43.5zM948 1845h260l-354 -282h-203z" />
    <glyph glyph-name="Ocircumflex" unicode="&#xd4;" horiz-adv-x="1544" 
d="M780 1444q198 0 348.5 -92.5t230 -256.5t79.5 -376q0 -150 -42.5 -282t-124.5 -234.5t-212.5 -162.5t-294.5 -60q-155 0 -281 56.5t-207.5 156t-125.5 232t-44 286.5t45 287.5t129 232.5t213 156t287 57zM772 1266q-112 0 -199 -43.5t-139.5 -119.5t-79 -173.5
t-26.5 -212.5q0 -114 28.5 -214.5t82.5 -178t140 -122t193 -44.5q93 0 168.5 30t126.5 81.5t85 123t49.5 152t15.5 170.5q0 115 -27.5 213.5t-81 174.5t-140 119.5t-196.5 43.5zM674 1825h207l266 -271h-205l-166 164l-174 -164h-205z" />
    <glyph glyph-name="Otilde" unicode="&#xd5;" horiz-adv-x="1544" 
d="M780 1444q198 0 348.5 -92.5t230 -256.5t79.5 -376q0 -150 -42.5 -282t-124.5 -234.5t-212.5 -162.5t-294.5 -60q-155 0 -281 56.5t-207.5 156t-125.5 232t-44 286.5t45 287.5t129 232.5t213 156t287 57zM772 1266q-112 0 -199 -43.5t-139.5 -119.5t-79 -173.5
t-26.5 -212.5q0 -114 28.5 -214.5t82.5 -178t140 -122t193 -44.5q93 0 168.5 30t126.5 81.5t85 123t49.5 152t15.5 170.5q0 115 -27.5 213.5t-81 174.5t-140 119.5t-196.5 43.5zM561 1573h-141v51q0 109 45.5 156t132.5 47q55 0 121.5 -26.5t122 -52.5t84.5 -26
q30 0 45.5 19t15.5 67v21h137v-43q0 -119 -45.5 -169t-134.5 -50q-50 0 -114 26.5t-121.5 53t-90.5 26.5q-57 0 -57 -65v-35z" />
    <glyph glyph-name="Odieresis" unicode="&#xd6;" horiz-adv-x="1544" 
d="M780 1444q198 0 348.5 -92.5t230 -256.5t79.5 -376q0 -150 -42.5 -282t-124.5 -234.5t-212.5 -162.5t-294.5 -60q-155 0 -281 56.5t-207.5 156t-125.5 232t-44 286.5t45 287.5t129 232.5t213 156t287 57zM772 1266q-112 0 -199 -43.5t-139.5 -119.5t-79 -173.5
t-26.5 -212.5q0 -114 28.5 -214.5t82.5 -178t140 -122t193 -44.5q93 0 168.5 30t126.5 81.5t85 123t49.5 152t15.5 170.5q0 115 -27.5 213.5t-81 174.5t-140 119.5t-196.5 43.5zM657 1581h-172v231h172v-231zM1059 1581h-170v231h170v-231z" />
    <glyph glyph-name="multiply" unicode="&#xd7;" horiz-adv-x="1460" 
d="M1286 123l-117 -123l-438 457l-438 -457l-117 123l438 455l-438 458l115 119l440 -457l440 457l115 -119l-438 -458z" />
    <glyph glyph-name="Oslash" unicode="&#xd8;" horiz-adv-x="1544" 
d="M780 1444q194 0 350 -94l54 73h153l-108 -151q102 -97 157.5 -240.5t55.5 -312.5q0 -153 -42.5 -285t-124.5 -234.5t-213.5 -161t-297.5 -58.5q-219 0 -377 114l-68 -94h-153l127 178q-91 99 -139 237t-48 296q0 151 46 284t130.5 233t213 158t284.5 58zM319 717
q0 -214 99 -367l604 848q-106 72 -250 72t-247.5 -71.5t-154.5 -195t-51 -286.5zM772 154q93 0 169 29t128.5 80.5t88 122.5t51.5 153.5t16 175.5q0 246 -113 395l-612 -858q116 -98 272 -98z" />
    <glyph glyph-name="Ugrave" unicode="&#xd9;" horiz-adv-x="1468" 
d="M170 1423h213v-856q0 -116 29.5 -200t81.5 -128t111 -63.5t130 -19.5q81 0 142.5 20.5t109.5 66.5t73 127.5t25 196.5v856h211v-843q0 -598 -565 -598q-94 0 -174.5 18t-153 60.5t-123 108.5t-80.5 167t-30 231v856zM330 1831h262l274 -283h-198z" />
    <glyph glyph-name="Uacute" unicode="&#xda;" horiz-adv-x="1468" 
d="M170 1423h213v-856q0 -116 29.5 -200t81.5 -128t111 -63.5t130 -19.5q81 0 142.5 20.5t109.5 66.5t73 127.5t25 196.5v856h211v-843q0 -598 -565 -598q-94 0 -174.5 18t-153 60.5t-123 108.5t-80.5 167t-30 231v856zM905 1831h260l-354 -283h-203z" />
    <glyph glyph-name="Ucircumflex" unicode="&#xdb;" horiz-adv-x="1468" 
d="M170 1423h213v-856q0 -116 29.5 -200t81.5 -128t111 -63.5t130 -19.5q81 0 142.5 20.5t109.5 66.5t73 127.5t25 196.5v856h211v-843q0 -598 -565 -598q-94 0 -174.5 18t-153 60.5t-123 108.5t-80.5 167t-30 231v856zM635 1833h207l266 -270h-205l-166 163l-174 -163h-205
z" />
    <glyph glyph-name="Udieresis" unicode="&#xdc;" horiz-adv-x="1468" 
d="M170 1423h213v-856q0 -116 29.5 -200t81.5 -128t111 -63.5t130 -19.5q81 0 142.5 20.5t109.5 66.5t73 127.5t25 196.5v856h211v-843q0 -598 -565 -598q-94 0 -174.5 18t-153 60.5t-123 108.5t-80.5 167t-30 231v856zM618 1573h-172v231h172v-231zM1020 1573h-170v231h170
v-231z" />
    <glyph glyph-name="Yacute" unicode="&#xdd;" horiz-adv-x="1220" 
d="M711 0h-213v518q0 21 -11 39l-499 866h241q354 -649 385 -710q52 108 394 710h225l-514 -868q-8 -16 -8 -37v-518zM786 1825h261l-355 -283h-203z" />
    <glyph glyph-name="Thorn" unicode="&#xde;" horiz-adv-x="1298" 
d="M184 0v1423h211v-276h320q121 0 215 -32t151.5 -89t87 -131t29.5 -162q0 -202 -133 -316t-367 -114h-303v-303h-211zM395 971v-492h293q141 0 220 57t79 193q0 118 -77 180t-216 62h-299z" />
    <glyph glyph-name="germandbls" unicode="&#xdf;" horiz-adv-x="1216" 
d="M623 1524q121 0 213.5 -34.5t145.5 -91.5t79.5 -123t28.5 -138q0 -33 -3 -68l-339 -231v-2l157 -111q137 -99 190.5 -185t53.5 -196q0 -162 -105.5 -262t-289.5 -100q-100 0 -182 26t-130 68v194q60 -62 142.5 -94.5t160.5 -32.5q106 0 155.5 53t49.5 128q0 67 -35.5 121
t-130.5 122l-182 129q-78 56 -78.5 119.5t80.5 118.5l281 194q1 30 -5.5 59t-25 61t-47 56.5t-77.5 40t-112 15.5q-130 0 -200 -65t-70 -222v-1073h-201v1085q0 116 36 202.5t102 137t150 75t188 24.5z" />
    <glyph glyph-name="agrave" unicode="&#xe0;" horiz-adv-x="1093" 
d="M942 723v-487q0 -168 14 -236h-190q-11 31 -18 129q-79 -154 -316 -154q-89 0 -159 27.5t-111 73.5t-61.5 102t-20.5 117q0 171 128 256.5t365 85.5h172v84q0 38 -8 68t-28.5 60t-64.5 47t-109 17q-59 0 -100 -12.5t-62.5 -38t-31.5 -49t-17 -59.5h-195q6 62 28.5 114
t68 99t126 74t189.5 26q401 0 401 -344zM748 469v33h-160q-153 0 -228 -47t-75 -148q0 -79 51 -128.5t141 -49.5q69 0 119.5 19t79 48.5t45.5 76.5t22 91.5t5 104.5zM166 1522h248l256 -312h-187z" />
    <glyph glyph-name="aacute" unicode="&#xe1;" horiz-adv-x="1093" 
d="M942 723v-487q0 -168 14 -236h-190q-11 31 -18 129q-79 -154 -316 -154q-89 0 -159 27.5t-111 73.5t-61.5 102t-20.5 117q0 171 128 256.5t365 85.5h172v84q0 38 -8 68t-28.5 60t-64.5 47t-109 17q-59 0 -100 -12.5t-62.5 -38t-31.5 -49t-17 -59.5h-195q6 62 28.5 114
t68 99t126 74t189.5 26q401 0 401 -344zM748 469v33h-160q-153 0 -228 -47t-75 -148q0 -79 51 -128.5t141 -49.5q69 0 119.5 19t79 48.5t45.5 76.5t22 91.5t5 104.5zM674 1522h246l-318 -312h-186z" />
    <glyph glyph-name="acircumflex" unicode="&#xe2;" horiz-adv-x="1093" 
d="M942 723v-487q0 -168 14 -236h-190q-11 31 -18 129q-79 -154 -316 -154q-89 0 -159 27.5t-111 73.5t-61.5 102t-20.5 117q0 171 128 256.5t365 85.5h172v84q0 38 -8 68t-28.5 60t-64.5 47t-109 17q-59 0 -100 -12.5t-62.5 -38t-31.5 -49t-17 -59.5h-195q6 62 28.5 114
t68 99t126 74t189.5 26q401 0 401 -344zM748 469v33h-160q-153 0 -228 -47t-75 -148q0 -79 51 -128.5t141 -49.5q69 0 119.5 19t79 48.5t45.5 76.5t22 91.5t5 104.5zM455 1501h186l229 -309h-192l-131 197l-129 -197h-191z" />
    <glyph glyph-name="atilde" unicode="&#xe3;" horiz-adv-x="1093" 
d="M942 723v-487q0 -168 14 -236h-190q-11 31 -18 129q-79 -154 -316 -154q-89 0 -159 27.5t-111 73.5t-61.5 102t-20.5 117q0 171 128 256.5t365 85.5h172v84q0 38 -8 68t-28.5 60t-64.5 47t-109 17q-59 0 -100 -12.5t-62.5 -38t-31.5 -49t-17 -59.5h-195q6 62 28.5 114
t68 99t126 74t189.5 26q401 0 401 -344zM748 469v33h-160q-153 0 -228 -47t-75 -148q0 -79 51 -128.5t141 -49.5q69 0 119.5 19t79 48.5t45.5 76.5t22 91.5t5 104.5zM362 1233h-139v51q0 203 172 203q50 0 106 -24.5t103 -49t76 -24.5t43 18t14 63v21h135v-45
q0 -215 -176 -215q-51 0 -103.5 24.5t-98 49t-78.5 24.5q-54 0 -54 -63v-33z" />
    <glyph glyph-name="adieresis" unicode="&#xe4;" horiz-adv-x="1093" 
d="M942 723v-487q0 -168 14 -236h-190q-11 31 -18 129q-79 -154 -316 -154q-89 0 -159 27.5t-111 73.5t-61.5 102t-20.5 117q0 171 128 256.5t365 85.5h172v84q0 38 -8 68t-28.5 60t-64.5 47t-109 17q-59 0 -100 -12.5t-62.5 -38t-31.5 -49t-17 -59.5h-195q6 62 28.5 114
t68 99t126 74t189.5 26q401 0 401 -344zM748 469v33h-160q-153 0 -228 -47t-75 -148q0 -79 51 -128.5t141 -49.5q69 0 119.5 19t79 48.5t45.5 76.5t22 91.5t5 104.5zM444 1270h-172v231h172v-231zM823 1270h-170v231h170v-231z" />
    <glyph glyph-name="aring" unicode="&#xe5;" horiz-adv-x="1093" 
d="M942 723v-487q0 -168 14 -236h-190q-11 31 -18 129q-79 -154 -316 -154q-89 0 -159 27.5t-111 73.5t-61.5 102t-20.5 117q0 171 128 256.5t365 85.5h172v84q0 38 -8 68t-28.5 60t-64.5 47t-109 17q-59 0 -100 -12.5t-62.5 -38t-31.5 -49t-17 -59.5h-195q6 62 28.5 114
t68 99t126 74t189.5 26q401 0 401 -344zM748 469v33h-160q-153 0 -228 -47t-75 -148q0 -79 51 -128.5t141 -49.5q69 0 119.5 19t79 48.5t45.5 76.5t22 91.5t5 104.5zM549 1161q-102 0 -162.5 57t-60.5 144q0 86 60.5 144.5t162.5 58.5t162.5 -57t60.5 -144
q0 -88 -61.5 -145.5t-161.5 -57.5zM549 1260q50 0 77 29.5t27 72.5t-27 74.5t-77 31.5q-52 0 -78.5 -30t-26.5 -72q0 -44 26.5 -75t78.5 -31z" />
    <glyph glyph-name="ae" unicode="&#xe6;" horiz-adv-x="1748" 
d="M1462 297h201q-14 -49 -35 -91.5t-57.5 -85.5t-84.5 -73t-118.5 -48.5t-155.5 -18.5q-148 0 -243 56.5t-142 139.5q-112 -196 -381 -196q-176 0 -271 91.5t-95 225.5q0 61 18 110t47.5 83t74.5 59.5t91.5 40.5t105.5 24t111 12t113 3h113v86q0 200 -199 200
q-101 0 -148.5 -41.5t-60.5 -121.5h-213q12 147 117.5 229t290.5 82q133 0 221.5 -40.5t122.5 -117.5q49 69 137.5 113.5t210.5 44.5q91 0 166.5 -27.5t125.5 -73t84.5 -107.5t50 -129t15.5 -138q0 -17 -1 -51t-1 -48h-729q-2 -161 72.5 -256.5t204.5 -95.5q100 0 155 40
t86 120zM754 467v22h-123q-84 0 -143.5 -7.5t-108 -27t-72.5 -56t-24 -91.5q0 -70 54.5 -119t145.5 -49q147 0 209 83.5t62 244.5zM948 629h529q-3 124 -66 200.5t-188 77.5q-121 1 -192 -71.5t-83 -206.5z" />
    <glyph glyph-name="ccedilla" unicode="&#xe7;" horiz-adv-x="1048" 
d="M788 322h199q-15 -62 -40.5 -114.5t-65.5 -99.5t-99.5 -79t-134.5 -45l-69 -86q33 -6 62 -17.5t61.5 -32.5t51.5 -58t19 -85q0 -59 -24 -101t-65 -63t-82.5 -30t-88.5 -9q-94 0 -150 25v129q23 -8 64.5 -14.5t65.5 -6.5q106 0 106 68q0 84 -205 88v59l99 127
q-193 20 -302.5 164t-109.5 375q0 112 32 211.5t91.5 175.5t152.5 120t207 44q88 0 161 -24.5t119 -61.5t78.5 -85.5t47 -93t18.5 -87.5h-199q-42 186 -229 186q-129 0 -200.5 -102.5t-71.5 -276.5q0 -177 70 -280t196 -103q173 0 235 183z" />
    <glyph glyph-name="egrave" unicode="&#xe8;" horiz-adv-x="1083" 
d="M1006 483h-725q2 -152 73.5 -247t196.5 -95q56 0 98 12.5t68.5 36.5t41.5 47t29 56h203q-14 -45 -33.5 -85t-56.5 -84t-83.5 -75.5t-117 -52.5t-155.5 -21q-96 0 -175 30t-132.5 80.5t-90 119.5t-53 145.5t-16.5 159.5q0 119 30 219.5t88 176t150.5 118.5t210.5 43
q98 0 177 -30t129.5 -79t84.5 -115t48 -134t14 -140q0 -57 -4 -86zM287 621h520q-2 128 -66 209t-186 81q-241 0 -268 -290zM174 1522h248l256 -312h-186z" />
    <glyph glyph-name="eacute" unicode="&#xe9;" horiz-adv-x="1083" 
d="M1006 483h-725q2 -152 73.5 -247t196.5 -95q56 0 98 12.5t68.5 36.5t41.5 47t29 56h203q-14 -45 -33.5 -85t-56.5 -84t-83.5 -75.5t-117 -52.5t-155.5 -21q-96 0 -175 30t-132.5 80.5t-90 119.5t-53 145.5t-16.5 159.5q0 119 30 219.5t88 176t150.5 118.5t210.5 43
q98 0 177 -30t129.5 -79t84.5 -115t48 -134t14 -140q0 -57 -4 -86zM287 621h520q-2 128 -66 209t-186 81q-241 0 -268 -290zM680 1522h246l-318 -312h-186z" />
    <glyph glyph-name="ecircumflex" unicode="&#xea;" horiz-adv-x="1083" 
d="M1006 483h-725q2 -152 73.5 -247t196.5 -95q56 0 98 12.5t68.5 36.5t41.5 47t29 56h203q-14 -45 -33.5 -85t-56.5 -84t-83.5 -75.5t-117 -52.5t-155.5 -21q-96 0 -175 30t-132.5 80.5t-90 119.5t-53 145.5t-16.5 159.5q0 119 30 219.5t88 176t150.5 118.5t210.5 43
q98 0 177 -30t129.5 -79t84.5 -115t48 -134t14 -140q0 -57 -4 -86zM287 621h520q-2 128 -66 209t-186 81q-241 0 -268 -290zM469 1501h186l230 -309h-193l-131 197l-129 -197h-190z" />
    <glyph glyph-name="edieresis" unicode="&#xeb;" horiz-adv-x="1083" 
d="M1006 483h-725q2 -152 73.5 -247t196.5 -95q56 0 98 12.5t68.5 36.5t41.5 47t29 56h203q-14 -45 -33.5 -85t-56.5 -84t-83.5 -75.5t-117 -52.5t-155.5 -21q-96 0 -175 30t-132.5 80.5t-90 119.5t-53 145.5t-16.5 159.5q0 119 30 219.5t88 176t150.5 118.5t210.5 43
q98 0 177 -30t129.5 -79t84.5 -115t48 -134t14 -140q0 -57 -4 -86zM287 621h520q-2 128 -66 209t-186 81q-241 0 -268 -290zM446 1270h-172v231h172v-231zM825 1270h-170v231h170v-231z" />
    <glyph glyph-name="igrave" unicode="&#xec;" horiz-adv-x="499" 
d="M150 0v1042h200v-1042h-200zM-158 1522h248l256 -312h-186z" />
    <glyph glyph-name="iacute" unicode="&#xed;" horiz-adv-x="499" 
d="M150 0v1042h200v-1042h-200zM408 1522h245l-317 -312h-186z" />
    <glyph glyph-name="icircumflex" unicode="&#xee;" horiz-adv-x="499" 
d="M150 0v1042h200v-1042h-200zM156 1501h186l229 -309h-192l-131 197l-129 -197h-191z" />
    <glyph glyph-name="idieresis" unicode="&#xef;" horiz-adv-x="499" 
d="M150 0v1042h200v-1042h-200zM145 1270h-172v231h172v-231zM524 1270h-170v231h170v-231z" />
    <glyph glyph-name="eth" unicode="&#xf0;" horiz-adv-x="1114" 
d="M211 1368v156q220 -27 397 -127l219 151l60 -100l-176 -121q155 -120 239 -305t84 -428q0 -157 -37 -277.5t-103.5 -194t-155 -110.5t-195.5 -37q-146 0 -253.5 71t-161.5 190t-54 270q0 238 137.5 378t349.5 140q120 0 205 -61q-65 159 -205 262l-254 -174l-61 98
l207 141q-111 52 -242 78zM563 858q-133 0 -210 -101t-77 -259q0 -150 74.5 -253.5t202.5 -103.5q138 0 208 113.5t70 310.5q0 132 -63.5 212.5t-204.5 80.5z" />
    <glyph glyph-name="ntilde" unicode="&#xf1;" horiz-adv-x="1169" 
d="M150 0v780q0 142 -3 262h197q8 -62 8 -163q85 188 322 188q157 0 252.5 -100t95.5 -297v-670h-201v645q0 252 -211 252q-132 0 -195 -90t-63 -250v-557h-202zM393 1241h-139v51q0 203 172 203q50 0 106 -24.5t103 -49t76 -24.5t43 18.5t14 63.5v20h135v-45
q0 -215 -176 -215q-51 0 -103.5 24.5t-98.5 49t-79 24.5q-53 0 -53 -63v-33z" />
    <glyph glyph-name="ograve" unicode="&#xf2;" horiz-adv-x="1136" 
d="M575 1067q219 0 351.5 -149t132.5 -394q0 -115 -32.5 -214.5t-94 -174t-156.5 -117.5t-213 -43q-148 0 -259 71t-168.5 194t-57.5 280q0 239 133 393t364 154zM567 901q-136 0 -209 -101t-73 -278q0 -170 77 -275.5t209 -105.5q133 0 208 102.5t75 276.5
q0 176 -75.5 278.5t-211.5 102.5zM188 1522h248l256 -312h-186z" />
    <glyph glyph-name="oacute" unicode="&#xf3;" horiz-adv-x="1136" 
d="M575 1067q219 0 351.5 -149t132.5 -394q0 -115 -32.5 -214.5t-94 -174t-156.5 -117.5t-213 -43q-148 0 -259 71t-168.5 194t-57.5 280q0 239 133 393t364 154zM567 901q-136 0 -209 -101t-73 -278q0 -170 77 -275.5t209 -105.5q133 0 208 102.5t75 276.5
q0 176 -75.5 278.5t-211.5 102.5zM696 1522h246l-317 -312h-187z" />
    <glyph glyph-name="ocircumflex" unicode="&#xf4;" horiz-adv-x="1136" 
d="M575 1067q219 0 351.5 -149t132.5 -394q0 -115 -32.5 -214.5t-94 -174t-156.5 -117.5t-213 -43q-148 0 -259 71t-168.5 194t-57.5 280q0 239 133 393t364 154zM567 901q-136 0 -209 -101t-73 -278q0 -170 77 -275.5t209 -105.5q133 0 208 102.5t75 276.5
q0 176 -75.5 278.5t-211.5 102.5zM473 1501h186l230 -309h-193l-131 197l-129 -197h-190z" />
    <glyph glyph-name="otilde" unicode="&#xf5;" horiz-adv-x="1136" 
d="M575 1067q219 0 351.5 -149t132.5 -394q0 -115 -32.5 -214.5t-94 -174t-156.5 -117.5t-213 -43q-148 0 -259 71t-168.5 194t-57.5 280q0 239 133 393t364 154zM567 901q-136 0 -209 -101t-73 -278q0 -170 77 -275.5t209 -105.5q133 0 208 102.5t75 276.5
q0 176 -75.5 278.5t-211.5 102.5zM381 1233h-139v51q0 203 172 203q50 0 105.5 -24.5t102.5 -49t76 -24.5t43.5 18t14.5 63v21h135v-45q0 -215 -176 -215q-51 0 -103.5 24.5t-98.5 49t-79 24.5q-53 0 -53 -63v-33z" />
    <glyph glyph-name="odieresis" unicode="&#xf6;" horiz-adv-x="1136" 
d="M575 1067q219 0 351.5 -149t132.5 -394q0 -115 -32.5 -214.5t-94 -174t-156.5 -117.5t-213 -43q-148 0 -259 71t-168.5 194t-57.5 280q0 239 133 393t364 154zM567 901q-136 0 -209 -101t-73 -278q0 -170 77 -275.5t209 -105.5q133 0 208 102.5t75 276.5
q0 176 -75.5 278.5t-211.5 102.5zM463 1270h-172v231h172v-231zM842 1270h-170v231h170v-231z" />
    <glyph glyph-name="divide" unicode="&#xf7;" horiz-adv-x="1460" 
d="M817 0h-176v268h176v-268zM1292 489h-1124v175h1124v-175zM817 877h-176v272h176v-272z" />
    <glyph glyph-name="oslash" unicode="&#xf8;" horiz-adv-x="1136" 
d="M578 1067q158 0 268 -78l47 66h127l-96 -133q137 -146 137 -402q0 -249 -137 -398t-363 -149q-151 0 -266 76l-49 -69h-127l98 137q-141 150 -141 401q0 252 140 400.5t362 148.5zM567 911q-140 0 -216.5 -104.5t-76.5 -284.5q0 -147 56 -248l415 576q-70 61 -178 61z
M569 129q135 0 214 104t79 285q0 156 -51 248l-414 -576q74 -61 172 -61z" />
    <glyph glyph-name="ugrave" unicode="&#xf9;" horiz-adv-x="1150" 
d="M1001 1042v-739q0 -54 1.5 -163.5t1.5 -139.5h-197q-6 40 -6 150q-82 -175 -309 -175q-72 0 -132 20t-109.5 63t-77.5 119.5t-28 180.5v684h201v-641q0 -254 205 -254q135 0 192.5 81t57.5 270v544h200zM195 1522h247l256 -312h-186z" />
    <glyph glyph-name="uacute" unicode="&#xfa;" horiz-adv-x="1150" 
d="M1001 1042v-739q0 -54 1.5 -163.5t1.5 -139.5h-197q-6 40 -6 150q-82 -175 -309 -175q-72 0 -132 20t-109.5 63t-77.5 119.5t-28 180.5v684h201v-641q0 -254 205 -254q135 0 192.5 81t57.5 270v544h200zM711 1522h245l-317 -312h-186z" />
    <glyph glyph-name="ucircumflex" unicode="&#xfb;" horiz-adv-x="1150" 
d="M1001 1042v-739q0 -54 1.5 -163.5t1.5 -139.5h-197q-6 40 -6 150q-82 -175 -309 -175q-72 0 -132 20t-109.5 63t-77.5 119.5t-28 180.5v684h201v-641q0 -254 205 -254q135 0 192.5 81t57.5 270v544h200zM481 1501h187l229 -309h-192l-132 197l-129 -197h-190z" />
    <glyph glyph-name="udieresis" unicode="&#xfc;" horiz-adv-x="1150" 
d="M1001 1042v-739q0 -54 1.5 -163.5t1.5 -139.5h-197q-6 40 -6 150q-82 -175 -309 -175q-72 0 -132 20t-109.5 63t-77.5 119.5t-28 180.5v684h201v-641q0 -254 205 -254q135 0 192.5 81t57.5 270v544h200zM471 1270h-172v231h172v-231zM850 1270h-170v231h170v-231z" />
    <glyph glyph-name="yacute" unicode="&#xfd;" horiz-adv-x="999" 
d="M18 1042h218q231 -688 276 -862h2q53 202 264 862h203l-371 -1087q-78 -229 -159 -306t-246 -77q-53 0 -117 6v172q41 -6 84 -6q94 0 143 46.5t93 170.5zM631 1522h246l-318 -312h-186z" />
    <glyph glyph-name="thorn" unicode="&#xfe;" horiz-adv-x="1177" 
d="M350 -418h-200v1919h200v-614q97 176 328 176q90 0 167 -35t133.5 -100.5t88.5 -163.5t33 -219q0 -265 -132 -416.5t-333 -151.5q-200 0 -285 144v-539zM893 537q0 168 -73.5 263t-196.5 95q-96 0 -161 -51t-93.5 -133t-28.5 -189q0 -375 270 -375q132 0 207.5 103
t75.5 287z" />
    <glyph glyph-name="ydieresis" unicode="&#xff;" horiz-adv-x="999" 
d="M18 1042h218q231 -688 276 -862h2q53 202 264 862h203l-371 -1087q-78 -229 -159 -306t-246 -77q-53 0 -117 6v172q41 -6 84 -6q94 0 143 46.5t93 170.5zM395 1270h-172v231h172v-231zM774 1270h-170v231h170v-231z" />
    <glyph glyph-name="Amacron" unicode="&#x100;" horiz-adv-x="1361" 
d="M950 408h-559l-143 -408h-211l502 1423h262l524 -1423h-225zM444 588h455q-208 576 -233 667h-2q-16 -55 -45 -144t-85.5 -256.5t-89.5 -266.5zM381 1737h586v-154h-586v154z" />
    <glyph glyph-name="amacron" unicode="&#x101;" horiz-adv-x="1093" 
d="M942 723v-487q0 -168 14 -236h-190q-11 31 -18 129q-79 -154 -316 -154q-89 0 -159 27.5t-111 73.5t-61.5 102t-20.5 117q0 171 128 256.5t365 85.5h172v84q0 38 -8 68t-28.5 60t-64.5 47t-109 17q-59 0 -100 -12.5t-62.5 -38t-31.5 -49t-17 -59.5h-195q6 62 28.5 114
t68 99t126 74t189.5 26q401 0 401 -344zM748 469v33h-160q-153 0 -228 -47t-75 -148q0 -79 51 -128.5t141 -49.5q69 0 119.5 19t79 48.5t45.5 76.5t22 91.5t5 104.5zM260 1436h578v-158h-578v158z" />
    <glyph glyph-name="Abreve" unicode="&#x102;" horiz-adv-x="1361" 
d="M950 408h-559l-143 -408h-211l502 1423h262l524 -1423h-225zM444 588h455q-208 576 -233 667h-2q-16 -55 -45 -144t-85.5 -256.5t-89.5 -266.5zM352 1810h152q11 -59 56.5 -95t115.5 -36q148 0 174 131h149q-19 -120 -100 -196t-225 -76q-79 0 -140.5 23.5t-98.5 63
t-57.5 86.5t-25.5 99z" />
    <glyph glyph-name="abreve" unicode="&#x103;" horiz-adv-x="1093" 
d="M942 723v-487q0 -168 14 -236h-190q-11 31 -18 129q-79 -154 -316 -154q-89 0 -159 27.5t-111 73.5t-61.5 102t-20.5 117q0 171 128 256.5t365 85.5h172v84q0 38 -8 68t-28.5 60t-64.5 47t-109 17q-59 0 -100 -12.5t-62.5 -38t-31.5 -49t-17 -59.5h-195q6 62 28.5 114
t68 99t126 74t189.5 26q401 0 401 -344zM748 469v33h-160q-153 0 -228 -47t-75 -148q0 -79 51 -128.5t141 -49.5q69 0 119.5 19t79 48.5t45.5 76.5t22 91.5t5 104.5zM246 1483h145q15 -61 53.5 -98t102.5 -37q76 0 109.5 35.5t50.5 99.5h143q-16 -126 -92.5 -205.5
t-210.5 -79.5q-74 0 -132 24.5t-93 66.5t-53.5 90.5t-22.5 103.5z" />
    <glyph glyph-name="Aogonek" unicode="&#x104;" horiz-adv-x="1361" 
d="M950 408h-559l-143 -408h-211l502 1423h262l524 -1423h-12q-133 -108 -133 -211q0 -49 31 -76.5t81 -27.5q67 0 113 16v-150q-60 -32 -168 -32q-113 0 -178.5 60t-65.5 167q0 127 123 254h-16zM444 588h455q-208 576 -233 667h-2q-16 -55 -45 -144t-85.5 -256.5
t-89.5 -266.5z" />
    <glyph glyph-name="aogonek" unicode="&#x105;" horiz-adv-x="1093" 
d="M942 723v-487q0 -168 14 -236q-133 -108 -133 -211q0 -49 31 -76.5t82 -27.5q67 0 113 16v-150q-60 -32 -168 -32q-113 0 -178.5 60t-65.5 167q0 131 127 258q-10 40 -16 125q-79 -154 -316 -154q-89 0 -159 27.5t-111 73.5t-61.5 102t-20.5 117q0 171 128 256.5
t365 85.5h172v84q0 38 -8 68t-28.5 60t-64.5 47t-109 17q-59 0 -100 -12.5t-62.5 -38t-31.5 -49t-17 -59.5h-195q6 62 28.5 114t68 99t126 74t189.5 26q401 0 401 -344zM748 469v33h-160q-153 0 -228 -47t-75 -148q0 -79 51 -128.5t141 -49.5q69 0 119.5 19t79 48.5
t45.5 76.5t22 91.5t5 104.5z" />
    <glyph glyph-name="Cacute" unicode="&#x106;" horiz-adv-x="1415" 
d="M1114 410h211q-48 -195 -192.5 -311.5t-380.5 -116.5q-157 0 -281.5 56.5t-203.5 155.5t-120 229.5t-41 283.5q0 148 41.5 279t120.5 234t206 163.5t286 60.5q125 0 227 -34.5t170.5 -95t110.5 -138t57 -168.5h-211q-19 59 -46.5 104t-69.5 82t-104 56.5t-142 19.5
q-109 0 -193 -46.5t-133 -126.5t-73.5 -177t-24.5 -207q0 -85 14 -163t47 -150.5t81.5 -126t123 -85.5t166.5 -32q77 0 138 21t102 59.5t67.5 79.5t46.5 94zM897 1841h260l-354 -282h-203z" />
    <glyph glyph-name="cacute" unicode="&#x107;" horiz-adv-x="1048" 
d="M788 322h199q-17 -71 -49 -130t-82.5 -109.5t-129 -79t-177.5 -28.5q-219 0 -344 146t-125 395q0 112 32 211.5t91.5 175.5t152.5 120t207 44q88 0 161 -24.5t119 -61.5t78.5 -85.5t47 -93t18.5 -87.5h-199q-42 186 -229 186q-129 0 -200.5 -102.5t-71.5 -276.5
q0 -177 70 -280t196 -103q173 0 235 183zM678 1522h246l-318 -312h-186z" />
    <glyph glyph-name="Ccircumflex" unicode="&#x108;" horiz-adv-x="1415" 
d="M1114 410h211q-48 -195 -192.5 -311.5t-380.5 -116.5q-157 0 -281.5 56.5t-203.5 155.5t-120 229.5t-41 283.5q0 148 41.5 279t120.5 234t206 163.5t286 60.5q125 0 227 -34.5t170.5 -95t110.5 -138t57 -168.5h-211q-19 59 -46.5 104t-69.5 82t-104 56.5t-142 19.5
q-109 0 -193 -46.5t-133 -126.5t-73.5 -177t-24.5 -207q0 -85 14 -163t47 -150.5t81.5 -126t123 -85.5t166.5 -32q77 0 138 21t102 59.5t67.5 79.5t46.5 94zM643 1823h207l266 -271h-205l-166 164l-174 -164h-204z" />
    <glyph glyph-name="ccircumflex" unicode="&#x109;" horiz-adv-x="1048" 
d="M788 322h199q-17 -71 -49 -130t-82.5 -109.5t-129 -79t-177.5 -28.5q-219 0 -344 146t-125 395q0 112 32 211.5t91.5 175.5t152.5 120t207 44q88 0 161 -24.5t119 -61.5t78.5 -85.5t47 -93t18.5 -87.5h-199q-42 186 -229 186q-129 0 -200.5 -102.5t-71.5 -276.5
q0 -177 70 -280t196 -103q173 0 235 183zM461 1501h186l230 -309h-193l-131 197l-129 -197h-191z" />
    <glyph glyph-name="Cdotaccent" unicode="&#x10a;" horiz-adv-x="1415" 
d="M1114 410h211q-48 -195 -192.5 -311.5t-380.5 -116.5q-157 0 -281.5 56.5t-203.5 155.5t-120 229.5t-41 283.5q0 148 41.5 279t120.5 234t206 163.5t286 60.5q125 0 227 -34.5t170.5 -95t110.5 -138t57 -168.5h-211q-19 59 -46.5 104t-69.5 82t-104 56.5t-142 19.5
q-109 0 -193 -46.5t-133 -126.5t-73.5 -177t-24.5 -207q0 -85 14 -163t47 -150.5t81.5 -126t123 -85.5t166.5 -32q77 0 138 21t102 59.5t67.5 79.5t46.5 94zM842 1589h-205v230h205v-230z" />
    <glyph glyph-name="cdotaccent" unicode="&#x10b;" horiz-adv-x="1048" 
d="M788 322h199q-17 -71 -49 -130t-82.5 -109.5t-129 -79t-177.5 -28.5q-219 0 -344 146t-125 395q0 112 32 211.5t91.5 175.5t152.5 120t207 44q88 0 161 -24.5t119 -61.5t78.5 -85.5t47 -93t18.5 -87.5h-199q-42 186 -229 186q-129 0 -200.5 -102.5t-71.5 -276.5
q0 -177 70 -280t196 -103q173 0 235 183zM655 1270h-200v231h200v-231z" />
    <glyph glyph-name="Ccaron" unicode="&#x10c;" horiz-adv-x="1415" 
d="M1114 410h211q-48 -195 -192.5 -311.5t-380.5 -116.5q-157 0 -281.5 56.5t-203.5 155.5t-120 229.5t-41 283.5q0 148 41.5 279t120.5 234t206 163.5t286 60.5q125 0 227 -34.5t170.5 -95t110.5 -138t57 -168.5h-211q-19 59 -46.5 104t-69.5 82t-104 56.5t-142 19.5
q-109 0 -193 -46.5t-133 -126.5t-73.5 -177t-24.5 -207q0 -85 14 -163t47 -150.5t81.5 -126t123 -85.5t166.5 -32q77 0 138 21t102 59.5t67.5 79.5t46.5 94zM850 1552h-199l-270 271h205l166 -164l174 164h204z" />
    <glyph glyph-name="ccaron" unicode="&#x10d;" horiz-adv-x="1048" 
d="M788 322h199q-17 -71 -49 -130t-82.5 -109.5t-129 -79t-177.5 -28.5q-219 0 -344 146t-125 395q0 112 32 211.5t91.5 175.5t152.5 120t207 44q88 0 161 -24.5t119 -61.5t78.5 -85.5t47 -93t18.5 -87.5h-199q-42 186 -229 186q-129 0 -200.5 -102.5t-71.5 -276.5
q0 -177 70 -280t196 -103q173 0 235 183zM649 1192h-188l-228 309h193l131 -194l127 194h193z" />
    <glyph glyph-name="Dcaron" unicode="&#x10e;" horiz-adv-x="1482" 
d="M184 0v1423h518q303 0 488.5 -190.5t185.5 -505.5q0 -210 -82.5 -374.5t-238.5 -258.5t-361 -94h-510zM395 1245v-1069h285q119 0 210.5 41t149 115.5t86.5 173t29 217.5q0 105 -27.5 196.5t-83 165.5t-148.5 117t-214 43h-287zM762 1556h-199l-270 271h205l166 -164
l174 164h204z" />
    <glyph glyph-name="dcaron" unicode="&#x10f;" horiz-adv-x="1269" 
d="M834 1501h200v-1208q0 -193 2 -293h-194q-8 58 -8 141q-81 -166 -322 -166q-199 0 -316.5 147.5t-117.5 387.5q0 161 56 287t163 198t250 72q120 0 190.5 -37.5t96.5 -89.5v561zM287 516q0 -177 74 -275t196 -98q85 0 143 30t87.5 87t41 122t11.5 153q0 71 -6.5 123.5
t-23.5 100t-47 77t-78 46.5t-114 17q-134 0 -209 -100.5t-75 -282.5zM1309 983h-144l-8 518h162z" />
    <glyph glyph-name="Dcroat" unicode="&#x110;" horiz-adv-x="1501" 
d="M37 809h168v614h518q303 0 488.5 -190.5t185.5 -505.5q0 -210 -82.5 -374.5t-238.5 -258.5t-361 -94h-510v653h-168v156zM416 1245v-436h354v-156h-354v-477h284q119 0 211 41t149 115.5t86.5 173t29.5 217.5q0 105 -28 196.5t-83 165.5t-148.5 117t-214.5 43h-286z" />
    <glyph glyph-name="dcroat" unicode="&#x111;" horiz-adv-x="1181" 
d="M834 1501h200v-170h140v-131h-140v-907q0 -193 2 -293h-194q-8 58 -8 152q-42 -87 -119 -132t-207 -45q-134 0 -233 72.5t-148 191t-49 265.5q0 153 55 277.5t163.5 200t250.5 75.5q123 0 192 -40.5t95 -94.5v278h-461v131h461v170zM287 516q0 -169 75 -270t195 -101
q283 0 283 390q0 75 -11.5 133t-39.5 110t-82.5 80.5t-133.5 28.5q-131 0 -208.5 -97.5t-77.5 -273.5z" />
    <glyph glyph-name="Emacron" unicode="&#x112;" horiz-adv-x="1230" 
d="M1094 834v-179h-703v-477h772l-26 -178h-953v1423h942v-180h-735v-409h703zM367 1759h585v-153h-585v153z" />
    <glyph glyph-name="emacron" unicode="&#x113;" horiz-adv-x="1083" 
d="M1006 483h-725q2 -152 73.5 -247t196.5 -95q56 0 98 12.5t68.5 36.5t41.5 47t29 56h203q-14 -45 -33.5 -85t-56.5 -84t-83.5 -75.5t-117 -52.5t-155.5 -21q-96 0 -175 30t-132.5 80.5t-90 119.5t-53 145.5t-16.5 159.5q0 119 30 219.5t88 176t150.5 118.5t210.5 43
q98 0 177 -30t129.5 -79t84.5 -115t48 -134t14 -140q0 -57 -4 -86zM287 621h520q-2 128 -66 209t-186 81q-241 0 -268 -290zM274 1436h578v-158h-578v158z" />
    <glyph glyph-name="Ebreve" unicode="&#x114;" horiz-adv-x="1230" 
d="M1094 834v-179h-703v-477h772l-26 -178h-953v1423h942v-180h-735v-409h703zM340 1817h152q11 -59 56.5 -95t115.5 -36q148 0 174 131h149q-19 -120 -100 -196.5t-225 -76.5q-79 0 -140.5 23.5t-98.5 63.5t-57.5 87t-25.5 99z" />
    <glyph glyph-name="ebreve" unicode="&#x115;" horiz-adv-x="1083" 
d="M1006 483h-725q2 -152 73.5 -247t196.5 -95q56 0 98 12.5t68.5 36.5t41.5 47t29 56h203q-14 -45 -33.5 -85t-56.5 -84t-83.5 -75.5t-117 -52.5t-155.5 -21q-96 0 -175 30t-132.5 80.5t-90 119.5t-53 145.5t-16.5 159.5q0 119 30 219.5t88 176t150.5 118.5t210.5 43
q98 0 177 -30t129.5 -79t84.5 -115t48 -134t14 -140q0 -57 -4 -86zM287 621h520q-2 128 -66 209t-186 81q-241 0 -268 -290zM260 1483h146q32 -135 155 -135q76 0 109.5 35.5t50.5 99.5h143q-16 -126 -92.5 -205.5t-210.5 -79.5q-74 0 -132 24.5t-93 66.5t-53.5 90.5
t-22.5 103.5z" />
    <glyph glyph-name="Edotaccent" unicode="&#x116;" horiz-adv-x="1230" 
d="M1094 834v-179h-703v-477h772l-26 -178h-953v1423h942v-180h-735v-409h703zM760 1583h-205v229h205v-229z" />
    <glyph glyph-name="edotaccent" unicode="&#x117;" horiz-adv-x="1083" 
d="M1006 483h-725q2 -152 73.5 -247t196.5 -95q56 0 98 12.5t68.5 36.5t41.5 47t29 56h203q-14 -45 -33.5 -85t-56.5 -84t-83.5 -75.5t-117 -52.5t-155.5 -21q-96 0 -175 30t-132.5 80.5t-90 119.5t-53 145.5t-16.5 159.5q0 119 30 219.5t88 176t150.5 118.5t210.5 43
q98 0 177 -30t129.5 -79t84.5 -115t48 -134t14 -140q0 -57 -4 -86zM287 621h520q-2 128 -66 209t-186 81q-241 0 -268 -290zM664 1270h-201v231h201v-231z" />
    <glyph glyph-name="Eogonek" unicode="&#x118;" horiz-adv-x="1230" 
d="M1094 834v-179h-703v-477h772l-26 -178h-70q-133 -108 -133 -211q0 -49 31 -76.5t82 -27.5q66 0 112 16v-150q-60 -32 -168 -32q-113 0 -178 60t-65 167q0 128 122 254h-686v1423h942v-180h-735v-409h703z" />
    <glyph glyph-name="eogonek" unicode="&#x119;" horiz-adv-x="1083" 
d="M1006 483h-725q2 -152 73.5 -247t196.5 -95q56 0 98 12.5t68.5 36.5t41.5 47t29 56h203q-66 -210 -246 -283q-127 -103 -127 -205q0 -49 31 -76.5t82 -27.5q67 0 113 16v-149q-62 -33 -168 -33q-113 0 -178.5 60t-65.5 167q0 111 88 213q-112 5 -199.5 52t-139 122.5
t-77.5 167t-26 193.5q0 119 30 219.5t88 176t150.5 118.5t210.5 43q98 0 177 -30t129.5 -79t84.5 -115t48 -134t14 -140q0 -57 -4 -86zM287 621h520q-2 128 -66 209t-186 81q-241 0 -268 -290z" />
    <glyph glyph-name="Ecaron" unicode="&#x11a;" horiz-adv-x="1230" 
d="M1094 834v-179h-703v-477h772l-26 -178h-953v1423h942v-180h-735v-409h703zM756 1548h-199l-270 271h205l165 -164l174 164h205z" />
    <glyph glyph-name="ecaron" unicode="&#x11b;" horiz-adv-x="1083" 
d="M1006 483h-725q2 -152 73.5 -247t196.5 -95q56 0 98 12.5t68.5 36.5t41.5 47t29 56h203q-14 -45 -33.5 -85t-56.5 -84t-83.5 -75.5t-117 -52.5t-155.5 -21q-96 0 -175 30t-132.5 80.5t-90 119.5t-53 145.5t-16.5 159.5q0 119 30 219.5t88 176t150.5 118.5t210.5 43
q98 0 177 -30t129.5 -79t84.5 -115t48 -134t14 -140q0 -57 -4 -86zM287 621h520q-2 128 -66 209t-186 81q-241 0 -268 -290zM657 1192h-188l-227 309h192l131 -194l127 194h193z" />
    <glyph glyph-name="Gcircumflex" unicode="&#x11c;" horiz-adv-x="1501" 
d="M1354 774v-774h-160q-14 43 -20 182q-131 -202 -437 -202q-151 0 -272 54.5t-199 151.5t-119 227t-41 283q0 161 44 297t127.5 236.5t211.5 157.5t287 57q246 0 401 -120.5t185 -315.5h-211q-81 262 -379 262q-95 0 -170.5 -29.5t-126 -81t-84 -123.5t-48.5 -153.5
t-15 -175.5q0 -111 25 -207t76 -174.5t137.5 -124t199.5 -45.5q381 0 381 424v14h-383v180h590zM662 1819h206l267 -271h-205l-166 164l-174 -164h-205z" />
    <glyph glyph-name="gcircumflex" unicode="&#x11d;" horiz-adv-x="1173" 
d="M1026 741v-641q0 -260 -115.5 -394t-371.5 -134q-94 0 -169.5 20.5t-122 53t-79.5 76.5t-47.5 85.5t-20.5 86.5h205q22 -80 84.5 -123t159.5 -43q83 0 139 25t86.5 76.5t42.5 116.5t12 158v78q-43 -87 -119.5 -131.5t-199.5 -44.5q-194 0 -313 143.5t-119 370.5
q0 247 128.5 397t323.5 150q132 0 204.5 -48t94.5 -110q3 77 9 133h190q0 -29 -1 -138t-1 -163zM287 528q0 -160 74.5 -256t197.5 -96q153 0 215 93.5t62 271.5q0 180 -59 269t-212 89q-132 0 -205 -101t-73 -270zM492 1501h186l229 -309h-192l-131 197l-129 -197h-191z" />
    <glyph glyph-name="Gbreve" unicode="&#x11e;" horiz-adv-x="1501" 
d="M1354 774v-774h-160q-14 43 -20 182q-131 -202 -437 -202q-151 0 -272 54.5t-199 151.5t-119 227t-41 283q0 161 44 297t127.5 236.5t211.5 157.5t287 57q246 0 401 -120.5t185 -315.5h-211q-81 262 -379 262q-95 0 -170.5 -29.5t-126 -81t-84 -123.5t-48.5 -153.5
t-15 -175.5q0 -111 25 -207t76 -174.5t137.5 -124t199.5 -45.5q381 0 381 424v14h-383v180h590zM438 1829h152q11 -59 56.5 -95t115.5 -36q148 0 174 131h149q-19 -120 -100 -196.5t-225 -76.5q-79 0 -140.5 23.5t-98.5 63.5t-57.5 87t-25.5 99z" />
    <glyph glyph-name="gbreve" unicode="&#x11f;" horiz-adv-x="1173" 
d="M1026 741v-641q0 -260 -115.5 -394t-371.5 -134q-94 0 -169.5 20.5t-122 53t-79.5 76.5t-47.5 85.5t-20.5 86.5h205q22 -80 84.5 -123t159.5 -43q83 0 139 25t86.5 76.5t42.5 116.5t12 158v78q-43 -87 -119.5 -131.5t-199.5 -44.5q-194 0 -313 143.5t-119 370.5
q0 247 128.5 397t323.5 150q132 0 204.5 -48t94.5 -110q3 77 9 133h190q0 -29 -1 -138t-1 -163zM287 528q0 -160 74.5 -256t197.5 -96q153 0 215 93.5t62 271.5q0 180 -59 269t-212 89q-132 0 -205 -101t-73 -270zM283 1483h145q15 -61 53.5 -98t102.5 -37q76 0 109 35.5
t50 99.5h144q-16 -126 -92.5 -205.5t-210.5 -79.5q-74 0 -132 24.5t-93 66.5t-53.5 90.5t-22.5 103.5z" />
    <glyph glyph-name="Gdotaccent" unicode="&#x120;" horiz-adv-x="1501" 
d="M1354 774v-774h-160q-14 43 -20 182q-131 -202 -437 -202q-151 0 -272 54.5t-199 151.5t-119 227t-41 283q0 161 44 297t127.5 236.5t211.5 157.5t287 57q246 0 401 -120.5t185 -315.5h-211q-81 262 -379 262q-95 0 -170.5 -29.5t-126 -81t-84 -123.5t-48.5 -153.5
t-15 -175.5q0 -111 25 -207t76 -174.5t137.5 -124t199.5 -45.5q381 0 381 424v14h-383v180h590zM862 1573h-205v229h205v-229z" />
    <glyph glyph-name="gdotaccent" unicode="&#x121;" horiz-adv-x="1173" 
d="M1026 741v-641q0 -260 -115.5 -394t-371.5 -134q-94 0 -169.5 20.5t-122 53t-79.5 76.5t-47.5 85.5t-20.5 86.5h205q22 -80 84.5 -123t159.5 -43q83 0 139 25t86.5 76.5t42.5 116.5t12 158v78q-43 -87 -119.5 -131.5t-199.5 -44.5q-194 0 -313 143.5t-119 370.5
q0 247 128.5 397t323.5 150q132 0 204.5 -48t94.5 -110q3 77 9 133h190q0 -29 -1 -138t-1 -163zM287 528q0 -160 74.5 -256t197.5 -96q153 0 215 93.5t62 271.5q0 180 -59 269t-212 89q-132 0 -205 -101t-73 -270zM686 1270h-201v231h201v-231z" />
    <glyph glyph-name="uni0122" unicode="&#x122;" horiz-adv-x="1501" 
d="M1354 774v-774h-160q-14 43 -20 182q-131 -202 -437 -202q-151 0 -272 54.5t-199 151.5t-119 227t-41 283q0 161 44 297t127.5 236.5t211.5 157.5t287 57q246 0 401 -120.5t185 -315.5h-211q-81 262 -379 262q-95 0 -170.5 -29.5t-126 -81t-84 -123.5t-48.5 -153.5
t-15 -175.5q0 -111 25 -207t76 -174.5t137.5 -124t199.5 -45.5q381 0 381 424v14h-383v180h590zM745 -520h-165q98 213 114 411h203q-7 -107 -52 -226t-100 -185z" />
    <glyph glyph-name="uni0123" unicode="&#x123;" horiz-adv-x="1173" 
d="M602 1612h178q-115 -256 -127 -414h-198q9 101 51 216.5t96 197.5zM1026 741v-641q0 -260 -115.5 -394t-371.5 -134q-94 0 -169.5 20.5t-122 53t-79.5 76.5t-47.5 85.5t-20.5 86.5h205q22 -80 84.5 -123t159.5 -43q83 0 139 25t86.5 76.5t42.5 116.5t12 158v78
q-43 -87 -119.5 -131.5t-199.5 -44.5q-194 0 -313 143.5t-119 370.5q0 247 128.5 397t323.5 150q132 0 204.5 -48t94.5 -110q3 77 9 133h190q0 -29 -1 -138t-1 -163zM287 528q0 -160 74.5 -256t197.5 -96q153 0 215 93.5t62 271.5q0 180 -59 269t-212 89q-132 0 -205 -101
t-73 -270z" />
    <glyph glyph-name="Hcircumflex" unicode="&#x124;" horiz-adv-x="1499" 
d="M184 0v1423h211v-587h709v587h211v-1423h-211v657h-709v-657h-211zM651 1819h207l266 -271h-204l-166 164l-174 -164h-205z" />
    <glyph glyph-name="hcircumflex" unicode="&#x125;" horiz-adv-x="1171" 
d="M121 1835h256l221 -227h-209l-141 129l-137 -129h-209zM150 1501h200v-606q102 172 320 172q69 0 129 -20.5t111.5 -65t81.5 -125t30 -190.5v-666h-201v633q0 264 -215 264q-256 0 -256 -330v-567h-200v1501z" />
    <glyph glyph-name="Hbar" unicode="&#x126;" horiz-adv-x="1499" 
d="M51 1204h133v219h211v-219h709v219h211v-219h133v-153h-133v-1051h-211v655h-709v-655h-211v1051h-133v153zM395 836h709v215h-709v-215z" />
    <glyph glyph-name="hbar" unicode="&#x127;" horiz-adv-x="1171" 
d="M150 1501h200v-170h428v-131h-428v-321q99 178 326 178q54 0 102 -12t93.5 -41t78.5 -73.5t52.5 -115t19.5 -160.5v-655h-201v623q0 262 -213 262q-127 0 -192.5 -86.5t-65.5 -235.5v-563h-200v1200h-168v131h168v170z" />
    <glyph glyph-name="Itilde" unicode="&#x128;" horiz-adv-x="579" 
d="M184 1423h211v-1423h-211v1423zM78 1565h-141v51q0 109 45.5 156t132.5 47q55 0 121 -26.5t121.5 -52.5t84.5 -26q30 0 46 19t16 67v21h137v-43q0 -119 -45.5 -169t-134.5 -50q-50 0 -114 26.5t-121.5 53t-90.5 26.5q-57 0 -57 -66v-34z" />
    <glyph glyph-name="itilde" unicode="&#x129;" horiz-adv-x="499" 
d="M150 0v1042h200v-1042h-200zM63 1233h-139v51q0 203 172 203q50 0 106 -24.5t103 -49t76 -24.5t43 18t14 63v21h135v-45q0 -215 -176 -215q-51 0 -103.5 24.5t-98 49t-78.5 24.5q-54 0 -54 -63v-33z" />
    <glyph glyph-name="Imacron" unicode="&#x12a;" horiz-adv-x="579" 
d="M184 1423h211v-1423h-211v1423zM-4 1737h586v-154h-586v154z" />
    <glyph glyph-name="imacron" unicode="&#x12b;" horiz-adv-x="499" 
d="M150 0v1042h200v-1042h-200zM-39 1436h578v-158h-578v158z" />
    <glyph glyph-name="Iogonek" unicode="&#x12e;" horiz-adv-x="579" 
d="M184 1423h211v-1423h-10q-133 -108 -133 -211q0 -49 31 -76.5t82 -27.5q66 0 112 16v-150q-60 -32 -168 -32q-113 0 -178 60t-65 167q0 128 122 254h-4v1423z" />
    <glyph glyph-name="iogonek" unicode="&#x12f;" horiz-adv-x="499" 
d="M436 -449q-60 -32 -168 -32q-113 0 -178 60t-65 167q0 131 125 256v1040h200v-1042h-6q-133 -108 -133 -211q0 -49 31 -76.5t82 -27.5q66 0 112 16v-150zM350 1270h-200v231h200v-231z" />
    <glyph glyph-name="Idotaccent" unicode="&#x130;" horiz-adv-x="579" 
d="M184 1423h211v-1423h-211v1423zM391 1573h-205v229h205v-229z" />
    <glyph glyph-name="dotlessi" unicode="&#x131;" horiz-adv-x="499" 
d="M150 0v1042h200v-1042h-200z" />
    <glyph glyph-name="Jcircumflex" unicode="&#x134;" horiz-adv-x="765" 
d="M592 1423v-1001q0 -237 -91 -339.5t-284 -102.5q-83 0 -158 14v174q54 -8 134 -8q60 0 99 20t57.5 58.5t25 78.5t6.5 97v1009h211zM387 1819h207l266 -271h-205l-166 164l-174 -164h-204z" />
    <glyph glyph-name="jcircumflex" unicode="&#x135;" horiz-adv-x="499" 
d="M150 1042h200v-1065q0 -224 -64 -314.5t-239 -90.5q-38 0 -74 4v168q14 -2 41 -2q80 0 108 45.5t28 153.5v1101zM156 1501h186l229 -309h-192l-131 197l-129 -197h-191z" />
    <glyph glyph-name="uni0136" unicode="&#x136;" horiz-adv-x="1323" 
d="M184 0v1423h209v-686q31 33 287.5 294t380.5 392h260l-604 -600l633 -823h-256l-525 688l-176 -162v-526h-209zM657 -520h-165q98 213 114 411h203q-7 -107 -52 -226t-100 -185z" />
    <glyph glyph-name="uni0137" unicode="&#x137;" horiz-adv-x="1054" 
d="M350 1501v-944q49 58 218 243t220 242h238l-387 -403l430 -639h-233l-334 510l-152 -148v-362h-200v1501h200zM518 -520h-166q99 216 115 411h203q-7 -107 -52 -226t-100 -185z" />
    <glyph glyph-name="kgreenlandic" unicode="&#x138;" horiz-adv-x="1048" 
d="M350 1042v-487q38 47 113.5 132t183 203.5t137.5 151.5h236q-69 -75 -205.5 -214.5t-193.5 -200.5q75 -105 226 -320.5t216 -306.5h-234q-44 65 -168 242.5t-176 253.5l-135 -134v-362h-200v1042h200z" />
    <glyph glyph-name="Lacute" unicode="&#x139;" horiz-adv-x="1159" 
d="M184 0v1423h211v-1245h735l-28 -178h-918zM479 1833h260l-354 -283h-203z" />
    <glyph glyph-name="lacute" unicode="&#x13a;" horiz-adv-x="499" 
d="M395 1860h252l-305 -248h-197zM350 0h-200v1501h200v-1501z" />
    <glyph glyph-name="uni013B" unicode="&#x13b;" horiz-adv-x="1159" 
d="M184 0v1423h211v-1245h735l-28 -178h-918zM618 -520h-165q98 213 114 411h203q-7 -107 -52 -226t-100 -185z" />
    <glyph glyph-name="uni013C" unicode="&#x13c;" horiz-adv-x="499" 
d="M350 0h-200v1501h200v-1501zM201 -520h-166q99 216 115 411h202q-7 -107 -51.5 -226t-99.5 -185z" />
    <glyph glyph-name="Lcaron" unicode="&#x13d;" horiz-adv-x="1159" 
d="M184 0v1423h211v-1245h735l-28 -178h-918zM874 907h-143l-8 518h162z" />
    <glyph glyph-name="lcaron" unicode="&#x13e;" horiz-adv-x="618" 
d="M350 0h-200v1501h200v-1501zM641 983h-143l-9 518h162z" />
    <glyph glyph-name="Ldot" unicode="&#x13f;" horiz-adv-x="1159" 
d="M930 629h-203v305h203v-305zM184 0v1423h211v-1245h735l-28 -178h-918z" />
    <glyph glyph-name="ldot" unicode="&#x140;" horiz-adv-x="591" 
d="M631 739h-187v303h187v-303zM350 0h-200v1501h200v-1501z" />
    <glyph glyph-name="Lslash" unicode="&#x141;" horiz-adv-x="1179" 
d="M725 874l-309 -143v-553h735l-29 -178h-917v635l-185 -86v151l185 86v637h211v-536l309 145v-158z" />
    <glyph glyph-name="lslash" unicode="&#x142;" horiz-adv-x="528" 
d="M365 0h-201v696l-129 -69v176l129 69v629h201v-522l147 80v-174l-147 -80v-805z" />
    <glyph glyph-name="Nacute" unicode="&#x143;" horiz-adv-x="1527" 
d="M383 0h-199v1423h275q59 -98 238.5 -392.5t302 -500t157.5 -274.5h2q-12 151 -12 637v530h196v-1423h-258q-601 1000 -710 1206h-4q12 -187 12 -663v-543zM940 1831h260l-354 -283h-203z" />
    <glyph glyph-name="nacute" unicode="&#x144;" horiz-adv-x="1169" 
d="M150 0v780q0 142 -3 262h197q8 -62 8 -163q85 188 322 188q157 0 252.5 -100t95.5 -297v-670h-201v645q0 252 -211 252q-132 0 -195 -90t-63 -250v-557h-202zM721 1522h246l-318 -312h-186z" />
    <glyph glyph-name="uni0145" unicode="&#x145;" horiz-adv-x="1527" 
d="M383 0h-199v1423h275q59 -98 238.5 -392.5t302 -500t157.5 -274.5h2q-12 151 -12 637v530h196v-1423h-258q-601 1000 -710 1206h-4q12 -187 12 -663v-543zM743 -520h-165q98 213 114 411h203q-7 -107 -52 -226t-100 -185z" />
    <glyph glyph-name="uni0146" unicode="&#x146;" horiz-adv-x="1169" 
d="M150 0v780q0 142 -3 262h197q8 -62 8 -163q85 188 322 188q157 0 252.5 -100t95.5 -297v-670h-201v645q0 252 -211 252q-132 0 -195 -90t-63 -250v-557h-202zM541 -520h-166q98 213 114 411h203q-7 -107 -51.5 -226t-99.5 -185z" />
    <glyph glyph-name="Ncaron" unicode="&#x147;" horiz-adv-x="1527" 
d="M383 0h-199v1423h275q59 -98 238.5 -392.5t302 -500t157.5 -274.5h2q-12 151 -12 637v530h196v-1423h-258q-601 1000 -710 1206h-4q12 -187 12 -663v-543zM862 1546h-198l-271 271h205l166 -164l174 164h205z" />
    <glyph glyph-name="ncaron" unicode="&#x148;" horiz-adv-x="1169" 
d="M150 0v780q0 142 -3 262h197q8 -62 8 -163q85 188 322 188q157 0 252.5 -100t95.5 -297v-670h-201v645q0 252 -211 252q-132 0 -195 -90t-63 -250v-557h-202zM678 1202h-189l-227 309h193l131 -194l127 194h192z" />
    <glyph glyph-name="napostrophe" unicode="&#x149;" horiz-adv-x="1169" 
d="M176 1188h-151q59 186 71 416h193q-6 -109 -38.5 -227.5t-74.5 -188.5zM150 0v780q0 142 -3 262h197q8 -62 8 -163q85 188 322 188q157 0 252.5 -100t95.5 -297v-670h-201v645q0 252 -211 252q-132 0 -195 -90t-63 -250v-557h-202z" />
    <glyph glyph-name="Omacron" unicode="&#x14c;" horiz-adv-x="1544" 
d="M780 1444q198 0 348.5 -92.5t230 -256.5t79.5 -376q0 -150 -42.5 -282t-124.5 -234.5t-212.5 -162.5t-294.5 -60q-155 0 -281 56.5t-207.5 156t-125.5 232t-44 286.5t45 287.5t129 232.5t213 156t287 57zM772 1266q-112 0 -199 -43.5t-139.5 -119.5t-79 -173.5
t-26.5 -212.5q0 -114 28.5 -214.5t82.5 -178t140 -122t193 -44.5q93 0 168.5 30t126.5 81.5t85 123t49.5 152t15.5 170.5q0 115 -27.5 213.5t-81 174.5t-140 119.5t-196.5 43.5zM479 1757h586v-153h-586v153z" />
    <glyph glyph-name="omacron" unicode="&#x14d;" horiz-adv-x="1136" 
d="M575 1067q219 0 351.5 -149t132.5 -394q0 -115 -32.5 -214.5t-94 -174t-156.5 -117.5t-213 -43q-148 0 -259 71t-168.5 194t-57.5 280q0 239 133 393t364 154zM567 901q-136 0 -209 -101t-73 -278q0 -170 77 -275.5t209 -105.5q133 0 208 102.5t75 276.5
q0 176 -75.5 278.5t-211.5 102.5zM279 1436h577v-158h-577v158z" />
    <glyph glyph-name="Ohungarumlaut" unicode="&#x150;" horiz-adv-x="1544" 
d="M780 1444q198 0 348.5 -92.5t230 -256.5t79.5 -376q0 -150 -42.5 -282t-124.5 -234.5t-212.5 -162.5t-294.5 -60q-155 0 -281 56.5t-207.5 156t-125.5 232t-44 286.5t45 287.5t129 232.5t213 156t287 57zM772 1266q-112 0 -199 -43.5t-139.5 -119.5t-79 -173.5
t-26.5 -212.5q0 -114 28.5 -214.5t82.5 -178t140 -122t193 -44.5q93 0 168.5 30t126.5 81.5t85 123t49.5 152t15.5 170.5q0 115 -27.5 213.5t-81 174.5t-140 119.5t-196.5 43.5zM690 1833h225l-282 -281h-172zM1073 1833h221l-280 -281h-172z" />
    <glyph glyph-name="ohungarumlaut" unicode="&#x151;" horiz-adv-x="1136" 
d="M575 1067q219 0 351.5 -149t132.5 -394q0 -115 -32.5 -214.5t-94 -174t-156.5 -117.5t-213 -43q-148 0 -259 71t-168.5 194t-57.5 280q0 239 133 393t364 154zM567 901q-136 0 -209 -101t-73 -278q0 -170 77 -275.5t209 -105.5q133 0 208 102.5t75 276.5
q0 176 -75.5 278.5t-211.5 102.5zM432 1188h-162l205 315h209zM813 1188h-162l205 315h209z" />
    <glyph glyph-name="OE" unicode="&#x152;" horiz-adv-x="2091" 
d="M1985 1423v-184h-695v-403h660v-185h-660v-469h731l-26 -182h-862q-147 -18 -283 -18q-180 0 -323 55.5t-234 154.5t-139 231t-48 288q0 118 32 226.5t96 199.5t155 158t215.5 105t269.5 38q151 0 275 -15h836zM1081 174v1069q-61 19 -211 19q-245 0 -393.5 -142.5
t-148.5 -402.5q0 -261 146 -410t388 -149q141 0 219 16z" />
    <glyph glyph-name="oe" unicode="&#x153;" horiz-adv-x="1863" 
d="M1325 -25q-128 0 -221.5 55.5t-149.5 149.5q-63 -96 -162 -150.5t-229 -54.5q-148 0 -259 71t-168.5 194t-57.5 280q0 239 133 393t364 154q125 0 223.5 -53.5t159.5 -151.5q58 96 153.5 150.5t223.5 54.5q95 0 172.5 -29.5t129 -77.5t86.5 -112.5t50 -132t15 -137.5
q0 -66 -2 -95h-725q0 -152 73 -247t197 -95q100 0 154 42t84 110h203q-14 -44 -34.5 -84.5t-58 -84.5t-84.5 -76t-117.5 -52.5t-152.5 -20.5zM567 901q-136 0 -209 -101t-73 -278q0 -170 77 -275.5t209 -105.5q133 0 208 102.5t75 276.5q0 176 -75.5 278.5t-211.5 102.5z
M1067 621h518q-2 128 -67.5 208.5t-184.5 81.5q-122 1 -187.5 -76.5t-78.5 -213.5z" />
    <glyph glyph-name="Racute" unicode="&#x154;" horiz-adv-x="1323" 
d="M666 616h-273v-616h-209v1423h570q215 0 333.5 -106t118.5 -277q0 -132 -65.5 -218t-169.5 -117q209 -57 209 -363v-61v-42v-47.5t0.5 -42t2 -46t3.5 -37t5.5 -38t8.5 -28.5h-205q-12 29 -17.5 83t-6 93t-0.5 133v27q0 77 -12.5 126.5t-45.5 86t-93 52t-154 15.5z
M393 1247v-456h299q155 0 226 57t71 174q0 108 -70.5 166.5t-207.5 58.5h-318zM838 1831h260l-355 -283h-202z" />
    <glyph glyph-name="racute" unicode="&#x155;" horiz-adv-x="737" 
d="M150 0v760q0 78 -1.5 169.5t-1.5 112.5h197q6 -44 6 -206q41 105 130.5 166.5t217.5 64.5v-199q-168 -3 -258 -91t-90 -281v-496h-200zM530 1522h246l-317 -312h-187z" />
    <glyph glyph-name="uni0156" unicode="&#x156;" horiz-adv-x="1323" 
d="M666 616h-273v-616h-209v1423h570q215 0 333.5 -106t118.5 -277q0 -132 -65.5 -218t-169.5 -117q209 -57 209 -363v-61v-42v-47.5t0.5 -42t2 -46t3.5 -37t5.5 -38t8.5 -28.5h-205q-12 29 -17.5 83t-6 93t-0.5 133v27q0 77 -12.5 126.5t-45.5 86t-93 52t-154 15.5z
M393 1247v-456h299q155 0 226 57t71 174q0 108 -70.5 166.5t-207.5 58.5h-318zM649 -520h-166q99 216 115 411h203q-7 -107 -52 -226t-100 -185z" />
    <glyph glyph-name="uni0157" unicode="&#x157;" horiz-adv-x="737" 
d="M150 0v760q0 78 -1.5 169.5t-1.5 112.5h197q6 -44 6 -206q41 105 130.5 166.5t217.5 64.5v-199q-168 -3 -258 -91t-90 -281v-496h-200zM201 -520h-166q99 216 115 411h202q-7 -107 -51.5 -226t-99.5 -185z" />
    <glyph glyph-name="Rcaron" unicode="&#x158;" horiz-adv-x="1323" 
d="M666 616h-273v-616h-209v1423h570q215 0 333.5 -106t118.5 -277q0 -132 -65.5 -218t-169.5 -117q209 -57 209 -363v-61v-42v-47.5t0.5 -42t2 -46t3.5 -37t5.5 -38t8.5 -28.5h-205q-12 29 -17.5 83t-6 93t-0.5 133v27q0 77 -12.5 126.5t-45.5 86t-93 52t-154 15.5z
M393 1247v-456h299q155 0 226 57t71 174q0 108 -70.5 166.5t-207.5 58.5h-318zM760 1548h-199l-270 271h205l166 -164l174 164h204z" />
    <glyph glyph-name="rcaron" unicode="&#x159;" horiz-adv-x="737" 
d="M150 0v760q0 78 -1.5 169.5t-1.5 112.5h197q6 -44 6 -206q41 105 130.5 166.5t217.5 64.5v-199q-168 -3 -258 -91t-90 -281v-496h-200zM498 1192h-189l-227 309h192l132 -194l126 194h193z" />
    <glyph glyph-name="Sacute" unicode="&#x15a;" horiz-adv-x="1253" 
d="M82 399h213q60 -252 350 -252q151 0 223 61.5t72 164.5q0 107 -72.5 168.5t-273.5 109.5q-253 61 -355 154.5t-102 247.5q0 172 124.5 281.5t356.5 109.5q124 0 221.5 -33.5t156 -90.5t90.5 -123.5t40 -141.5h-215q-43 221 -299 221q-123 0 -190.5 -52t-67.5 -149
q0 -94 68 -143t254 -94q119 -29 206.5 -66.5t140 -77.5t83.5 -91t42 -98.5t11 -107.5q0 -185 -136 -300t-392 -115q-130 0 -231.5 33t-166 91.5t-102 131.5t-49.5 161zM801 1841h260l-354 -282h-203z" />
    <glyph glyph-name="sacute" unicode="&#x15b;" horiz-adv-x="985" 
d="M61 301h201q42 -170 244 -170q199 0 199 148q0 70 -48.5 107.5t-187.5 72.5q-113 27 -186.5 59t-112.5 71.5t-53.5 81t-14.5 99.5q0 57 22 108.5t66.5 94.5t121 68.5t175.5 25.5q100 0 177.5 -26.5t123.5 -71.5t70 -96.5t29 -108.5h-193q-35 151 -215 151q-94 0 -136 -37
t-42 -92q0 -57 45 -88.5t182 -64.5q96 -22 164.5 -49.5t110.5 -57.5t66.5 -68t33 -75.5t8.5 -87.5q0 -142 -107.5 -231t-305.5 -89q-199 0 -307 88.5t-130 237.5zM618 1522h246l-317 -312h-187z" />
    <glyph glyph-name="Scircumflex" unicode="&#x15c;" horiz-adv-x="1253" 
d="M82 399h213q60 -252 350 -252q151 0 223 61.5t72 164.5q0 107 -72.5 168.5t-273.5 109.5q-253 61 -355 154.5t-102 247.5q0 172 124.5 281.5t356.5 109.5q124 0 221.5 -33.5t156 -90.5t90.5 -123.5t40 -141.5h-215q-43 221 -299 221q-123 0 -190.5 -52t-67.5 -149
q0 -94 68 -143t254 -94q119 -29 206.5 -66.5t140 -77.5t83.5 -91t42 -98.5t11 -107.5q0 -185 -136 -300t-392 -115q-130 0 -231.5 33t-166 91.5t-102 131.5t-49.5 161zM526 1819h207l266 -271h-204l-166 164l-174 -164h-205z" />
    <glyph glyph-name="scircumflex" unicode="&#x15d;" horiz-adv-x="985" 
d="M61 301h201q42 -170 244 -170q199 0 199 148q0 70 -48.5 107.5t-187.5 72.5q-113 27 -186.5 59t-112.5 71.5t-53.5 81t-14.5 99.5q0 57 22 108.5t66.5 94.5t121 68.5t175.5 25.5q100 0 177.5 -26.5t123.5 -71.5t70 -96.5t29 -108.5h-193q-35 151 -215 151q-94 0 -136 -37
t-42 -92q0 -57 45 -88.5t182 -64.5q96 -22 164.5 -49.5t110.5 -57.5t66.5 -68t33 -75.5t8.5 -87.5q0 -142 -107.5 -231t-305.5 -89q-199 0 -307 88.5t-130 237.5zM399 1501h187l229 -309h-192l-131 197l-130 -197h-190z" />
    <glyph glyph-name="uni015E" unicode="&#x15e;" horiz-adv-x="1253" 
d="M82 399h213q60 -252 350 -252q151 0 223 61.5t72 164.5q0 107 -72.5 168.5t-273.5 109.5q-253 61 -355 154.5t-102 247.5q0 172 124.5 281.5t356.5 109.5q124 0 221.5 -33.5t156 -90.5t90.5 -123.5t40 -141.5h-215q-43 221 -299 221q-123 0 -190.5 -52t-67.5 -149
q0 -94 68 -143t254 -94q119 -29 206.5 -66.5t140 -77.5t83.5 -91t42 -98.5t11 -107.5q0 -168 -113 -279.5t-329 -131.5l-72 -88q33 -6 62 -17.5t61.5 -32.5t52 -58t19.5 -85q0 -59 -24 -101t-65 -63t-82.5 -30t-88.5 -9q-94 0 -150 25v129q58 -21 129 -21q107 0 107 68
q0 84 -205 88v59l102 134q-113 8 -201.5 44t-145.5 93.5t-90 126.5t-44 151z" />
    <glyph glyph-name="uni015F" unicode="&#x15f;" horiz-adv-x="985" 
d="M61 301h201q42 -170 244 -170q199 0 199 148q0 70 -48.5 107.5t-187.5 72.5q-113 27 -186.5 59t-112.5 71.5t-53.5 81t-14.5 99.5q0 57 22 108.5t66.5 94.5t121 68.5t175.5 25.5q100 0 177.5 -26.5t123.5 -71.5t70 -96.5t29 -108.5h-193q-35 151 -215 151q-94 0 -136 -37
t-42 -92q0 -57 45 -88.5t182 -64.5q96 -22 164.5 -49.5t110.5 -57.5t66.5 -68t33 -75.5t8.5 -87.5q0 -125 -85 -210t-244 -105l-68 -82q33 -6 62 -17.5t61.5 -32.5t52 -58t19.5 -85q0 -59 -24 -101t-65 -63t-82.5 -30t-88.5 -9q-94 0 -150 25v129q58 -21 129 -21
q107 0 107 68q0 84 -205 88v59l98 130q-166 14 -256.5 100t-110.5 221z" />
    <glyph glyph-name="Scaron" unicode="&#x160;" horiz-adv-x="1253" 
d="M82 399h213q60 -252 350 -252q151 0 223 61.5t72 164.5q0 107 -72.5 168.5t-273.5 109.5q-253 61 -355 154.5t-102 247.5q0 172 124.5 281.5t356.5 109.5q124 0 221.5 -33.5t156 -90.5t90.5 -123.5t40 -141.5h-215q-43 221 -299 221q-123 0 -190.5 -52t-67.5 -149
q0 -94 68 -143t254 -94q119 -29 206.5 -66.5t140 -77.5t83.5 -91t42 -98.5t11 -107.5q0 -185 -136 -300t-392 -115q-130 0 -231.5 33t-166 91.5t-102 131.5t-49.5 161zM719 1548h-199l-270 271h205l166 -164l174 164h204z" />
    <glyph glyph-name="scaron" unicode="&#x161;" horiz-adv-x="985" 
d="M61 301h201q42 -170 244 -170q199 0 199 148q0 70 -48.5 107.5t-187.5 72.5q-113 27 -186.5 59t-112.5 71.5t-53.5 81t-14.5 99.5q0 57 22 108.5t66.5 94.5t121 68.5t175.5 25.5q100 0 177.5 -26.5t123.5 -71.5t70 -96.5t29 -108.5h-193q-35 151 -215 151q-94 0 -136 -37
t-42 -92q0 -57 45 -88.5t182 -64.5q96 -22 164.5 -49.5t110.5 -57.5t66.5 -68t33 -75.5t8.5 -87.5q0 -142 -107.5 -231t-305.5 -89q-199 0 -307 88.5t-130 237.5zM588 1192h-189l-227 309h193l131 -194l127 194h192z" />
    <glyph glyph-name="uni0162" unicode="&#x162;" horiz-adv-x="1155" 
d="M471 0v1243h-455v180h1123v-180h-455v-1243h-18l-84 -102q33 -6 62 -17.5t61.5 -32.5t51.5 -58t19 -85q0 -59 -24 -101t-65 -63t-82.5 -30t-88.5 -9q-93 0 -149 25v129q58 -21 129 -21q106 0 106 68q0 84 -205 88v59l115 150h-41z" />
    <glyph glyph-name="uni0163" unicode="&#x163;" horiz-adv-x="669" 
d="M23 883v159h176v304h200v-304h226v-159h-226v-592q0 -77 25.5 -111.5t91.5 -34.5q56 0 86 9v-150q-39 -14 -113 -18l-73 -88q33 -6 62 -17.5t61.5 -32.5t51.5 -58t19 -85q0 -59 -24 -101t-65 -63t-82.5 -30t-88.5 -9q-93 0 -149 25v129q58 -21 129 -21q106 0 106 68
q0 84 -205 88v59l113 148q-145 41 -145 252v633h-176z" />
    <glyph glyph-name="Tcaron" unicode="&#x164;" horiz-adv-x="1155" 
d="M471 0v1243h-455v180h1123v-180h-455v-1243h-213zM672 1548h-199l-270 271h205l165 -164l175 164h204z" />
    <glyph glyph-name="tcaron" unicode="&#x165;" horiz-adv-x="669" 
d="M688 1208h-129l-2 447h164zM23 883v159h176v304h200v-304h226v-159h-226v-592q0 -77 25.5 -111.5t91.5 -34.5q56 0 86 9v-150q-53 -18 -162 -18q-127 0 -184 65t-57 199v633h-176z" />
    <glyph glyph-name="Utilde" unicode="&#x168;" horiz-adv-x="1468" 
d="M170 1423h213v-856q0 -116 29.5 -200t81.5 -128t111 -63.5t130 -19.5q81 0 142.5 20.5t109.5 66.5t73 127.5t25 196.5v856h211v-843q0 -598 -565 -598q-94 0 -174.5 18t-153 60.5t-123 108.5t-80.5 167t-30 231v856zM522 1573h-141v51q0 109 45.5 156t132.5 47
q55 0 121.5 -26.5t122 -52.5t84.5 -26q30 0 45.5 19t15.5 67v21h137v-43q0 -119 -45.5 -169t-134.5 -50q-50 0 -114 26.5t-121 53t-90 26.5q-58 0 -58 -65v-35z" />
    <glyph glyph-name="utilde" unicode="&#x169;" horiz-adv-x="1150" 
d="M1001 1042v-739q0 -54 1.5 -163.5t1.5 -139.5h-197q-6 40 -6 150q-82 -175 -309 -175q-72 0 -132 20t-109.5 63t-77.5 119.5t-28 180.5v684h201v-641q0 -254 205 -254q135 0 192.5 81t57.5 270v544h200zM389 1233h-139v51q0 203 172 203q50 0 106 -24.5t103 -49t76 -24.5
t43 18t14 63v21h135v-45q0 -215 -176 -215q-51 0 -103.5 24.5t-98.5 49t-79 24.5q-53 0 -53 -63v-33z" />
    <glyph glyph-name="Umacron" unicode="&#x16a;" horiz-adv-x="1468" 
d="M170 1423h213v-856q0 -116 29.5 -200t81.5 -128t111 -63.5t130 -19.5q81 0 142.5 20.5t109.5 66.5t73 127.5t25 196.5v856h211v-843q0 -598 -565 -598q-94 0 -174.5 18t-153 60.5t-123 108.5t-80.5 167t-30 231v856zM440 1753h586v-154h-586v154z" />
    <glyph glyph-name="umacron" unicode="&#x16b;" horiz-adv-x="1150" 
d="M1001 1042v-739q0 -54 1.5 -163.5t1.5 -139.5h-197q-6 40 -6 150q-82 -175 -309 -175q-72 0 -132 20t-109.5 63t-77.5 119.5t-28 180.5v684h201v-641q0 -254 205 -254q135 0 192.5 81t57.5 270v544h200zM287 1436h577v-158h-577v158z" />
    <glyph glyph-name="Ubreve" unicode="&#x16c;" horiz-adv-x="1468" 
d="M170 1423h213v-856q0 -116 29.5 -200t81.5 -128t111 -63.5t130 -19.5q81 0 142.5 20.5t109.5 66.5t73 127.5t25 196.5v856h211v-843q0 -598 -565 -598q-94 0 -174.5 18t-153 60.5t-123 108.5t-80.5 167t-30 231v856zM410 1819h151q11 -59 56.5 -95t115.5 -36
q148 0 174 131h150q-19 -120 -100.5 -196.5t-225.5 -76.5q-79 0 -140.5 23.5t-98.5 63.5t-57 86.5t-25 99.5z" />
    <glyph glyph-name="ubreve" unicode="&#x16d;" horiz-adv-x="1150" 
d="M1001 1042v-739q0 -54 1.5 -163.5t1.5 -139.5h-197q-6 40 -6 150q-82 -175 -309 -175q-72 0 -132 20t-109.5 63t-77.5 119.5t-28 180.5v684h201v-641q0 -254 205 -254q135 0 192.5 81t57.5 270v544h200zM272 1483h146q32 -135 155 -135q76 0 109.5 35.5t50.5 99.5h144
q-16 -126 -93 -205.5t-211 -79.5q-74 0 -132 24.5t-93 66.5t-53.5 90.5t-22.5 103.5z" />
    <glyph glyph-name="Uring" unicode="&#x16e;" horiz-adv-x="1468" 
d="M170 1423h213v-856q0 -116 29.5 -200t81.5 -128t111 -63.5t130 -19.5q81 0 142.5 20.5t109.5 66.5t73 127.5t25 196.5v856h211v-843q0 -598 -565 -598q-94 0 -174.5 18t-153 60.5t-123 108.5t-80.5 167t-30 231v856zM733 1507q-102 0 -162.5 57t-60.5 144
q0 86 60.5 144.5t162.5 58.5t162.5 -57t60.5 -144q0 -88 -61.5 -145.5t-161.5 -57.5zM733 1606q50 0 77.5 29.5t27.5 72.5t-27.5 75t-77.5 32q-52 0 -78 -30t-26 -73q0 -44 26 -75t78 -31z" />
    <glyph glyph-name="uring" unicode="&#x16f;" horiz-adv-x="1150" 
d="M1001 1042v-739q0 -54 1.5 -163.5t1.5 -139.5h-197q-6 40 -6 150q-82 -175 -309 -175q-72 0 -132 20t-109.5 63t-77.5 119.5t-28 180.5v684h201v-641q0 -254 205 -254q135 0 192.5 81t57.5 270v544h200zM575 1161q-102 0 -162.5 57t-60.5 144q0 86 60.5 144.5t162.5 58.5
t163 -57t61 -144q0 -88 -62 -145.5t-162 -57.5zM575 1260q50 0 77.5 29.5t27.5 72.5q0 42 -27.5 74t-77.5 32q-52 0 -78 -30t-26 -72q0 -44 26 -75t78 -31z" />
    <glyph glyph-name="Uhungarumlaut" unicode="&#x170;" horiz-adv-x="1468" 
d="M170 1423h213v-856q0 -116 29.5 -200t81.5 -128t111 -63.5t130 -19.5q81 0 142.5 20.5t109.5 66.5t73 127.5t25 196.5v856h211v-843q0 -598 -565 -598q-94 0 -174.5 18t-153 60.5t-123 108.5t-80.5 167t-30 231v856zM651 1839h226l-283 -280h-172zM1034 1839h221
l-280 -280h-172z" />
    <glyph glyph-name="uhungarumlaut" unicode="&#x171;" horiz-adv-x="1150" 
d="M1001 1042v-739q0 -54 1.5 -163.5t1.5 -139.5h-197q-6 40 -6 150q-82 -175 -309 -175q-72 0 -132 20t-109.5 63t-77.5 119.5t-28 180.5v684h201v-641q0 -254 205 -254q135 0 192.5 81t57.5 270v544h200zM430 1188h-162l205 315h209zM811 1188h-162l205 315h209z" />
    <glyph glyph-name="Uogonek" unicode="&#x172;" horiz-adv-x="1468" 
d="M170 1423h213v-856q0 -116 29.5 -200t81.5 -128t111 -63.5t130 -19.5q81 0 142.5 20.5t109.5 66.5t73 127.5t25 196.5v856h211v-843q0 -443 -313 -560q-129 -108 -129 -206q0 -49 31.5 -77t81.5 -28q63 0 112 17v-150q-62 -33 -168 -33q-113 0 -178 60.5t-65 167.5
t86 211h-23q-94 0 -174.5 18t-153 60.5t-123 108.5t-80.5 167t-30 231v856z" />
    <glyph glyph-name="uogonek" unicode="&#x173;" horiz-adv-x="1150" 
d="M1001 1042v-739q0 -54 1.5 -163.5t1.5 -139.5h-5q-133 -108 -133 -211q0 -49 31 -76.5t82 -27.5q67 0 113 16v-150q-60 -32 -168 -32q-113 0 -178.5 60t-65.5 167q0 129 127 256q-6 43 -6 148q-82 -175 -309 -175q-72 0 -132 20t-109.5 63t-77.5 119.5t-28 180.5v684h201
v-641q0 -254 205 -254q135 0 192.5 81t57.5 270v544h200z" />
    <glyph glyph-name="Wcircumflex" unicode="&#x174;" horiz-adv-x="1923" 
d="M645 0h-223l-379 1423h225q42 -183 112 -476t111 -470.5t52 -249.5h2q23 109 150 577t165 619h203q268 -1010 301 -1187h2q21 116 77 334t135 505t95 348h207l-410 -1423h-223q-26 102 -99.5 379.5t-126 480.5t-69.5 285h-2q-15 -76 -56.5 -236.5t-76.5 -288t-96.5 -348
t-75.5 -272.5zM862 1819h207l266 -271h-205l-165 164l-174 -164h-205z" />
    <glyph glyph-name="wcircumflex" unicode="&#x175;" horiz-adv-x="1585" 
d="M47 1042h213q193 -746 211 -858h2q30 149 229 858h195q200 -747 217 -839h2q45 200 219 839h203l-319 -1042h-218q-34 133 -88.5 341t-83 319.5t-38.5 164.5h-3q-3 -19 -8 -44t-14 -62t-17 -68.5t-22.5 -85.5t-24 -90.5t-29.5 -107.5t-31 -111t-35 -126t-36 -130h-223z
M698 1501h187l229 -309h-192l-131 197l-129 -197h-191z" />
    <glyph glyph-name="Ycircumflex" unicode="&#x176;" horiz-adv-x="1220" 
d="M711 0h-213v518q0 21 -11 39l-499 866h241q354 -649 385 -710q52 108 394 710h225l-514 -868q-8 -16 -8 -37v-518zM512 1819h207l266 -271h-205l-166 164l-174 -164h-204z" />
    <glyph glyph-name="ycircumflex" unicode="&#x177;" horiz-adv-x="999" 
d="M18 1042h218q231 -688 276 -862h2q53 202 264 862h203l-371 -1087q-78 -229 -159 -306t-246 -77q-53 0 -117 6v172q41 -6 84 -6q94 0 143 46.5t93 170.5zM406 1501h186l229 -309h-192l-131 197l-129 -197h-191z" />
    <glyph glyph-name="Ydieresis" unicode="&#x178;" horiz-adv-x="1220" 
d="M711 0h-213v518q0 21 -11 39l-499 866h241q354 -649 385 -710q52 108 394 710h225l-514 -868q-8 -16 -8 -37v-518zM496 1569h-172v231h172v-231zM897 1569h-170v231h170v-231z" />
    <glyph glyph-name="Zacute" unicode="&#x179;" horiz-adv-x="1230" 
d="M61 0v160l850 1083h-809v180h1053v-176l-833 -1069h862l-29 -178h-1094zM782 1841h260l-354 -282h-203z" />
    <glyph glyph-name="zacute" unicode="&#x17a;" horiz-adv-x="940" 
d="M53 0v160l584 717h-555v165h784v-165l-575 -711h604l-29 -166h-813zM594 1522h246l-318 -312h-186z" />
    <glyph glyph-name="Zdotaccent" unicode="&#x17b;" horiz-adv-x="1230" 
d="M61 0v160l850 1083h-809v180h1053v-176l-833 -1069h862l-29 -178h-1094zM717 1589h-205v230h205v-230z" />
    <glyph glyph-name="zdotaccent" unicode="&#x17c;" horiz-adv-x="940" 
d="M53 0v160l584 717h-555v165h784v-165l-575 -711h604l-29 -166h-813zM569 1270h-200v231h200v-231z" />
    <glyph glyph-name="Zcaron" unicode="&#x17d;" horiz-adv-x="1230" 
d="M61 0v160l850 1083h-809v180h1053v-176l-833 -1069h862l-29 -178h-1094zM709 1565h-199l-270 270h204l166 -164l174 164h205z" />
    <glyph glyph-name="zcaron" unicode="&#x17e;" horiz-adv-x="940" 
d="M53 0v160l584 717h-555v165h784v-165l-575 -711h604l-29 -166h-813zM563 1192h-188l-228 309h193l131 -194l127 194h193z" />
    <glyph glyph-name="uni018F" unicode="&#x18f;" horiz-adv-x="1470" 
d="M1364 729q0 -129 -26 -242t-79 -206.5t-129.5 -160t-181 -103.5t-229.5 -37q-154 0 -274.5 52t-196 144.5t-114 216t-38.5 271.5q0 28 4 102h1047q-3 232 -114.5 366t-315.5 134q-159 0 -251.5 -65t-143.5 -181h-205q19 64 51 123t84 114.5t118.5 96.5t158.5 65.5
t198 24.5q127 0 233.5 -38.5t180.5 -105.5t125 -158t75 -195t23 -218zM1143 602h-828q0 -211 111.5 -329.5t298.5 -118.5q182 0 290 116.5t128 331.5z" />
    <glyph glyph-name="florin" unicode="&#x192;" horiz-adv-x="1081" 
d="M1040 1391l-41 -158q-47 24 -110 24q-46 0 -80 -21t-55 -62.5t-32.5 -83.5t-21.5 -103l-22 -141h240v-156h-263l-73 -473q-13 -85 -29.5 -149t-44.5 -124.5t-65 -99t-91.5 -61.5t-124.5 -23q-128 0 -192 43l41 160q54 -31 133 -31q32 0 56 12t40.5 32.5t29.5 59.5
t22 80.5t20 108.5l76 465h-195v156h219l19 108q11 73 25.5 132t44 125.5t68 111.5t100 74.5t138.5 29.5q119 0 168 -36z" />
    <glyph glyph-name="Ohorn" unicode="&#x1a0;" horiz-adv-x="1544" 
d="M780 1444q237 0 398 -127q92 32 92 119q0 56 -23 123h183q16 -43 16 -117q0 -81 -39 -145t-113 -97q144 -196 144 -481q0 -150 -42.5 -282t-124.5 -234.5t-212.5 -162.5t-294.5 -60q-155 0 -281 56.5t-207.5 156t-125.5 232t-44 286.5t45 287.5t129 232.5t213 156t287 57
zM772 1266q-112 0 -199 -43.5t-139.5 -119.5t-79 -173.5t-26.5 -212.5q0 -114 28.5 -214.5t82.5 -178t140 -122t193 -44.5q93 0 168.5 30t126.5 81.5t85 123t49.5 152t15.5 170.5q0 115 -27.5 213.5t-81 174.5t-140 119.5t-196.5 43.5z" />
    <glyph glyph-name="ohorn" unicode="&#x1a1;" horiz-adv-x="1136" 
d="M575 1067q184 0 306 -104q106 28 106 122q0 59 -22 123h182q16 -43 16 -116q0 -88 -46 -156t-134 -96q76 -133 76 -316q0 -115 -32.5 -214.5t-94 -174t-156.5 -117.5t-213 -43q-148 0 -259 71t-168.5 194t-57.5 280q0 239 133 393t364 154zM567 901q-136 0 -209 -101
t-73 -278q0 -170 77 -275.5t209 -105.5q133 0 208 102.5t75 276.5q0 176 -75.5 278.5t-211.5 102.5z" />
    <glyph glyph-name="Uhorn" unicode="&#x1af;" horiz-adv-x="1468" 
d="M170 1423h213v-856q0 -116 29.5 -200t81.5 -128t111 -63.5t130 -19.5q81 0 142.5 20.5t109.5 66.5t73 127.5t25 196.5v856h117q117 25 117 125q0 56 -23 123h183q16 -43 16 -117q0 -93 -51 -163t-148 -95v-716q0 -598 -565 -598q-94 0 -174.5 18t-153 60.5t-123 108.5
t-80.5 167t-30 231v856z" />
    <glyph glyph-name="uhorn" unicode="&#x1b0;" horiz-adv-x="1150" 
d="M801 150q-82 -175 -309 -175q-72 0 -132 20t-109.5 63t-77.5 119.5t-28 180.5v684h201v-641q0 -254 205 -254q135 0 192.5 81t57.5 270v544h84q137 22 137 129q0 56 -23 123h183q16 -43 16 -116q0 -92 -51 -161t-146 -95v-619q0 -54 1.5 -163.5t1.5 -139.5h-197
q-6 40 -6 150z" />
    <glyph glyph-name="uni01CD" unicode="&#x1cd;" horiz-adv-x="1361" 
d="M950 408h-559l-143 -408h-211l502 1423h262l524 -1423h-225zM444 588h455q-208 576 -233 667h-2q-16 -55 -45 -144t-85.5 -256.5t-89.5 -266.5zM770 1548h-199l-270 271h205l166 -164l174 164h205z" />
    <glyph glyph-name="uni01CE" unicode="&#x1ce;" horiz-adv-x="1093" 
d="M942 723v-487q0 -168 14 -236h-190q-11 31 -18 129q-79 -154 -316 -154q-89 0 -159 27.5t-111 73.5t-61.5 102t-20.5 117q0 171 128 256.5t365 85.5h172v84q0 38 -8 68t-28.5 60t-64.5 47t-109 17q-59 0 -100 -12.5t-62.5 -38t-31.5 -49t-17 -59.5h-195q6 62 28.5 114
t68 99t126 74t189.5 26q401 0 401 -344zM748 469v33h-160q-153 0 -228 -47t-75 -148q0 -79 51 -128.5t141 -49.5q69 0 119.5 19t79 48.5t45.5 76.5t22 91.5t5 104.5zM643 1192h-188l-228 309h193l131 -194l127 194h192z" />
    <glyph glyph-name="uni01CF" unicode="&#x1cf;" horiz-adv-x="579" 
d="M184 1423h211v-1423h-211v1423zM389 1548h-199l-270 271h205l166 -164l174 164h205z" />
    <glyph glyph-name="uni01D0" unicode="&#x1d0;" horiz-adv-x="499" 
d="M150 0v1042h200v-1042h-200zM344 1192h-188l-228 309h193l131 -194l127 194h192z" />
    <glyph glyph-name="uni01D1" unicode="&#x1d1;" horiz-adv-x="1544" 
d="M780 1444q198 0 348.5 -92.5t230 -256.5t79.5 -376q0 -150 -42.5 -282t-124.5 -234.5t-212.5 -162.5t-294.5 -60q-155 0 -281 56.5t-207.5 156t-125.5 232t-44 286.5t45 287.5t129 232.5t213 156t287 57zM772 1266q-112 0 -199 -43.5t-139.5 -119.5t-79 -173.5
t-26.5 -212.5q0 -114 28.5 -214.5t82.5 -178t140 -122t193 -44.5q93 0 168.5 30t126.5 81.5t85 123t49.5 152t15.5 170.5q0 115 -27.5 213.5t-81 174.5t-140 119.5t-196.5 43.5zM866 1556h-198l-271 271h205l166 -164l174 164h205z" />
    <glyph glyph-name="uni01D2" unicode="&#x1d2;" horiz-adv-x="1136" 
d="M575 1067q219 0 351.5 -149t132.5 -394q0 -115 -32.5 -214.5t-94 -174t-156.5 -117.5t-213 -43q-148 0 -259 71t-168.5 194t-57.5 280q0 239 133 393t364 154zM567 901q-136 0 -209 -101t-73 -278q0 -170 77 -275.5t209 -105.5q133 0 208 102.5t75 276.5
q0 176 -75.5 278.5t-211.5 102.5zM662 1192h-189l-227 309h192l131 -194l127 194h193z" />
    <glyph glyph-name="uni01D3" unicode="&#x1d3;" horiz-adv-x="1468" 
d="M170 1423h213v-856q0 -116 29.5 -200t81.5 -128t111 -63.5t130 -19.5q81 0 142.5 20.5t109.5 66.5t73 127.5t25 196.5v856h211v-843q0 -598 -565 -598q-94 0 -174.5 18t-153 60.5t-123 108.5t-80.5 167t-30 231v856zM827 1559h-198l-271 270h205l166 -164l174 164h205z
" />
    <glyph glyph-name="uni01D4" unicode="&#x1d4;" horiz-adv-x="1150" 
d="M1001 1042v-739q0 -54 1.5 -163.5t1.5 -139.5h-197q-6 40 -6 150q-82 -175 -309 -175q-72 0 -132 20t-109.5 63t-77.5 119.5t-28 180.5v684h201v-641q0 -254 205 -254q135 0 192.5 81t57.5 270v544h200zM670 1192h-189l-227 309h192l132 -194l127 194h192z" />
    <glyph glyph-name="uni01D5" unicode="&#x1d5;" horiz-adv-x="1468" 
d="M170 1423h213v-856q0 -116 29.5 -200t81.5 -128t111 -63.5t130 -19.5q81 0 142.5 20.5t109.5 66.5t73 127.5t25 196.5v856h211v-843q0 -598 -565 -598q-94 0 -174.5 18t-153 60.5t-123 108.5t-80.5 167t-30 231v856zM608 1548h-172v189h172v-189zM1008 1835h-551v141h551
v-141zM1030 1548h-172v189h172v-189z" />
    <glyph glyph-name="uni01D6" unicode="&#x1d6;" horiz-adv-x="1150" 
d="M1001 1042v-739q0 -54 1.5 -163.5t1.5 -139.5h-197q-6 40 -6 150q-82 -175 -309 -175q-72 0 -132 20t-109.5 63t-77.5 119.5t-28 180.5v684h201v-641q0 -254 205 -254q135 0 192.5 81t57.5 270v544h200zM465 1165h-172v189h172v-189zM850 1468h-551v138h551v-138z
M858 1165h-172v189h172v-189z" />
    <glyph glyph-name="uni01D7" unicode="&#x1d7;" horiz-adv-x="1468" 
d="M170 1423h213v-856q0 -116 29.5 -200t81.5 -128t111 -63.5t130 -19.5q81 0 142.5 20.5t109.5 66.5t73 127.5t25 196.5v856h211v-843q0 -598 -565 -598q-94 0 -174.5 18t-153 60.5t-123 108.5t-80.5 167t-30 231v856zM436 1729h172v-187h-172v187zM631 1794l200 244h248
l-268 -244h-180zM1030 1542h-172v187h172v-187z" />
    <glyph glyph-name="uni01D8" unicode="&#x1d8;" horiz-adv-x="1150" 
d="M1001 1042v-739q0 -54 1.5 -163.5t1.5 -139.5h-197q-6 40 -6 150q-82 -175 -309 -175q-72 0 -132 20t-109.5 63t-77.5 119.5t-28 180.5v684h201v-641q0 -254 205 -254q135 0 192.5 81t57.5 270v544h200zM293 1354h172v-189h-172v189zM649 1417h-180l197 244h239z
M858 1165h-172v189h172v-189z" />
    <glyph glyph-name="uni01D9" unicode="&#x1d9;" horiz-adv-x="1468" 
d="M170 1423h213v-856q0 -116 29.5 -200t81.5 -128t111 -63.5t130 -19.5q81 0 142.5 20.5t109.5 66.5t73 127.5t25 196.5v856h211v-843q0 -598 -565 -598q-94 0 -174.5 18t-153 60.5t-123 108.5t-80.5 167t-30 231v856zM823 1788h-192l-219 244h184l133 -146l135 146h180z
M612 1540h-172v186h172v-186zM1034 1540h-172v186h172v-186z" />
    <glyph glyph-name="uni01DA" unicode="&#x1da;" horiz-adv-x="1150" 
d="M1001 1042v-739q0 -54 1.5 -163.5t1.5 -139.5h-197q-6 40 -6 150q-82 -175 -309 -175q-72 0 -132 20t-109.5 63t-77.5 119.5t-28 180.5v684h201v-641q0 -254 205 -254q135 0 192.5 81t57.5 270v544h200zM672 1407h-191l-217 244h180l134 -150l131 150h180zM465 1155h-172
v188h172v-188zM858 1155h-172v188h172v-188z" />
    <glyph glyph-name="uni01DB" unicode="&#x1db;" horiz-adv-x="1468" 
d="M170 1423h213v-856q0 -116 29.5 -200t81.5 -128t111 -63.5t130 -19.5q81 0 142.5 20.5t109.5 66.5t73 127.5t25 196.5v856h211v-843q0 -598 -565 -598q-94 0 -174.5 18t-153 60.5t-123 108.5t-80.5 167t-30 231v856zM436 1731h172v-187h-172v187zM831 1796h-178l-270 242
h240zM1030 1544h-172v187h172v-187z" />
    <glyph glyph-name="uni01DC" unicode="&#x1dc;" horiz-adv-x="1150" 
d="M1001 1042v-739q0 -54 1.5 -163.5t1.5 -139.5h-197q-6 40 -6 150q-82 -175 -309 -175q-72 0 -132 20t-109.5 63t-77.5 119.5t-28 180.5v684h201v-641q0 -254 205 -254q135 0 192.5 81t57.5 270v544h200zM293 1343h172v-188h-172v188zM244 1651h243l195 -244h-176z
M858 1155h-172v188h172v-188z" />
    <glyph glyph-name="Gcaron" unicode="&#x1e6;" horiz-adv-x="1501" 
d="M1354 774v-774h-160q-14 43 -20 182q-131 -202 -437 -202q-151 0 -272 54.5t-199 151.5t-119 227t-41 283q0 161 44 297t127.5 236.5t211.5 157.5t287 57q246 0 401 -120.5t185 -315.5h-211q-81 262 -379 262q-95 0 -170.5 -29.5t-126 -81t-84 -123.5t-48.5 -153.5
t-15 -175.5q0 -111 25 -207t76 -174.5t137.5 -124t199.5 -45.5q381 0 381 424v14h-383v180h590zM854 1559h-199l-270 270h205l166 -164l174 164h205z" />
    <glyph glyph-name="gcaron" unicode="&#x1e7;" horiz-adv-x="1173" 
d="M1026 741v-641q0 -260 -115.5 -394t-371.5 -134q-94 0 -169.5 20.5t-122 53t-79.5 76.5t-47.5 85.5t-20.5 86.5h205q22 -80 84.5 -123t159.5 -43q83 0 139 25t86.5 76.5t42.5 116.5t12 158v78q-43 -87 -119.5 -131.5t-199.5 -44.5q-194 0 -313 143.5t-119 370.5
q0 247 128.5 397t323.5 150q132 0 204.5 -48t94.5 -110q3 77 9 133h190q0 -29 -1 -138t-1 -163zM287 528q0 -160 74.5 -256t197.5 -96q153 0 215 93.5t62 271.5q0 180 -59 269t-212 89q-132 0 -205 -101t-73 -270zM678 1192h-189l-227 309h193l131 -194l127 194h192z" />
    <glyph glyph-name="uni0218" unicode="&#x218;" horiz-adv-x="1253" 
d="M82 399h213q60 -252 350 -252q151 0 223 61.5t72 164.5q0 107 -72.5 168.5t-273.5 109.5q-253 61 -355 154.5t-102 247.5q0 172 124.5 281.5t356.5 109.5q124 0 221.5 -33.5t156 -90.5t90.5 -123.5t40 -141.5h-215q-43 221 -299 221q-123 0 -190.5 -52t-67.5 -149
q0 -94 68 -143t254 -94q119 -29 206.5 -66.5t140 -77.5t83.5 -91t42 -98.5t11 -107.5q0 -185 -136 -300t-392 -115q-130 0 -231.5 33t-166 91.5t-102 131.5t-49.5 161zM604 -526h-166q99 216 115 411h203q-7 -107 -52 -226t-100 -185z" />
    <glyph glyph-name="uni0219" unicode="&#x219;" horiz-adv-x="985" 
d="M61 301h201q42 -170 244 -170q199 0 199 148q0 70 -48.5 107.5t-187.5 72.5q-113 27 -186.5 59t-112.5 71.5t-53.5 81t-14.5 99.5q0 57 22 108.5t66.5 94.5t121 68.5t175.5 25.5q100 0 177.5 -26.5t123.5 -71.5t70 -96.5t29 -108.5h-193q-35 151 -215 151q-94 0 -136 -37
t-42 -92q0 -57 45 -88.5t182 -64.5q96 -22 164.5 -49.5t110.5 -57.5t66.5 -68t33 -75.5t8.5 -87.5q0 -142 -107.5 -231t-305.5 -89q-199 0 -307 88.5t-130 237.5zM469 -520h-166q99 216 115 411h203q-7 -107 -52 -226t-100 -185z" />
    <glyph glyph-name="uni021A" unicode="&#x21a;" horiz-adv-x="1155" 
d="M471 0v1243h-455v180h1123v-180h-455v-1243h-213zM528 -520h-166q99 216 115 411h203q-7 -107 -52 -226t-100 -185z" />
    <glyph glyph-name="uni021B" unicode="&#x21b;" horiz-adv-x="669" 
d="M23 883v159h176v304h200v-304h226v-159h-226v-592q0 -77 25.5 -111.5t91.5 -34.5q56 0 86 9v-150q-53 -18 -162 -18q-127 0 -184 65t-57 199v633h-176zM322 -520h-166q98 213 114 411h203q-7 -107 -51.5 -226t-99.5 -185z" />
    <glyph glyph-name="uni0237" unicode="&#x237;" horiz-adv-x="499" 
d="M150 1042h200v-1065q0 -224 -64 -314.5t-239 -90.5q-38 0 -74 4v168q14 -2 41 -2q80 0 108 45.5t28 153.5v1101z" />
    <glyph glyph-name="uni0251" unicode="&#x251;" horiz-adv-x="1187" 
d="M834 1042h200v-784q0 -171 13 -260h-185q-7 42 -16 154q-85 -177 -330 -177q-196 0 -317 148t-121 387q0 155 56 281t164 201t249 75q122 0 192 -41t95 -96v112zM287 516q0 -175 75 -273t197 -98q281 0 281 390q0 77 -11.5 137.5t-40 113.5t-83 82t-132.5 29
q-130 0 -208 -101t-78 -280z" />
    <glyph glyph-name="uni0259" unicode="&#x259;" horiz-adv-x="1071" 
d="M66 559h725q-2 151 -74 246.5t-197 95.5q-56 0 -98 -12.5t-68.5 -36t-41.5 -47t-29 -55.5h-203q14 45 33.5 84.5t56.5 84t83.5 76t117 52t155.5 20.5q96 0 175 -30t132.5 -80.5t90 -119.5t53 -145.5t16.5 -159.5q0 -119 -30 -219.5t-88 -176t-150.5 -118.5t-210.5 -43
q-98 0 -177 30t-129.5 79t-84.5 115t-48 134t-14 140q0 50 5 86zM784 422h-520q2 -129 66 -210t186 -81q126 0 190.5 77.5t77.5 213.5z" />
    <glyph glyph-name="uni0261" unicode="&#x261;" horiz-adv-x="1173" 
d="M1026 741v-641q0 -260 -115.5 -394t-371.5 -134q-94 0 -169.5 20.5t-122 53t-79.5 76.5t-47.5 85.5t-20.5 86.5h205q22 -80 84.5 -123t159.5 -43q83 0 139 25t86.5 76.5t42.5 116.5t12 158v78q-43 -87 -119.5 -131.5t-199.5 -44.5q-194 0 -313 143.5t-119 370.5
q0 247 128.5 397t323.5 150q132 0 204.5 -48t94.5 -110q3 77 9 133h190q0 -29 -1 -138t-1 -163zM287 528q0 -160 74.5 -256t197.5 -96q153 0 215 93.5t62 271.5q0 180 -59 269t-212 89q-132 0 -205 -101t-73 -270z" />
    <glyph glyph-name="uni02BB" unicode="&#x2bb;" horiz-adv-x="714" 
d="M342 1501h166q-39 -129 -65 -286.5t-29 -266.5h-209q9 132 48.5 291.5t88.5 261.5z" />
    <glyph glyph-name="uni02BC" unicode="&#x2bc;" horiz-adv-x="714" 
d="M371 948h-166q40 127 65.5 284t28.5 269h211q-9 -131 -49 -290.5t-90 -262.5z" />
    <glyph glyph-name="uni02BE" unicode="&#x2be;" horiz-adv-x="645" 
d="M205 1262q47 3 73.5 26.5t26.5 65.5q0 39 -28 62t-72 28v115q100 0 167.5 -56t67.5 -147q0 -96 -68.5 -152.5t-166.5 -56.5v115z" />
    <glyph glyph-name="uni02BF" unicode="&#x2bf;" horiz-adv-x="645" 
d="M440 1262v-117q-100 0 -167.5 56t-67.5 149q0 95 67.5 150.5t165.5 55.5v-114q-45 -3 -71.5 -26.5t-26.5 -65.5q0 -39 28 -62t72 -26z" />
    <glyph glyph-name="circumflex" unicode="&#x2c6;" 
d="M315 1501h187l229 -309h-192l-131 197l-129 -197h-191z" />
    <glyph glyph-name="caron" unicode="&#x2c7;" 
d="M504 1192h-189l-227 309h193l131 -194l127 194h192z" />
    <glyph glyph-name="uni02C8" unicode="&#x2c8;" horiz-adv-x="591" 
d="M387 1157h-182v373h182v-373z" />
    <glyph glyph-name="uni02C9" unicode="&#x2c9;" horiz-adv-x="987" 
d="M205 1436h577v-158h-577v158z" />
    <glyph glyph-name="uni02CA" unicode="&#x2ca;" horiz-adv-x="880" 
d="M473 1522h246l-318 -312h-186z" />
    <glyph glyph-name="uni02CB" unicode="&#x2cb;" horiz-adv-x="880" 
d="M160 1522h248l256 -312h-187z" />
    <glyph glyph-name="uni02CC" unicode="&#x2cc;" horiz-adv-x="591" 
d="M387 -481h-182v372h182v-372z" />
    <glyph glyph-name="breve" unicode="&#x2d8;" 
d="M106 1483h146q15 -61 53.5 -98t102.5 -37q76 0 109 35.5t50 99.5h144q-16 -126 -92.5 -205.5t-210.5 -79.5q-74 0 -132.5 24.5t-93 66.5t-53.5 90.5t-23 103.5z" />
    <glyph glyph-name="dotaccent" unicode="&#x2d9;" 
d="M510 1270h-201v231h201v-231z" />
    <glyph glyph-name="ring" unicode="&#x2da;" 
d="M410 1161q-102 0 -163 57t-61 144q0 86 60.5 144.5t163.5 58.5q102 0 162.5 -57t60.5 -144q0 -88 -61.5 -145.5t-161.5 -57.5zM410 1260q50 0 77 29.5t27 72.5t-27 74.5t-77 31.5q-52 0 -78.5 -30t-26.5 -72q0 -44 26.5 -75t78.5 -31z" />
    <glyph glyph-name="ogonek" unicode="&#x2db;" 
d="M383 29l166 -29q-133 -108 -133 -211q0 -49 31 -76.5t81 -27.5q67 0 113 16v-150q-60 -32 -168 -32q-113 0 -178.5 60t-65.5 167q0 145 154 283z" />
    <glyph glyph-name="tilde" unicode="&#x2dc;" 
d="M223 1233h-139v51q0 203 172 203q50 0 106 -24.5t103 -49t76 -24.5t43 18t14 63v21h135v-45q0 -215 -176 -215q-51 0 -103.5 24.5t-98.5 49t-79 24.5q-53 0 -53 -63v-33z" />
    <glyph glyph-name="hungarumlaut" unicode="&#x2dd;" 
d="M264 1188h-162l205 315h209zM645 1188h-162l205 315h209z" />
    <glyph glyph-name="uni0300" unicode="&#x300;" horiz-adv-x="0" 
d="M-281 1522h248l256 -312h-186z" />
    <glyph glyph-name="uni0301" unicode="&#x301;" horiz-adv-x="0" 
d="M33 1522h246l-318 -312h-186z" />
    <glyph glyph-name="uni0302" unicode="&#x302;" horiz-adv-x="0" 
d="M-94 1501h186l230 -309h-193l-131 197l-129 -197h-191z" />
    <glyph glyph-name="uni0303" unicode="&#x303;" horiz-adv-x="0" 
d="M-186 1233h-140v51q0 203 172 203q50 0 106 -24.5t103 -49t76 -24.5t43 18t14 63v21h136v-45q0 -215 -177 -215q-51 0 -103.5 24.5t-98 49t-78.5 24.5q-53 0 -53 -63v-33z" />
    <glyph glyph-name="uni0304" unicode="&#x304;" horiz-adv-x="0" 
d="M-289 1436h578v-158h-578v158z" />
    <glyph glyph-name="uni0306" unicode="&#x306;" horiz-adv-x="0" 
d="M-303 1483h145q15 -61 53.5 -98t102.5 -37q76 0 109.5 35.5t50.5 99.5h143q-16 -126 -92.5 -205.5t-210.5 -79.5q-74 0 -132 24.5t-93 66.5t-53.5 90.5t-22.5 103.5z" />
    <glyph glyph-name="uni0307" unicode="&#x307;" horiz-adv-x="0" 
d="M100 1270h-200v231h200v-231z" />
    <glyph glyph-name="uni0308" unicode="&#x308;" horiz-adv-x="0" 
d="M-104 1270h-172v231h172v-231zM274 1270h-170v231h170v-231z" />
    <glyph glyph-name="uni0309" unicode="&#x309;" horiz-adv-x="0" 
d="M88 1194h-178q63 55 90 93t27 79q0 31 -21 51.5t-63 20.5q-55 0 -119 -33l-45 117q92 61 209 61q100 0 156.5 -52.5t56.5 -129.5q0 -46 -19.5 -88.5t-40.5 -66t-53 -52.5z" />
    <glyph glyph-name="uni030A" unicode="&#x30a;" horiz-adv-x="0" 
d="M0 1161q-102 0 -162.5 57t-60.5 144q0 86 60.5 144.5t162.5 58.5t162.5 -57t60.5 -144q0 -88 -61.5 -145.5t-161.5 -57.5zM0 1260q50 0 77 29.5t27 72.5t-27 74.5t-77 31.5q-52 0 -78 -30t-26 -72q0 -44 26 -75t78 -31z" />
    <glyph glyph-name="uni030B" unicode="&#x30b;" horiz-adv-x="0" 
d="M-223 1188h-162l205 315h209zM158 1188h-162l205 315h209z" />
    <glyph glyph-name="uni030C" unicode="&#x30c;" horiz-adv-x="0" 
d="M94 1192h-188l-228 309h193l131 -194l127 194h193z" />
    <glyph glyph-name="uni031B" unicode="&#x31b;" horiz-adv-x="0" 
d="M-78 958l-63 132q137 22 137 129q0 55 -23 122h183q16 -43 16 -116q0 -105 -64.5 -179.5t-185.5 -87.5z" />
    <glyph glyph-name="uni0323" unicode="&#x323;" horiz-adv-x="0" 
d="M106 -383h-212v233h212v-233z" />
    <glyph glyph-name="uni0324" unicode="&#x324;" horiz-adv-x="0" 
d="M-104 -389h-172v231h172v-231zM274 -389h-170v231h170v-231z" />
    <glyph glyph-name="uni0326" unicode="&#x326;" horiz-adv-x="0" 
d="M-12 -520h-166q99 216 115 411h202q-7 -107 -51.5 -226t-99.5 -185z" />
    <glyph glyph-name="uni0327" unicode="&#x327;" horiz-adv-x="0" 
d="M-33 20l137 -20l-84 -102q33 -6 62 -17.5t61.5 -32.5t52 -58t19.5 -85q0 -59 -24 -101t-65 -63t-82.5 -30t-88.5 -9q-94 0 -150 25v129q58 -21 129 -21q107 0 107 68q0 84 -205 88v59z" />
    <glyph glyph-name="uni0328" unicode="&#x328;" horiz-adv-x="0" 
d="M-68 29l166 -29q-133 -108 -133 -211q0 -49 31 -76.5t82 -27.5q66 0 112 16v-150q-60 -32 -167 -32q-113 0 -178.5 60t-65.5 167q0 146 153 283z" />
    <glyph glyph-name="uni032E" unicode="&#x32e;" horiz-adv-x="0" 
d="M-303 -121h145q15 -61 53.5 -98t102.5 -37q76 0 109.5 35.5t50.5 99.5h143q-16 -126 -92.5 -205.5t-210.5 -79.5q-74 0 -132 24.5t-93 66.5t-53.5 90.5t-22.5 103.5z" />
    <glyph glyph-name="uni0331" unicode="&#x331;" horiz-adv-x="0" 
d="M-289 -193h578v-157h-578v157z" />
    <glyph glyph-name="pi" unicode="&#x3c0;" horiz-adv-x="1130" 
d="M756 0l2 881h-396v-881h-200v881q-111 0 -172 -7v154q72 14 336 14h798v-161h-168v-881h-200z" />
    <glyph glyph-name="uni1E0C" unicode="&#x1e0c;" horiz-adv-x="1482" 
d="M184 0v1423h518q303 0 488.5 -190.5t185.5 -505.5q0 -210 -82.5 -374.5t-238.5 -258.5t-361 -94h-510zM395 1245v-1069h285q119 0 210.5 41t149 115.5t86.5 173t29 217.5q0 105 -27.5 196.5t-83 165.5t-148.5 117t-214 43h-287zM795 -383h-213v233h213v-233z" />
    <glyph glyph-name="uni1E0D" unicode="&#x1e0d;" horiz-adv-x="1181" 
d="M834 1501h200v-1208q0 -193 2 -293h-194q-8 58 -8 141q-81 -166 -322 -166q-199 0 -316.5 147.5t-117.5 387.5q0 161 56 287t163 198t250 72q120 0 190.5 -37.5t96.5 -89.5v561zM287 516q0 -177 74 -275t196 -98q85 0 143 30t87.5 87t41 122t11.5 153q0 71 -6.5 123.5
t-23.5 100t-47 77t-78 46.5t-114 17q-134 0 -209 -100.5t-75 -282.5zM696 -383h-213v233h213v-233z" />
    <glyph glyph-name="uni1E0E" unicode="&#x1e0e;" horiz-adv-x="1482" 
d="M184 0v1423h518q303 0 488.5 -190.5t185.5 -505.5q0 -210 -82.5 -374.5t-238.5 -258.5t-361 -94h-510zM395 1245v-1069h285q119 0 210.5 41t149 115.5t86.5 173t29 217.5q0 105 -27.5 196.5t-83 165.5t-148.5 117t-214 43h-287zM399 -193h578v-157h-578v157z" />
    <glyph glyph-name="uni1E0F" unicode="&#x1e0f;" horiz-adv-x="1181" 
d="M834 1501h200v-1208q0 -193 2 -293h-194q-8 58 -8 141q-81 -166 -322 -166q-199 0 -316.5 147.5t-117.5 387.5q0 161 56 287t163 198t250 72q120 0 190.5 -37.5t96.5 -89.5v561zM287 516q0 -177 74 -275t196 -98q85 0 143 30t87.5 87t41 122t11.5 153q0 71 -6.5 123.5
t-23.5 100t-47 77t-78 46.5t-114 17q-134 0 -209 -100.5t-75 -282.5zM301 -193h578v-157h-578v157z" />
    <glyph glyph-name="uni1E20" unicode="&#x1e20;" horiz-adv-x="1501" 
d="M1354 774v-774h-160q-14 43 -20 182q-131 -202 -437 -202q-151 0 -272 54.5t-199 151.5t-119 227t-41 283q0 161 44 297t127.5 236.5t211.5 157.5t287 57q246 0 401 -120.5t185 -315.5h-211q-81 262 -379 262q-95 0 -170.5 -29.5t-126 -81t-84 -123.5t-48.5 -153.5
t-15 -175.5q0 -111 25 -207t76 -174.5t137.5 -124t199.5 -45.5q381 0 381 424v14h-383v180h590zM467 1757h586v-153h-586v153z" />
    <glyph glyph-name="uni1E21" unicode="&#x1e21;" horiz-adv-x="1173" 
d="M1026 741v-641q0 -260 -115.5 -394t-371.5 -134q-94 0 -169.5 20.5t-122 53t-79.5 76.5t-47.5 85.5t-20.5 86.5h205q22 -80 84.5 -123t159.5 -43q83 0 139 25t86.5 76.5t42.5 116.5t12 158v78q-43 -87 -119.5 -131.5t-199.5 -44.5q-194 0 -313 143.5t-119 370.5
q0 247 128.5 397t323.5 150q132 0 204.5 -48t94.5 -110q3 77 9 133h190q0 -29 -1 -138t-1 -163zM287 528q0 -160 74.5 -256t197.5 -96q153 0 215 93.5t62 271.5q0 180 -59 269t-212 89q-132 0 -205 -101t-73 -270zM297 1436h577v-158h-577v158z" />
    <glyph glyph-name="uni1E24" unicode="&#x1e24;" horiz-adv-x="1499" 
d="M184 0v1423h211v-587h709v587h211v-1423h-211v657h-709v-657h-211zM856 -383h-213v233h213v-233z" />
    <glyph glyph-name="uni1E25" unicode="&#x1e25;" horiz-adv-x="1171" 
d="M150 1501h200v-606q102 172 320 172q69 0 129 -20.5t111.5 -65t81.5 -125t30 -190.5v-666h-201v633q0 264 -215 264q-256 0 -256 -330v-567h-200v1501zM692 -383h-213v233h213v-233z" />
    <glyph glyph-name="uni1E2A" unicode="&#x1e2a;" horiz-adv-x="1499" 
d="M184 0v1423h211v-587h709v587h211v-1423h-211v657h-709v-657h-211zM446 -121h146q15 -61 53.5 -98t102.5 -37q76 0 109 35.5t50 99.5h144q-16 -126 -92.5 -205.5t-210.5 -79.5q-74 0 -132.5 24.5t-93 66.5t-53.5 90.5t-23 103.5z" />
    <glyph glyph-name="uni1E2B" unicode="&#x1e2b;" horiz-adv-x="1171" 
d="M150 1501h200v-606q102 172 320 172q69 0 129 -20.5t111.5 -65t81.5 -125t30 -190.5v-666h-201v633q0 264 -215 264q-256 0 -256 -330v-567h-200v1501zM283 -121h145q15 -61 53.5 -98t102.5 -37q76 0 109 35.5t50 99.5h144q-16 -126 -92.5 -205.5t-210.5 -79.5
q-74 0 -132 24.5t-93 66.5t-53.5 90.5t-22.5 103.5z" />
    <glyph glyph-name="uni1E36" unicode="&#x1e36;" horiz-adv-x="1159" 
d="M184 0v1423h211v-1245h735l-28 -178h-918zM756 -383h-213v233h213v-233z" />
    <glyph glyph-name="uni1E37" unicode="&#x1e37;" horiz-adv-x="499" 
d="M350 0h-200v1501h200v-1501zM356 -383h-213v233h213v-233z" />
    <glyph glyph-name="uni1E38" unicode="&#x1e38;" horiz-adv-x="1159" 
d="M184 0v1423h211v-1245h735l-28 -178h-918zM756 -383h-213v233h213v-233zM8 1733h586v-154h-586v154z" />
    <glyph glyph-name="uni1E39" unicode="&#x1e39;" horiz-adv-x="499" 
d="M350 0h-200v1501h200v-1501zM-39 1786h578v-158h-578v158zM358 -383h-213v233h213v-233z" />
    <glyph glyph-name="uni1E3A" unicode="&#x1e3a;" horiz-adv-x="1159" 
d="M184 0v1423h211v-1245h735l-28 -178h-918zM362 -193h578v-157h-578v157z" />
    <glyph glyph-name="uni1E3B" unicode="&#x1e3b;" horiz-adv-x="499" 
d="M350 0h-200v1501h200v-1501zM-39 -193h578v-157h-578v157z" />
    <glyph glyph-name="uni1E42" unicode="&#x1e42;" horiz-adv-x="1783" 
d="M1395 0v592q0 429 10 682h-8q-17 -69 -50.5 -175t-85.5 -256.5t-92 -263.5t-109 -306t-97 -273h-187q-14 44 -130 398t-180.5 559.5t-92.5 318.5h-8q16 -219 16 -719v-557h-197v1423h316q118 -333 232.5 -681t150.5 -484h2q25 103 154 466.5t257 698.5h306v-1423h-207z
M979 -383h-213v233h213v-233z" />
    <glyph glyph-name="uni1E43" unicode="&#x1e43;" horiz-adv-x="1742" 
d="M150 0v774q0 139 -3 268h193q8 -62 8 -153q97 178 301 178q107 0 181 -49.5t104 -130.5q107 180 330 180q67 0 124.5 -21t104 -64.5t73.5 -119.5t27 -178v-684h-196v662q0 46 -9.5 85.5t-31 74.5t-61.5 55t-95 20q-116 0 -172.5 -79t-56.5 -220v-598h-197v653
q0 52 -8.5 93t-28.5 76.5t-59.5 55t-95.5 19.5q-116 0 -175 -84.5t-59 -234.5v-578h-198zM977 -383h-213v233h213v-233z" />
    <glyph glyph-name="uni1E44" unicode="&#x1e44;" horiz-adv-x="1527" 
d="M383 0h-199v1423h275q59 -98 238.5 -392.5t302 -500t157.5 -274.5h2q-12 151 -12 637v530h196v-1423h-258q-601 1000 -710 1206h-4q12 -187 12 -663v-543zM872 1565h-204v229h204v-229z" />
    <glyph glyph-name="uni1E45" unicode="&#x1e45;" horiz-adv-x="1169" 
d="M150 0v780q0 142 -3 262h197q8 -62 8 -163q85 188 322 188q157 0 252.5 -100t95.5 -297v-670h-201v645q0 252 -211 252q-132 0 -195 -90t-63 -250v-557h-202zM684 1270h-201v231h201v-231z" />
    <glyph glyph-name="uni1E46" unicode="&#x1e46;" horiz-adv-x="1527" 
d="M383 0h-199v1423h275q59 -98 238.5 -392.5t302 -500t157.5 -274.5h2q-12 151 -12 637v530h196v-1423h-258q-601 1000 -710 1206h-4q12 -187 12 -663v-543zM870 -383h-213v233h213v-233z" />
    <glyph glyph-name="uni1E47" unicode="&#x1e47;" horiz-adv-x="1169" 
d="M150 0v780q0 142 -3 262h197q8 -62 8 -163q85 188 322 188q157 0 252.5 -100t95.5 -297v-670h-201v645q0 252 -211 252q-132 0 -195 -90t-63 -250v-557h-202zM690 -383h-213v233h213v-233z" />
    <glyph glyph-name="uni1E48" unicode="&#x1e48;" horiz-adv-x="1527" 
d="M383 0h-199v1423h275q59 -98 238.5 -392.5t302 -500t157.5 -274.5h2q-12 151 -12 637v530h196v-1423h-258q-601 1000 -710 1206h-4q12 -187 12 -663v-543zM475 -193h578v-157h-578v157z" />
    <glyph glyph-name="uni1E49" unicode="&#x1e49;" horiz-adv-x="1169" 
d="M150 0v780q0 142 -3 262h197q8 -62 8 -163q85 188 322 188q157 0 252.5 -100t95.5 -297v-670h-201v645q0 252 -211 252q-132 0 -195 -90t-63 -250v-557h-202zM295 -193h577v-157h-577v157z" />
    <glyph glyph-name="uni1E5A" unicode="&#x1e5a;" horiz-adv-x="1323" 
d="M666 616h-273v-616h-209v1423h570q215 0 333.5 -106t118.5 -277q0 -132 -65.5 -218t-169.5 -117q209 -57 209 -363v-61v-42v-47.5t0.5 -42t2 -46t3.5 -37t5.5 -38t8.5 -28.5h-205q-12 29 -17.5 83t-6 93t-0.5 133v27q0 77 -12.5 126.5t-45.5 86t-93 52t-154 15.5z
M393 1247v-456h299q155 0 226 57t71 174q0 108 -70.5 166.5t-207.5 58.5h-318zM786 -373h-213v234h213v-234z" />
    <glyph glyph-name="uni1E5B" unicode="&#x1e5b;" horiz-adv-x="737" 
d="M150 0v760q0 78 -1.5 169.5t-1.5 112.5h197q6 -44 6 -206q41 105 130.5 166.5t217.5 64.5v-199q-168 -3 -258 -91t-90 -281v-496h-200zM358 -383h-213v233h213v-233z" />
    <glyph glyph-name="uni1E5C" unicode="&#x1e5c;" horiz-adv-x="1323" 
d="M666 616h-273v-616h-209v1423h570q215 0 333.5 -106t118.5 -277q0 -132 -65.5 -218t-169.5 -117q209 -57 209 -363v-61v-42v-47.5t0.5 -42t2 -46t3.5 -37t5.5 -38t8.5 -28.5h-205q-12 29 -17.5 83t-6 93t-0.5 133v27q0 77 -12.5 126.5t-45.5 86t-93 52t-154 15.5z
M393 1247v-456h299q155 0 226 57t71 174q0 108 -70.5 166.5t-207.5 58.5h-318zM788 -369h-213v234h213v-234zM365 1743h585v-154h-585v154z" />
    <glyph glyph-name="uni1E5D" unicode="&#x1e5d;" horiz-adv-x="737" 
d="M150 0v760q0 78 -1.5 169.5t-1.5 112.5h197q6 -44 6 -206q41 105 130.5 166.5t217.5 64.5v-199q-168 -3 -258 -91t-90 -281v-496h-200zM129 1436h578v-158h-578v158zM360 -383h-213v233h213v-233z" />
    <glyph glyph-name="uni1E5E" unicode="&#x1e5e;" horiz-adv-x="1323" 
d="M666 616h-273v-616h-209v1423h570q215 0 333.5 -106t118.5 -277q0 -132 -65.5 -218t-169.5 -117q209 -57 209 -363v-61v-42v-47.5t0.5 -42t2 -46t3.5 -37t5.5 -38t8.5 -28.5h-205q-12 29 -17.5 83t-6 93t-0.5 133v27q0 77 -12.5 126.5t-45.5 86t-93 52t-154 15.5z
M393 1247v-456h299q155 0 226 57t71 174q0 108 -70.5 166.5t-207.5 58.5h-318zM393 -184h578v-158h-578v158z" />
    <glyph glyph-name="uni1E5F" unicode="&#x1e5f;" horiz-adv-x="737" 
d="M150 0v760q0 78 -1.5 169.5t-1.5 112.5h197q6 -44 6 -206q41 105 130.5 166.5t217.5 64.5v-199q-168 -3 -258 -91t-90 -281v-496h-200zM-12 -193h577v-157h-577v157z" />
    <glyph glyph-name="uni1E60" unicode="&#x1e60;" horiz-adv-x="1253" 
d="M82 399h213q60 -252 350 -252q151 0 223 61.5t72 164.5q0 107 -72.5 168.5t-273.5 109.5q-253 61 -355 154.5t-102 247.5q0 172 124.5 281.5t356.5 109.5q124 0 221.5 -33.5t156 -90.5t90.5 -123.5t40 -141.5h-215q-43 221 -299 221q-123 0 -190.5 -52t-67.5 -149
q0 -94 68 -143t254 -94q119 -29 206.5 -66.5t140 -77.5t83.5 -91t42 -98.5t11 -107.5q0 -185 -136 -300t-392 -115q-130 0 -231.5 33t-166 91.5t-102 131.5t-49.5 161zM727 1573h-205v229h205v-229z" />
    <glyph glyph-name="uni1E61" unicode="&#x1e61;" horiz-adv-x="985" 
d="M61 301h201q42 -170 244 -170q199 0 199 148q0 70 -48.5 107.5t-187.5 72.5q-113 27 -186.5 59t-112.5 71.5t-53.5 81t-14.5 99.5q0 57 22 108.5t66.5 94.5t121 68.5t175.5 25.5q100 0 177.5 -26.5t123.5 -71.5t70 -96.5t29 -108.5h-193q-35 151 -215 151q-94 0 -136 -37
t-42 -92q0 -57 45 -88.5t182 -64.5q96 -22 164.5 -49.5t110.5 -57.5t66.5 -68t33 -75.5t8.5 -87.5q0 -142 -107.5 -231t-305.5 -89q-199 0 -307 88.5t-130 237.5zM594 1270h-201v231h201v-231z" />
    <glyph glyph-name="uni1E62" unicode="&#x1e62;" horiz-adv-x="1253" 
d="M82 399h213q60 -252 350 -252q151 0 223 61.5t72 164.5q0 107 -72.5 168.5t-273.5 109.5q-253 61 -355 154.5t-102 247.5q0 172 124.5 281.5t356.5 109.5q124 0 221.5 -33.5t156 -90.5t90.5 -123.5t40 -141.5h-215q-43 221 -299 221q-123 0 -190.5 -52t-67.5 -149
q0 -94 68 -143t254 -94q119 -29 206.5 -66.5t140 -77.5t83.5 -91t42 -98.5t11 -107.5q0 -185 -136 -300t-392 -115q-130 0 -231.5 33t-166 91.5t-102 131.5t-49.5 161zM731 -383h-213v233h213v-233z" />
    <glyph glyph-name="uni1E63" unicode="&#x1e63;" horiz-adv-x="985" 
d="M61 301h201q42 -170 244 -170q199 0 199 148q0 70 -48.5 107.5t-187.5 72.5q-113 27 -186.5 59t-112.5 71.5t-53.5 81t-14.5 99.5q0 57 22 108.5t66.5 94.5t121 68.5t175.5 25.5q100 0 177.5 -26.5t123.5 -71.5t70 -96.5t29 -108.5h-193q-35 151 -215 151q-94 0 -136 -37
t-42 -92q0 -57 45 -88.5t182 -64.5q96 -22 164.5 -49.5t110.5 -57.5t66.5 -68t33 -75.5t8.5 -87.5q0 -142 -107.5 -231t-305.5 -89q-199 0 -307 88.5t-130 237.5zM600 -383h-213v233h213v-233z" />
    <glyph glyph-name="uni1E6C" unicode="&#x1e6c;" horiz-adv-x="1155" 
d="M471 0v1243h-455v180h1123v-180h-455v-1243h-213zM684 -383h-213v233h213v-233z" />
    <glyph glyph-name="uni1E6D" unicode="&#x1e6d;" horiz-adv-x="669" 
d="M23 883v159h176v304h200v-304h226v-159h-226v-592q0 -77 25.5 -111.5t91.5 -34.5q56 0 86 9v-150q-53 -18 -162 -18q-127 0 -184 65t-57 199v633h-176zM481 -383h-213v233h213v-233z" />
    <glyph glyph-name="uni1E6E" unicode="&#x1e6e;" horiz-adv-x="1155" 
d="M471 0v1243h-455v180h1123v-180h-455v-1243h-213zM289 -193h577v-157h-577v157z" />
    <glyph glyph-name="uni1E6F" unicode="&#x1e6f;" horiz-adv-x="669" 
d="M23 883v159h176v304h200v-304h226v-159h-226v-592q0 -77 25.5 -111.5t91.5 -34.5q56 0 86 9v-150q-53 -18 -162 -18q-127 0 -184 65t-57 199v633h-176zM78 -193h577v-157h-577v157z" />
    <glyph glyph-name="Wgrave" unicode="&#x1e80;" horiz-adv-x="1923" 
d="M645 0h-223l-379 1423h225q42 -183 112 -476t111 -470.5t52 -249.5h2q23 109 150 577t165 619h203q268 -1010 301 -1187h2q21 116 77 334t135 505t95 348h207l-410 -1423h-223q-26 102 -99.5 379.5t-126 480.5t-69.5 285h-2q-15 -76 -56.5 -236.5t-76.5 -288t-96.5 -348
t-75.5 -272.5zM530 1831h263l274 -283h-199z" />
    <glyph glyph-name="wgrave" unicode="&#x1e81;" horiz-adv-x="1585" 
d="M47 1042h213q193 -746 211 -858h2q30 149 229 858h195q200 -747 217 -839h2q45 200 219 839h203l-319 -1042h-218q-34 133 -88.5 341t-83 319.5t-38.5 164.5h-3q-3 -19 -8 -44t-14 -62t-17 -68.5t-22.5 -85.5t-24 -90.5t-29.5 -107.5t-31 -111t-35 -126t-36 -130h-223z
M391 1522h248l256 -312h-186z" />
    <glyph glyph-name="Wacute" unicode="&#x1e82;" horiz-adv-x="1923" 
d="M645 0h-223l-379 1423h225q42 -183 112 -476t111 -470.5t52 -249.5h2q23 109 150 577t165 619h203q268 -1010 301 -1187h2q21 116 77 334t135 505t95 348h207l-410 -1423h-223q-26 102 -99.5 379.5t-126 480.5t-69.5 285h-2q-15 -76 -56.5 -236.5t-76.5 -288t-96.5 -348
t-75.5 -272.5zM1147 1829h260l-354 -283h-203z" />
    <glyph glyph-name="wacute" unicode="&#x1e83;" horiz-adv-x="1585" 
d="M47 1042h213q193 -746 211 -858h2q30 149 229 858h195q200 -747 217 -839h2q45 200 219 839h203l-319 -1042h-218q-34 133 -88.5 341t-83 319.5t-38.5 164.5h-3q-3 -19 -8 -44t-14 -62t-17 -68.5t-22.5 -85.5t-24 -90.5t-29.5 -107.5t-31 -111t-35 -126t-36 -130h-223z
M948 1522h246l-317 -312h-187z" />
    <glyph glyph-name="Wdieresis" unicode="&#x1e84;" horiz-adv-x="1923" 
d="M645 0h-223l-379 1423h225q42 -183 112 -476t111 -470.5t52 -249.5h2q23 109 150 577t165 619h203q268 -1010 301 -1187h2q21 116 77 334t135 505t95 348h207l-410 -1423h-223q-26 102 -99.5 379.5t-126 480.5t-69.5 285h-2q-15 -76 -56.5 -236.5t-76.5 -288t-96.5 -348
t-75.5 -272.5zM846 1569h-172v231h172v-231zM1247 1569h-170v231h170v-231z" />
    <glyph glyph-name="wdieresis" unicode="&#x1e85;" horiz-adv-x="1585" 
d="M47 1042h213q193 -746 211 -858h2q30 149 229 858h195q200 -747 217 -839h2q45 200 219 839h203l-319 -1042h-218q-34 133 -88.5 341t-83 319.5t-38.5 164.5h-3q-3 -19 -8 -44t-14 -62t-17 -68.5t-22.5 -85.5t-24 -90.5t-29.5 -107.5t-31 -111t-35 -126t-36 -130h-223z
M688 1270h-172v231h172v-231zM1067 1270h-170v231h170v-231z" />
    <glyph glyph-name="uni1E8E" unicode="&#x1e8e;" horiz-adv-x="1220" 
d="M711 0h-213v518q0 21 -11 39l-499 866h241q354 -649 385 -710q52 108 394 710h225l-514 -868q-8 -16 -8 -37v-518zM713 1563h-205v229h205v-229z" />
    <glyph glyph-name="uni1E8F" unicode="&#x1e8f;" horiz-adv-x="999" 
d="M18 1042h218q231 -688 276 -862h2q53 202 264 862h203l-371 -1087q-78 -229 -159 -306t-246 -77q-53 0 -117 6v172q41 -6 84 -6q94 0 143 46.5t93 170.5zM600 1270h-201v231h201v-231z" />
    <glyph glyph-name="uni1E92" unicode="&#x1e92;" horiz-adv-x="1230" 
d="M61 0v160l850 1083h-809v180h1053v-176l-833 -1069h862l-29 -178h-1094zM721 -383h-213v233h213v-233z" />
    <glyph glyph-name="uni1E93" unicode="&#x1e93;" horiz-adv-x="940" 
d="M53 0v160l584 717h-555v165h784v-165l-575 -711h604l-29 -166h-813zM575 -383h-213v233h213v-233z" />
    <glyph glyph-name="uni1E97" unicode="&#x1e97;" horiz-adv-x="669" 
d="M23 883v159h176v304h200v-304h226v-159h-226v-592q0 -77 25.5 -111.5t91.5 -34.5q56 0 86 9v-150q-53 -18 -162 -18q-127 0 -184 65t-57 199v633h-176zM197 1444h-172v231h172v-231zM575 1444h-169v231h169v-231z" />
    <glyph glyph-name="uni1E9E" unicode="&#x1e9e;" horiz-adv-x="1335" 
d="M395 991v-991h-213v1042q0 201 131 301.5t371 100.5q116 0 208 -23.5t149 -60.5t94.5 -86.5t52 -97.5t14.5 -97q0 -35 -4 -63l-336 -209v-10l142 -84q157 -94 216.5 -180.5t59.5 -194.5q0 -162 -110 -260t-318 -98q-107 0 -195 30t-139 76v203q62 -66 152 -106t182 -40
q112 0 167.5 50.5t55.5 125.5q0 70 -40 119.5t-158 118.5l-213 123q-57 34 -56.5 92t60.5 96l311 201q1 27 -5.5 53.5t-26.5 56t-51 52t-85 37t-123 14.5q-71 0 -121 -12t-91 -42.5t-61 -89.5t-20 -147z" />
    <glyph glyph-name="uni1EA0" unicode="&#x1ea0;" horiz-adv-x="1361" 
d="M950 408h-559l-143 -408h-211l502 1423h262l524 -1423h-225zM444 588h455q-208 576 -233 667h-2q-16 -55 -45 -144t-85.5 -256.5t-89.5 -266.5zM786 -383h-213v233h213v-233z" />
    <glyph glyph-name="uni1EA1" unicode="&#x1ea1;" horiz-adv-x="1093" 
d="M942 723v-487q0 -168 14 -236h-190q-11 31 -18 129q-79 -154 -316 -154q-89 0 -159 27.5t-111 73.5t-61.5 102t-20.5 117q0 171 128 256.5t365 85.5h172v84q0 38 -8 68t-28.5 60t-64.5 47t-109 17q-59 0 -100 -12.5t-62.5 -38t-31.5 -49t-17 -59.5h-195q6 62 28.5 114
t68 99t126 74t189.5 26q401 0 401 -344zM748 469v33h-160q-153 0 -228 -47t-75 -148q0 -79 51 -128.5t141 -49.5q69 0 119.5 19t79 48.5t45.5 76.5t22 91.5t5 104.5zM655 -383h-213v233h213v-233z" />
    <glyph glyph-name="uni1EA2" unicode="&#x1ea2;" horiz-adv-x="1361" 
d="M950 408h-559l-143 -408h-211l502 1423h262l524 -1423h-225zM444 588h455q-208 576 -233 667h-2q-16 -55 -45 -144t-85.5 -256.5t-89.5 -266.5zM764 1546h-178q63 55 89.5 93t26.5 79q0 31 -21 51.5t-63 20.5q-54 0 -118 -33l-45 117q92 61 209 61q100 0 156.5 -52.5
t56.5 -129.5q0 -46 -19.5 -88.5t-40.5 -66t-53 -52.5z" />
    <glyph glyph-name="uni1EA3" unicode="&#x1ea3;" horiz-adv-x="1093" 
d="M942 723v-487q0 -168 14 -236h-190q-11 31 -18 129q-79 -154 -316 -154q-89 0 -159 27.5t-111 73.5t-61.5 102t-20.5 117q0 171 128 256.5t365 85.5h172v84q0 38 -8 68t-28.5 60t-64.5 47t-109 17q-59 0 -100 -12.5t-62.5 -38t-31.5 -49t-17 -59.5h-195q6 62 28.5 114
t68 99t126 74t189.5 26q401 0 401 -344zM748 469v33h-160q-153 0 -228 -47t-75 -148q0 -79 51 -128.5t141 -49.5q69 0 119.5 19t79 48.5t45.5 76.5t22 91.5t5 104.5zM637 1194h-178q63 55 89.5 93t26.5 79q0 32 -20.5 52t-62.5 20q-55 0 -119 -33l-45 117q92 61 209 61
q100 0 156.5 -52.5t56.5 -129.5q0 -46 -19.5 -88.5t-40.5 -66t-53 -52.5z" />
    <glyph glyph-name="uni1EA4" unicode="&#x1ea4;" horiz-adv-x="1361" 
d="M950 408h-559l-143 -408h-211l502 1423h262l524 -1423h-225zM444 588h455q-208 576 -233 667h-2q-16 -55 -45 -144t-85.5 -256.5t-89.5 -266.5zM571 1800h207l273 -252h-220l-153 142l-150 -142h-217zM1143 1991h237l-270 -240h-178z" />
    <glyph glyph-name="uni1EA5" unicode="&#x1ea5;" horiz-adv-x="1093" 
d="M942 723v-487q0 -168 14 -236h-190q-11 31 -18 129q-79 -154 -316 -154q-89 0 -159 27.5t-111 73.5t-61.5 102t-20.5 117q0 171 128 256.5t365 85.5h172v84q0 38 -8 68t-28.5 60t-64.5 47t-109 17q-59 0 -100 -12.5t-62.5 -38t-31.5 -49t-17 -59.5h-195q6 62 28.5 114
t68 99t126 74t189.5 26q401 0 401 -344zM748 469v33h-160q-153 0 -228 -47t-75 -148q0 -79 51 -128.5t141 -49.5q69 0 119.5 19t79 48.5t45.5 76.5t22 91.5t5 104.5zM446 1440h203l217 -273h-184l-135 170l-133 -170h-183zM999 1669h211l-272 -268h-160z" />
    <glyph glyph-name="uni1EA6" unicode="&#x1ea6;" horiz-adv-x="1361" 
d="M950 408h-559l-143 -408h-211l502 1423h262l524 -1423h-225zM444 588h455q-208 576 -233 667h-2q-16 -55 -45 -144t-85.5 -256.5t-89.5 -266.5zM571 1800h207l273 -252h-220l-153 142l-150 -142h-217zM809 1964h244l209 -229h-170z" />
    <glyph glyph-name="uni1EA7" unicode="&#x1ea7;" horiz-adv-x="1093" 
d="M942 723v-487q0 -168 14 -236h-190q-11 31 -18 129q-79 -154 -316 -154q-89 0 -159 27.5t-111 73.5t-61.5 102t-20.5 117q0 171 128 256.5t365 85.5h172v84q0 38 -8 68t-28.5 60t-64.5 47t-109 17q-59 0 -100 -12.5t-62.5 -38t-31.5 -49t-17 -59.5h-195q6 62 28.5 114
t68 99t126 74t189.5 26q401 0 401 -344zM748 469v33h-160q-153 0 -228 -47t-75 -148q0 -79 51 -128.5t141 -49.5q69 0 119.5 19t79 48.5t45.5 76.5t22 91.5t5 104.5zM446 1440h203l217 -273h-184l-135 170l-133 -170h-183zM659 1655h215l213 -275h-163z" />
    <glyph glyph-name="uni1EA8" unicode="&#x1ea8;" horiz-adv-x="1361" 
d="M950 408h-559l-143 -408h-211l502 1423h262l524 -1423h-225zM444 588h455q-208 576 -233 667h-2q-16 -55 -45 -144t-85.5 -256.5t-89.5 -266.5zM1126 1745h-163q108 82 108 153q0 27 -18.5 44.5t-57.5 17.5q-60 0 -116 -39l-43 104q87 66 196 66q90 0 141.5 -46
t51.5 -120q0 -54 -28.5 -101.5t-70.5 -78.5zM571 1800h207l273 -252h-220l-153 142l-150 -142h-217z" />
    <glyph glyph-name="uni1EA9" unicode="&#x1ea9;" horiz-adv-x="1093" 
d="M942 723v-487q0 -168 14 -236h-190q-11 31 -18 129q-79 -154 -316 -154q-89 0 -159 27.5t-111 73.5t-61.5 102t-20.5 117q0 171 128 256.5t365 85.5h172v84q0 38 -8 68t-28.5 60t-64.5 47t-109 17q-59 0 -100 -12.5t-62.5 -38t-31.5 -49t-17 -59.5h-195q6 62 28.5 114
t68 99t126 74t189.5 26q401 0 401 -344zM748 469v33h-160q-153 0 -228 -47t-75 -148q0 -79 51 -128.5t141 -49.5q69 0 119.5 19t79 48.5t45.5 76.5t22 91.5t5 104.5zM969 1380h-162q113 88 113 152q0 59 -70 59t-113 -37l-41 99q70 63 189 63q89 0 135.5 -41t46.5 -116
q0 -103 -98 -179zM446 1440h203l217 -273h-184l-135 170l-133 -170h-183z" />
    <glyph glyph-name="uni1EAA" unicode="&#x1eaa;" horiz-adv-x="1361" 
d="M950 408h-559l-143 -408h-211l502 1423h262l524 -1423h-225zM444 588h455q-208 576 -233 667h-2q-16 -55 -45 -144t-85.5 -256.5t-89.5 -266.5zM471 1804h-121v23q0 178 160 178q66 0 176 -35t148 -35q29 0 43 11t14 43v14h119v-25q0 -94 -40.5 -134t-117.5 -40
q-56 0 -172.5 36t-155.5 36q-53 0 -53 -59v-13zM567 1729h221l250 -201h-211l-151 112l-146 -112h-211z" />
    <glyph glyph-name="uni1EAB" unicode="&#x1eab;" horiz-adv-x="1093" 
d="M942 723v-487q0 -168 14 -236h-190q-11 31 -18 129q-79 -154 -316 -154q-89 0 -159 27.5t-111 73.5t-61.5 102t-20.5 117q0 171 128 256.5t365 85.5h172v84q0 38 -8 68t-28.5 60t-64.5 47t-109 17q-59 0 -100 -12.5t-62.5 -38t-31.5 -49t-17 -59.5h-195q6 62 28.5 114
t68 99t126 74t189.5 26q401 0 401 -344zM748 469v33h-160q-153 0 -228 -47t-75 -148q0 -79 51 -128.5t141 -49.5q69 0 119.5 19t79 48.5t45.5 76.5t22 91.5t5 104.5zM375 1470h-121v21q0 94 42 137t112 43q49 0 99.5 -18.5t91.5 -37t65 -18.5q55 0 55 56v14h117v-25
q0 -174 -158 -174q-53 0 -135.5 37t-112.5 37q-55 0 -55 -59v-13zM438 1382h209l227 -215h-196l-137 125l-131 -125h-193z" />
    <glyph glyph-name="uni1EAC" unicode="&#x1eac;" horiz-adv-x="1361" 
d="M950 408h-559l-143 -408h-211l502 1423h262l524 -1423h-225zM444 588h455q-208 576 -233 667h-2q-16 -55 -45 -144t-85.5 -256.5t-89.5 -266.5zM786 -383h-213v233h213v-233zM571 1806h207l266 -270h-204l-166 164l-174 -164h-205z" />
    <glyph glyph-name="uni1EAD" unicode="&#x1ead;" horiz-adv-x="1093" 
d="M942 723v-487q0 -168 14 -236h-190q-11 31 -18 129q-79 -154 -316 -154q-89 0 -159 27.5t-111 73.5t-61.5 102t-20.5 117q0 171 128 256.5t365 85.5h172v84q0 38 -8 68t-28.5 60t-64.5 47t-109 17q-59 0 -100 -12.5t-62.5 -38t-31.5 -49t-17 -59.5h-195q6 62 28.5 114
t68 99t126 74t189.5 26q401 0 401 -344zM748 469v33h-160q-153 0 -228 -47t-75 -148q0 -79 51 -128.5t141 -49.5q69 0 119.5 19t79 48.5t45.5 76.5t22 91.5t5 104.5zM655 -383h-213v233h213v-233zM455 1501h186l229 -309h-192l-131 197l-129 -197h-191z" />
    <glyph glyph-name="uni1EAE" unicode="&#x1eae;" horiz-adv-x="1361" 
d="M950 408h-559l-143 -408h-211l502 1423h262l524 -1423h-225zM444 588h455q-208 576 -233 667h-2q-16 -55 -45 -144t-85.5 -256.5t-89.5 -266.5zM344 1774h156q47 -107 176 -107q132 0 182 107h154q-12 -50 -36 -91.5t-63 -77t-99.5 -56t-137.5 -21.5q-68 0 -124 17
t-91.5 43t-61 60t-38 64.5t-17.5 61.5zM782 2034h252l-276 -213h-180z" />
    <glyph glyph-name="uni1EAF" unicode="&#x1eaf;" horiz-adv-x="1093" 
d="M942 723v-487q0 -168 14 -236h-190q-11 31 -18 129q-79 -154 -316 -154q-89 0 -159 27.5t-111 73.5t-61.5 102t-20.5 117q0 171 128 256.5t365 85.5h172v84q0 38 -8 68t-28.5 60t-64.5 47t-109 17q-59 0 -100 -12.5t-62.5 -38t-31.5 -49t-17 -59.5h-195q6 62 28.5 114
t68 99t126 74t189.5 26q401 0 401 -344zM748 469v33h-160q-153 0 -228 -47t-75 -148q0 -79 51 -128.5t141 -49.5q69 0 119.5 19t79 48.5t45.5 76.5t22 91.5t5 104.5zM236 1417h149q36 -110 162 -110q74 0 111 30t53 80h145q-24 -113 -100 -180.5t-211 -67.5q-71 0 -128 21.5
t-93 58.5t-57.5 78.5t-30.5 89.5zM653 1706h213l-245 -238h-172z" />
    <glyph glyph-name="uni1EB0" unicode="&#x1eb0;" horiz-adv-x="1361" 
d="M950 408h-559l-143 -408h-211l502 1423h262l524 -1423h-225zM444 588h455q-208 576 -233 667h-2q-16 -55 -45 -144t-85.5 -256.5t-89.5 -266.5zM344 1774h156q47 -107 176 -107q132 0 182 107h154q-12 -50 -36 -91.5t-63 -77.5t-99.5 -56.5t-137.5 -20.5q-68 0 -123.5 17
t-91 43t-61.5 60t-38.5 64.5t-17.5 61.5zM338 2034h250l205 -213h-187z" />
    <glyph glyph-name="uni1EB1" unicode="&#x1eb1;" horiz-adv-x="1093" 
d="M942 723v-487q0 -168 14 -236h-190q-11 31 -18 129q-79 -154 -316 -154q-89 0 -159 27.5t-111 73.5t-61.5 102t-20.5 117q0 171 128 256.5t365 85.5h172v84q0 38 -8 68t-28.5 60t-64.5 47t-109 17q-59 0 -100 -12.5t-62.5 -38t-31.5 -49t-17 -59.5h-195q6 62 28.5 114
t68 99t126 74t189.5 26q401 0 401 -344zM748 469v33h-160q-153 0 -228 -47t-75 -148q0 -79 51 -128.5t141 -49.5q69 0 119.5 19t79 48.5t45.5 76.5t22 91.5t5 104.5zM236 1419h149q36 -110 162 -110q74 0 111 30t53 80h145q-24 -113 -100 -180.5t-211 -67.5q-71 0 -128 21.5
t-93 58.5t-57.5 78.5t-30.5 89.5zM227 1708h222l202 -238h-172z" />
    <glyph glyph-name="uni1EB2" unicode="&#x1eb2;" horiz-adv-x="1361" 
d="M950 408h-559l-143 -408h-211l502 1423h262l524 -1423h-225zM444 588h455q-208 576 -233 667h-2q-16 -55 -45 -144t-85.5 -256.5t-89.5 -266.5zM748 1804h-160q57 46 83.5 80.5t26.5 67.5q0 57 -73 57q-55 0 -115 -35l-45 99q81 65 197 65q87 0 135.5 -44.5t48.5 -115.5
q0 -97 -98 -174zM344 1774h154q49 -107 180 -107q54 0 92.5 18t55 38t32.5 51h154q-74 -246 -336 -246q-83 0 -148 25t-101.5 65t-56 78.5t-26.5 77.5z" />
    <glyph glyph-name="uni1EB3" unicode="&#x1eb3;" horiz-adv-x="1093" 
d="M942 723v-487q0 -168 14 -236h-190q-11 31 -18 129q-79 -154 -316 -154q-89 0 -159 27.5t-111 73.5t-61.5 102t-20.5 117q0 171 128 256.5t365 85.5h172v84q0 38 -8 68t-28.5 60t-64.5 47t-109 17q-59 0 -100 -12.5t-62.5 -38t-31.5 -49t-17 -59.5h-195q6 62 28.5 114
t68 99t126 74t189.5 26q401 0 401 -344zM748 469v33h-160q-153 0 -228 -47t-75 -148q0 -79 51 -128.5t141 -49.5q69 0 119.5 19t79 48.5t45.5 76.5t22 91.5t5 104.5zM606 1458h-153q120 88 120 150q0 61 -69 61q-65 0 -113 -39l-41 96q78 70 189 70q89 0 135.5 -43
t46.5 -117q0 -104 -115 -178zM238 1419h149q36 -110 162 -110q74 0 111 30t53 80h145q-24 -113 -100 -180.5t-211 -67.5q-71 0 -128 21.5t-93 58.5t-57.5 78.5t-30.5 89.5z" />
    <glyph glyph-name="uni1EB4" unicode="&#x1eb4;" horiz-adv-x="1361" 
d="M950 408h-559l-143 -408h-211l502 1423h262l524 -1423h-225zM444 588h455q-208 576 -233 667h-2q-16 -55 -45 -144t-85.5 -256.5t-89.5 -266.5zM469 1819h-121v22q0 178 160 178q66 0 175.5 -34.5t147.5 -34.5q29 0 43.5 11t14.5 42v14h119v-24q0 -94 -40.5 -134
t-117.5 -40q-56 0 -172.5 35.5t-155.5 35.5q-53 0 -53 -59v-12zM346 1731h156q47 -84 174 -84q140 0 176 84h154q-13 -42 -35.5 -77t-60.5 -66.5t-98.5 -49.5t-137.5 -18q-79 0 -140.5 20t-98.5 53t-58 67t-31 71z" />
    <glyph glyph-name="uni1EB5" unicode="&#x1eb5;" horiz-adv-x="1093" 
d="M942 723v-487q0 -168 14 -236h-190q-11 31 -18 129q-79 -154 -316 -154q-89 0 -159 27.5t-111 73.5t-61.5 102t-20.5 117q0 171 128 256.5t365 85.5h172v84q0 38 -8 68t-28.5 60t-64.5 47t-109 17q-59 0 -100 -12.5t-62.5 -38t-31.5 -49t-17 -59.5h-195q6 62 28.5 114
t68 99t126 74t189.5 26q401 0 401 -344zM748 469v33h-160q-153 0 -228 -47t-75 -148q0 -79 51 -128.5t141 -49.5q69 0 119.5 19t79 48.5t45.5 76.5t22 91.5t5 104.5zM379 1499h-121v21q0 94 42.5 137t111.5 43q64 0 147 -35t107 -35q28 0 42.5 10.5t14.5 40.5v17h117v-25
q0 -176 -158 -176q-53 0 -135.5 36t-112.5 36q-55 0 -55 -58v-12zM258 1403h141q45 -96 150 -96q69 0 101.5 26t49.5 70h142q-18 -101 -93.5 -165t-201.5 -64q-128 0 -201.5 68t-87.5 161z" />
    <glyph glyph-name="uni1EB6" unicode="&#x1eb6;" horiz-adv-x="1361" 
d="M950 408h-559l-143 -408h-211l502 1423h262l524 -1423h-225zM444 588h455q-208 576 -233 667h-2q-16 -55 -45 -144t-85.5 -256.5t-89.5 -266.5zM786 -383h-213v233h213v-233zM352 1810h152q11 -59 56.5 -95t115.5 -36q148 0 174 131h149q-19 -120 -100 -196t-225 -76
q-79 0 -140.5 23.5t-98.5 63t-57.5 86.5t-25.5 99z" />
    <glyph glyph-name="uni1EB7" unicode="&#x1eb7;" horiz-adv-x="1093" 
d="M942 723v-487q0 -168 14 -236h-190q-11 31 -18 129q-79 -154 -316 -154q-89 0 -159 27.5t-111 73.5t-61.5 102t-20.5 117q0 171 128 256.5t365 85.5h172v84q0 38 -8 68t-28.5 60t-64.5 47t-109 17q-59 0 -100 -12.5t-62.5 -38t-31.5 -49t-17 -59.5h-195q6 62 28.5 114
t68 99t126 74t189.5 26q401 0 401 -344zM748 469v33h-160q-153 0 -228 -47t-75 -148q0 -79 51 -128.5t141 -49.5q69 0 119.5 19t79 48.5t45.5 76.5t22 91.5t5 104.5zM246 1483h145q15 -61 53.5 -98t102.5 -37q76 0 109.5 35.5t50.5 99.5h143q-16 -126 -92.5 -205.5
t-210.5 -79.5q-74 0 -132 24.5t-93 66.5t-53.5 90.5t-22.5 103.5zM668 -383h-213v233h213v-233z" />
    <glyph glyph-name="uni1EB8" unicode="&#x1eb8;" horiz-adv-x="1230" 
d="M1094 834v-179h-703v-477h772l-26 -178h-953v1423h942v-180h-735v-409h703zM774 -383h-213v233h213v-233z" />
    <glyph glyph-name="uni1EB9" unicode="&#x1eb9;" horiz-adv-x="1083" 
d="M1006 483h-725q2 -152 73.5 -247t196.5 -95q56 0 98 12.5t68.5 36.5t41.5 47t29 56h203q-14 -45 -33.5 -85t-56.5 -84t-83.5 -75.5t-117 -52.5t-155.5 -21q-96 0 -175 30t-132.5 80.5t-90 119.5t-53 145.5t-16.5 159.5q0 119 30 219.5t88 176t150.5 118.5t210.5 43
q98 0 177 -30t129.5 -79t84.5 -115t48 -134t14 -140q0 -57 -4 -86zM287 621h520q-2 128 -66 209t-186 81q-241 0 -268 -290zM670 -383h-213v233h213v-233z" />
    <glyph glyph-name="uni1EBA" unicode="&#x1eba;" horiz-adv-x="1230" 
d="M1094 834v-179h-703v-477h772l-26 -178h-953v1423h942v-180h-735v-409h703zM752 1550h-179q63 55 90 93t27 79q0 31 -21 51.5t-63 20.5q-55 0 -119 -33l-45 117q92 61 209 61q100 0 156.5 -52.5t56.5 -129.5q0 -47 -19 -89t-40 -66t-53 -52z" />
    <glyph glyph-name="uni1EBB" unicode="&#x1ebb;" horiz-adv-x="1083" 
d="M1006 483h-725q2 -152 73.5 -247t196.5 -95q56 0 98 12.5t68.5 36.5t41.5 47t29 56h203q-14 -45 -33.5 -85t-56.5 -84t-83.5 -75.5t-117 -52.5t-155.5 -21q-96 0 -175 30t-132.5 80.5t-90 119.5t-53 145.5t-16.5 159.5q0 119 30 219.5t88 176t150.5 118.5t210.5 43
q98 0 177 -30t129.5 -79t84.5 -115t48 -134t14 -140q0 -57 -4 -86zM287 621h520q-2 128 -66 209t-186 81q-241 0 -268 -290zM645 1184h-178q63 55 90 93t27 79q0 31 -21 51t-63 20q-57 0 -119 -32l-45 116q94 62 209 62q100 0 156.5 -52.5t56.5 -129.5q0 -46 -19.5 -88.5
t-40.5 -66t-53 -52.5z" />
    <glyph glyph-name="uni1EBC" unicode="&#x1ebc;" horiz-adv-x="1230" 
d="M1094 834v-179h-703v-477h772l-26 -178h-953v1423h942v-180h-735v-409h703zM444 1581h-141v51q0 109 45.5 156t132.5 47q55 0 121.5 -26t122 -52t84.5 -26q30 0 45.5 19t15.5 67v20h138v-43q0 -119 -45.5 -169t-135.5 -50q-50 0 -114 26.5t-121 53t-90 26.5
q-58 0 -58 -65v-35z" />
    <glyph glyph-name="uni1EBD" unicode="&#x1ebd;" horiz-adv-x="1083" 
d="M1006 483h-725q2 -152 73.5 -247t196.5 -95q56 0 98 12.5t68.5 36.5t41.5 47t29 56h203q-14 -45 -33.5 -85t-56.5 -84t-83.5 -75.5t-117 -52.5t-155.5 -21q-96 0 -175 30t-132.5 80.5t-90 119.5t-53 145.5t-16.5 159.5q0 119 30 219.5t88 176t150.5 118.5t210.5 43
q98 0 177 -30t129.5 -79t84.5 -115t48 -134t14 -140q0 -57 -4 -86zM287 621h520q-2 128 -66 209t-186 81q-241 0 -268 -290zM356 1233h-139v51q0 203 172 203q50 0 106 -24.5t103 -49t76 -24.5t43 18t14 63v21h135v-45q0 -215 -176 -215q-51 0 -103.5 24.5t-98 49
t-78.5 24.5q-54 0 -54 -63v-33z" />
    <glyph glyph-name="uni1EBE" unicode="&#x1ebe;" horiz-adv-x="1230" 
d="M1094 834v-179h-703v-477h772l-26 -178h-953v1423h942v-180h-735v-409h703zM545 1802h207l272 -252h-219l-154 142l-149 -142h-217zM1116 1993h238l-271 -240h-178z" />
    <glyph glyph-name="uni1EBF" unicode="&#x1ebf;" horiz-adv-x="1083" 
d="M1006 483h-725q2 -152 73.5 -247t196.5 -95q56 0 98 12.5t68.5 36.5t41.5 47t29 56h203q-14 -45 -33.5 -85t-56.5 -84t-83.5 -75.5t-117 -52.5t-155.5 -21q-96 0 -175 30t-132.5 80.5t-90 119.5t-53 145.5t-16.5 159.5q0 119 30 219.5t88 176t150.5 118.5t210.5 43
q98 0 177 -30t129.5 -79t84.5 -115t48 -134t14 -140q0 -57 -4 -86zM287 621h520q-2 128 -66 209t-186 81q-241 0 -268 -290zM446 1440h203l217 -273h-184l-135 170l-133 -170h-183zM999 1669h211l-272 -268h-160z" />
    <glyph glyph-name="uni1EC0" unicode="&#x1ec0;" horiz-adv-x="1230" 
d="M1094 834v-179h-703v-477h772l-26 -178h-953v1423h942v-180h-735v-409h703zM545 1806h207l272 -252h-219l-154 142l-149 -142h-217zM782 1970h244l209 -229h-170z" />
    <glyph glyph-name="uni1EC1" unicode="&#x1ec1;" horiz-adv-x="1083" 
d="M1006 483h-725q2 -152 73.5 -247t196.5 -95q56 0 98 12.5t68.5 36.5t41.5 47t29 56h203q-14 -45 -33.5 -85t-56.5 -84t-83.5 -75.5t-117 -52.5t-155.5 -21q-96 0 -175 30t-132.5 80.5t-90 119.5t-53 145.5t-16.5 159.5q0 119 30 219.5t88 176t150.5 118.5t210.5 43
q98 0 177 -30t129.5 -79t84.5 -115t48 -134t14 -140q0 -57 -4 -86zM287 621h520q-2 128 -66 209t-186 81q-241 0 -268 -290zM446 1440h203l217 -273h-184l-135 170l-133 -170h-183zM659 1655h215l213 -275h-163z" />
    <glyph glyph-name="uni1EC2" unicode="&#x1ec2;" horiz-adv-x="1230" 
d="M1094 834v-179h-703v-477h772l-26 -178h-953v1423h942v-180h-735v-409h703zM1098 1753h-164q108 82 108 154q0 27 -18 44t-57 17q-61 0 -117 -39l-43 105q86 65 197 65q90 0 141 -46t51 -120q0 -54 -28.5 -101.5t-69.5 -78.5zM543 1808h207l272 -252h-219l-154 142
l-149 -142h-217z" />
    <glyph glyph-name="uni1EC3" unicode="&#x1ec3;" horiz-adv-x="1083" 
d="M1006 483h-725q2 -152 73.5 -247t196.5 -95q56 0 98 12.5t68.5 36.5t41.5 47t29 56h203q-14 -45 -33.5 -85t-56.5 -84t-83.5 -75.5t-117 -52.5t-155.5 -21q-96 0 -175 30t-132.5 80.5t-90 119.5t-53 145.5t-16.5 159.5q0 119 30 219.5t88 176t150.5 118.5t210.5 43
q98 0 177 -30t129.5 -79t84.5 -115t48 -134t14 -140q0 -57 -4 -86zM287 621h520q-2 128 -66 209t-186 81q-241 0 -268 -290zM963 1380h-162q112 87 112 152q0 59 -69 59q-70 0 -113 -37l-41 99q70 63 189 63q89 0 135.5 -41t46.5 -116q0 -103 -98 -179zM440 1440h203
l217 -273h-184l-135 170l-133 -170h-183z" />
    <glyph glyph-name="uni1EC4" unicode="&#x1ec4;" horiz-adv-x="1230" 
d="M1094 834v-179h-703v-477h772l-26 -178h-953v1423h942v-180h-735v-409h703zM446 1821h-120v22q0 178 159 178q66 0 176 -34.5t148 -34.5q29 0 43 10.5t14 42.5v14h119v-24q0 -94 -40.5 -134t-117.5 -40q-56 0 -172 35.5t-155 35.5q-24 0 -39 -15t-15 -44v-12zM543 1745
h221l250 -201h-211l-152 113l-145 -113h-211z" />
    <glyph glyph-name="uni1EC5" unicode="&#x1ec5;" horiz-adv-x="1083" 
d="M1006 483h-725q2 -152 73.5 -247t196.5 -95q56 0 98 12.5t68.5 36.5t41.5 47t29 56h203q-14 -45 -33.5 -85t-56.5 -84t-83.5 -75.5t-117 -52.5t-155.5 -21q-96 0 -175 30t-132.5 80.5t-90 119.5t-53 145.5t-16.5 159.5q0 119 30 219.5t88 176t150.5 118.5t210.5 43
q98 0 177 -30t129.5 -79t84.5 -115t48 -134t14 -140q0 -57 -4 -86zM287 621h520q-2 128 -66 209t-186 81q-241 0 -268 -290zM373 1464h-121v21q0 94 42 137t112 43q49 0 99.5 -18.5t91.5 -37t65 -18.5q55 0 55 56v14h117v-25q0 -174 -158 -174q-53 0 -135.5 37t-112.5 37
q-55 0 -55 -59v-13zM436 1376h209l227 -215h-196l-137 125l-131 -125h-193z" />
    <glyph glyph-name="uni1EC6" unicode="&#x1ec6;" horiz-adv-x="1230" 
d="M1094 834v-179h-703v-477h772l-26 -178h-953v1423h942v-180h-735v-409h703zM772 -383h-213v233h213v-233zM551 1827h207l266 -271h-205l-166 164l-174 -164h-205z" />
    <glyph glyph-name="uni1EC7" unicode="&#x1ec7;" horiz-adv-x="1083" 
d="M1006 483h-725q2 -152 73.5 -247t196.5 -95q56 0 98 12.5t68.5 36.5t41.5 47t29 56h203q-14 -45 -33.5 -85t-56.5 -84t-83.5 -75.5t-117 -52.5t-155.5 -21q-96 0 -175 30t-132.5 80.5t-90 119.5t-53 145.5t-16.5 159.5q0 119 30 219.5t88 176t150.5 118.5t210.5 43
q98 0 177 -30t129.5 -79t84.5 -115t48 -134t14 -140q0 -57 -4 -86zM287 621h520q-2 128 -66 209t-186 81q-241 0 -268 -290zM670 -383h-213v233h213v-233zM469 1501h186l230 -309h-193l-131 197l-129 -197h-190z" />
    <glyph glyph-name="uni1EC8" unicode="&#x1ec8;" horiz-adv-x="579" 
d="M184 1423h211v-1423h-211v1423zM377 1546h-178q63 55 89.5 93t26.5 79q0 31 -21 51.5t-63 20.5q-54 0 -118 -33l-45 117q92 61 208 61q100 0 156.5 -52.5t56.5 -129.5q0 -47 -19 -89t-40 -66t-53 -52z" />
    <glyph glyph-name="uni1EC9" unicode="&#x1ec9;" horiz-adv-x="499" 
d="M150 0v1042h200v-1042h-200zM338 1194h-178q63 55 89.5 93t26.5 79q0 32 -20.5 52t-62.5 20q-55 0 -119 -33l-45 117q92 61 209 61q100 0 156.5 -52.5t56.5 -129.5q0 -46 -19.5 -88.5t-40.5 -66t-53 -52.5z" />
    <glyph glyph-name="uni1ECA" unicode="&#x1eca;" horiz-adv-x="579" 
d="M184 1423h211v-1423h-211v1423zM395 -383h-213v233h213v-233z" />
    <glyph glyph-name="uni1ECB" unicode="&#x1ecb;" horiz-adv-x="499" 
d="M150 0v1042h200v-1042h-200zM350 1270h-200v231h200v-231zM356 -383h-213v233h213v-233z" />
    <glyph glyph-name="uni1ECC" unicode="&#x1ecc;" horiz-adv-x="1544" 
d="M780 1444q198 0 348.5 -92.5t230 -256.5t79.5 -376q0 -150 -42.5 -282t-124.5 -234.5t-212.5 -162.5t-294.5 -60q-155 0 -281 56.5t-207.5 156t-125.5 232t-44 286.5t45 287.5t129 232.5t213 156t287 57zM772 1266q-112 0 -199 -43.5t-139.5 -119.5t-79 -173.5
t-26.5 -212.5q0 -114 28.5 -214.5t82.5 -178t140 -122t193 -44.5q93 0 168.5 30t126.5 81.5t85 123t49.5 152t15.5 170.5q0 115 -27.5 213.5t-81 174.5t-140 119.5t-196.5 43.5zM879 -393h-213v233h213v-233z" />
    <glyph glyph-name="uni1ECD" unicode="&#x1ecd;" horiz-adv-x="1136" 
d="M575 1067q219 0 351.5 -149t132.5 -394q0 -115 -32.5 -214.5t-94 -174t-156.5 -117.5t-213 -43q-148 0 -259 71t-168.5 194t-57.5 280q0 239 133 393t364 154zM567 901q-136 0 -209 -101t-73 -278q0 -170 77 -275.5t209 -105.5q133 0 208 102.5t75 276.5
q0 176 -75.5 278.5t-211.5 102.5zM674 -389h-213v233h213v-233z" />
    <glyph glyph-name="uni1ECE" unicode="&#x1ece;" horiz-adv-x="1544" 
d="M780 1444q198 0 348.5 -92.5t230 -256.5t79.5 -376q0 -150 -42.5 -282t-124.5 -234.5t-212.5 -162.5t-294.5 -60q-155 0 -281 56.5t-207.5 156t-125.5 232t-44 286.5t45 287.5t129 232.5t213 156t287 57zM772 1266q-112 0 -199 -43.5t-139.5 -119.5t-79 -173.5
t-26.5 -212.5q0 -114 28.5 -214.5t82.5 -178t140 -122t193 -44.5q93 0 168.5 30t126.5 81.5t85 123t49.5 152t15.5 170.5q0 115 -27.5 213.5t-81 174.5t-140 119.5t-196.5 43.5zM860 1546h-178q63 55 90 93t27 79q0 31 -21 51.5t-63 20.5q-55 0 -119 -33l-45 117
q92 61 209 61q100 0 156.5 -52.5t56.5 -129.5q0 -46 -19.5 -88.5t-40.5 -66t-53 -52.5z" />
    <glyph glyph-name="uni1ECF" unicode="&#x1ecf;" horiz-adv-x="1136" 
d="M575 1067q219 0 351.5 -149t132.5 -394q0 -115 -32.5 -214.5t-94 -174t-156.5 -117.5t-213 -43q-148 0 -259 71t-168.5 194t-57.5 280q0 239 133 393t364 154zM567 901q-136 0 -209 -101t-73 -278q0 -170 77 -275.5t209 -105.5q133 0 208 102.5t75 276.5
q0 176 -75.5 278.5t-211.5 102.5zM655 1194h-178q63 55 90 93t27 79q0 31 -21 51.5t-63 20.5q-55 0 -119 -33l-45 117q92 61 209 61q100 0 156.5 -52.5t56.5 -129.5q0 -46 -19.5 -88.5t-40.5 -66t-53 -52.5z" />
    <glyph glyph-name="uni1ED0" unicode="&#x1ed0;" horiz-adv-x="1544" 
d="M780 1444q198 0 348.5 -92.5t230 -256.5t79.5 -376q0 -150 -42.5 -282t-124.5 -234.5t-212.5 -162.5t-294.5 -60q-155 0 -281 56.5t-207.5 156t-125.5 232t-44 286.5t45 287.5t129 232.5t213 156t287 57zM772 1266q-112 0 -199 -43.5t-139.5 -119.5t-79 -173.5
t-26.5 -212.5q0 -114 28.5 -214.5t82.5 -178t140 -122t193 -44.5q93 0 168.5 30t126.5 81.5t85 123t49.5 152t15.5 170.5q0 115 -27.5 213.5t-81 174.5t-140 119.5t-196.5 43.5zM664 1800h206l273 -252h-219l-154 142l-149 -142h-218zM1235 1991h238l-271 -240h-178z" />
    <glyph glyph-name="uni1ED1" unicode="&#x1ed1;" horiz-adv-x="1136" 
d="M575 1067q219 0 351.5 -149t132.5 -394q0 -115 -32.5 -214.5t-94 -174t-156.5 -117.5t-213 -43q-148 0 -259 71t-168.5 194t-57.5 280q0 239 133 393t364 154zM567 901q-136 0 -209 -101t-73 -278q0 -170 77 -275.5t209 -105.5q133 0 208 102.5t75 276.5
q0 176 -75.5 278.5t-211.5 102.5zM465 1440h203l217 -273h-185l-135 170l-133 -170h-182zM1018 1669h211l-273 -268h-159z" />
    <glyph glyph-name="uni1ED2" unicode="&#x1ed2;" horiz-adv-x="1544" 
d="M780 1444q198 0 348.5 -92.5t230 -256.5t79.5 -376q0 -150 -42.5 -282t-124.5 -234.5t-212.5 -162.5t-294.5 -60q-155 0 -281 56.5t-207.5 156t-125.5 232t-44 286.5t45 287.5t129 232.5t213 156t287 57zM772 1266q-112 0 -199 -43.5t-139.5 -119.5t-79 -173.5
t-26.5 -212.5q0 -114 28.5 -214.5t82.5 -178t140 -122t193 -44.5q93 0 168.5 30t126.5 81.5t85 123t49.5 152t15.5 170.5q0 115 -27.5 213.5t-81 174.5t-140 119.5t-196.5 43.5zM664 1800h206l273 -252h-219l-154 142l-149 -142h-218zM901 1964h244l209 -229h-170z" />
    <glyph glyph-name="uni1ED3" unicode="&#x1ed3;" horiz-adv-x="1136" 
d="M575 1067q219 0 351.5 -149t132.5 -394q0 -115 -32.5 -214.5t-94 -174t-156.5 -117.5t-213 -43q-148 0 -259 71t-168.5 194t-57.5 280q0 239 133 393t364 154zM567 901q-136 0 -209 -101t-73 -278q0 -170 77 -275.5t209 -105.5q133 0 208 102.5t75 276.5
q0 176 -75.5 278.5t-211.5 102.5zM465 1440h203l217 -273h-185l-135 170l-133 -170h-182zM678 1655h215l213 -275h-164z" />
    <glyph glyph-name="uni1ED4" unicode="&#x1ed4;" horiz-adv-x="1544" 
d="M780 1444q198 0 348.5 -92.5t230 -256.5t79.5 -376q0 -150 -42.5 -282t-124.5 -234.5t-212.5 -162.5t-294.5 -60q-155 0 -281 56.5t-207.5 156t-125.5 232t-44 286.5t45 287.5t129 232.5t213 156t287 57zM772 1266q-112 0 -199 -43.5t-139.5 -119.5t-79 -173.5
t-26.5 -212.5q0 -114 28.5 -214.5t82.5 -178t140 -122t193 -44.5q93 0 168.5 30t126.5 81.5t85 123t49.5 152t15.5 170.5q0 115 -27.5 213.5t-81 174.5t-140 119.5t-196.5 43.5zM1219 1745h-164q108 82 108 153q0 27 -18.5 44.5t-57.5 17.5q-60 0 -116 -39l-43 104
q87 66 196 66q90 0 141.5 -46t51.5 -120q0 -54 -28.5 -101.5t-69.5 -78.5zM664 1800h206l273 -252h-219l-154 142l-149 -142h-218z" />
    <glyph glyph-name="uni1ED5" unicode="&#x1ed5;" horiz-adv-x="1136" 
d="M575 1067q219 0 351.5 -149t132.5 -394q0 -115 -32.5 -214.5t-94 -174t-156.5 -117.5t-213 -43q-148 0 -259 71t-168.5 194t-57.5 280q0 239 133 393t364 154zM567 901q-136 0 -209 -101t-73 -278q0 -170 77 -275.5t209 -105.5q133 0 208 102.5t75 276.5
q0 176 -75.5 278.5t-211.5 102.5zM987 1380h-162q113 88 113 152q0 59 -70 59q-69 0 -112 -37l-41 99q70 63 188 63q89 0 135.5 -41t46.5 -116q0 -103 -98 -179zM465 1440h203l217 -273h-185l-135 170l-133 -170h-182z" />
    <glyph glyph-name="uni1ED6" unicode="&#x1ed6;" horiz-adv-x="1544" 
d="M780 1444q198 0 348.5 -92.5t230 -256.5t79.5 -376q0 -150 -42.5 -282t-124.5 -234.5t-212.5 -162.5t-294.5 -60q-155 0 -281 56.5t-207.5 156t-125.5 232t-44 286.5t45 287.5t129 232.5t213 156t287 57zM772 1266q-112 0 -199 -43.5t-139.5 -119.5t-79 -173.5
t-26.5 -212.5q0 -114 28.5 -214.5t82.5 -178t140 -122t193 -44.5q93 0 168.5 30t126.5 81.5t85 123t49.5 152t15.5 170.5q0 115 -27.5 213.5t-81 174.5t-140 119.5t-196.5 43.5zM563 1812h-121v23q0 178 160 178q66 0 176 -34.5t148 -34.5q29 0 43 10.5t14 42.5v14h119v-24
q0 -94 -41 -134.5t-117 -40.5q-56 0 -172.5 36t-155.5 36q-53 0 -53 -59v-13zM659 1737h222l249 -201h-210l-152 113l-145 -113h-211z" />
    <glyph glyph-name="uni1ED7" unicode="&#x1ed7;" horiz-adv-x="1136" 
d="M575 1067q219 0 351.5 -149t132.5 -394q0 -115 -32.5 -214.5t-94 -174t-156.5 -117.5t-213 -43q-148 0 -259 71t-168.5 194t-57.5 280q0 239 133 393t364 154zM567 901q-136 0 -209 -101t-73 -278q0 -170 77 -275.5t209 -105.5q133 0 208 102.5t75 276.5
q0 176 -75.5 278.5t-211.5 102.5zM397 1462h-121v21q0 94 42 137t112 43q49 0 99.5 -18.5t91.5 -37t65 -18.5q55 0 55 56v14h117v-25q0 -174 -158 -174q-53 0 -135 37t-112 37q-56 0 -56 -59v-13zM461 1374h209l227 -215h-197l-137 125l-131 -125h-192z" />
    <glyph glyph-name="uni1ED8" unicode="&#x1ed8;" horiz-adv-x="1544" 
d="M780 1444q198 0 348.5 -92.5t230 -256.5t79.5 -376q0 -150 -42.5 -282t-124.5 -234.5t-212.5 -162.5t-294.5 -60q-155 0 -281 56.5t-207.5 156t-125.5 232t-44 286.5t45 287.5t129 232.5t213 156t287 57zM772 1266q-112 0 -199 -43.5t-139.5 -119.5t-79 -173.5
t-26.5 -212.5q0 -114 28.5 -214.5t82.5 -178t140 -122t193 -44.5q93 0 168.5 30t126.5 81.5t85 123t49.5 152t15.5 170.5q0 115 -27.5 213.5t-81 174.5t-140 119.5t-196.5 43.5zM879 -391h-213v233h213v-233zM674 1815h207l266 -271h-205l-166 164l-174 -164h-205z" />
    <glyph glyph-name="uni1ED9" unicode="&#x1ed9;" horiz-adv-x="1136" 
d="M575 1067q219 0 351.5 -149t132.5 -394q0 -115 -32.5 -214.5t-94 -174t-156.5 -117.5t-213 -43q-148 0 -259 71t-168.5 194t-57.5 280q0 239 133 393t364 154zM567 901q-136 0 -209 -101t-73 -278q0 -170 77 -275.5t209 -105.5q133 0 208 102.5t75 276.5
q0 176 -75.5 278.5t-211.5 102.5zM674 -383h-213v233h213v-233zM473 1501h186l230 -309h-193l-131 197l-129 -197h-190z" />
    <glyph glyph-name="uni1EDA" unicode="&#x1eda;" horiz-adv-x="1544" 
d="M780 1444q237 0 398 -127q92 32 92 119q0 56 -23 123h183q16 -43 16 -117q0 -81 -39 -145t-113 -97q144 -196 144 -481q0 -150 -42.5 -282t-124.5 -234.5t-212.5 -162.5t-294.5 -60q-155 0 -281 56.5t-207.5 156t-125.5 232t-44 286.5t45 287.5t129 232.5t213 156t287 57
zM772 1266q-112 0 -199 -43.5t-139.5 -119.5t-79 -173.5t-26.5 -212.5q0 -114 28.5 -214.5t82.5 -178t140 -122t193 -44.5q93 0 168.5 30t126.5 81.5t85 123t49.5 152t15.5 170.5q0 115 -27.5 213.5t-81 174.5t-140 119.5t-196.5 43.5zM940 1835h260l-354 -283h-203z" />
    <glyph glyph-name="uni1EDB" unicode="&#x1edb;" horiz-adv-x="1136" 
d="M575 1067q184 0 306 -104q106 28 106 122q0 59 -22 123h182q16 -43 16 -116q0 -88 -46 -156t-134 -96q76 -133 76 -316q0 -115 -32.5 -214.5t-94 -174t-156.5 -117.5t-213 -43q-148 0 -259 71t-168.5 194t-57.5 280q0 239 133 393t364 154zM567 901q-136 0 -209 -101
t-73 -278q0 -170 77 -275.5t209 -105.5q133 0 208 102.5t75 276.5q0 176 -75.5 278.5t-211.5 102.5zM705 1522h245l-317 -312h-187z" />
    <glyph glyph-name="uni1EDC" unicode="&#x1edc;" horiz-adv-x="1544" 
d="M780 1444q237 0 398 -127q92 32 92 119q0 56 -23 123h183q16 -43 16 -117q0 -81 -39 -145t-113 -97q144 -196 144 -481q0 -150 -42.5 -282t-124.5 -234.5t-212.5 -162.5t-294.5 -60q-155 0 -281 56.5t-207.5 156t-125.5 232t-44 286.5t45 287.5t129 232.5t213 156t287 57
zM772 1266q-112 0 -199 -43.5t-139.5 -119.5t-79 -173.5t-26.5 -212.5q0 -114 28.5 -214.5t82.5 -178t140 -122t193 -44.5q93 0 168.5 30t126.5 81.5t85 123t49.5 152t15.5 170.5q0 115 -27.5 213.5t-81 174.5t-140 119.5t-196.5 43.5zM371 1835h262l274 -283h-198z" />
    <glyph glyph-name="uni1EDD" unicode="&#x1edd;" horiz-adv-x="1136" 
d="M575 1067q184 0 306 -104q106 28 106 122q0 59 -22 123h182q16 -43 16 -116q0 -88 -46 -156t-134 -96q76 -133 76 -316q0 -115 -32.5 -214.5t-94 -174t-156.5 -117.5t-213 -43q-148 0 -259 71t-168.5 194t-57.5 280q0 239 133 393t364 154zM567 901q-136 0 -209 -101
t-73 -278q0 -170 77 -275.5t209 -105.5q133 0 208 102.5t75 276.5q0 176 -75.5 278.5t-211.5 102.5zM188 1522h248l256 -312h-186z" />
    <glyph glyph-name="uni1EDE" unicode="&#x1ede;" horiz-adv-x="1544" 
d="M780 1444q237 0 398 -127q92 32 92 119q0 56 -23 123h183q16 -43 16 -117q0 -81 -39 -145t-113 -97q144 -196 144 -481q0 -150 -42.5 -282t-124.5 -234.5t-212.5 -162.5t-294.5 -60q-155 0 -281 56.5t-207.5 156t-125.5 232t-44 286.5t45 287.5t129 232.5t213 156t287 57
zM772 1266q-112 0 -199 -43.5t-139.5 -119.5t-79 -173.5t-26.5 -212.5q0 -114 28.5 -214.5t82.5 -178t140 -122t193 -44.5q93 0 168.5 30t126.5 81.5t85 123t49.5 152t15.5 170.5q0 115 -27.5 213.5t-81 174.5t-140 119.5t-196.5 43.5zM860 1546h-178q63 55 90 93t27 79
q0 31 -21 51.5t-63 20.5q-55 0 -119 -33l-45 117q92 61 209 61q100 0 156.5 -52.5t56.5 -129.5q0 -46 -19.5 -88.5t-40.5 -66t-53 -52.5z" />
    <glyph glyph-name="uni1EDF" unicode="&#x1edf;" horiz-adv-x="1136" 
d="M575 1067q184 0 306 -104q106 28 106 122q0 59 -22 123h182q16 -43 16 -116q0 -88 -46 -156t-134 -96q76 -133 76 -316q0 -115 -32.5 -214.5t-94 -174t-156.5 -117.5t-213 -43q-148 0 -259 71t-168.5 194t-57.5 280q0 239 133 393t364 154zM567 901q-136 0 -209 -101
t-73 -278q0 -170 77 -275.5t209 -105.5q133 0 208 102.5t75 276.5q0 176 -75.5 278.5t-211.5 102.5zM655 1194h-178q63 55 90 93t27 79q0 31 -21 51.5t-63 20.5q-55 0 -119 -33l-45 117q92 61 209 61q100 0 156.5 -52.5t56.5 -129.5q0 -46 -19.5 -88.5t-40.5 -66t-53 -52.5z
" />
    <glyph glyph-name="uni1EE0" unicode="&#x1ee0;" horiz-adv-x="1544" 
d="M780 1444q237 0 398 -127q92 32 92 119q0 56 -23 123h183q16 -43 16 -117q0 -81 -39 -145t-113 -97q144 -196 144 -481q0 -150 -42.5 -282t-124.5 -234.5t-212.5 -162.5t-294.5 -60q-155 0 -281 56.5t-207.5 156t-125.5 232t-44 286.5t45 287.5t129 232.5t213 156t287 57
zM772 1266q-112 0 -199 -43.5t-139.5 -119.5t-79 -173.5t-26.5 -212.5q0 -114 28.5 -214.5t82.5 -178t140 -122t193 -44.5q93 0 168.5 30t126.5 81.5t85 123t49.5 152t15.5 170.5q0 115 -27.5 213.5t-81 174.5t-140 119.5t-196.5 43.5zM561 1565h-141v51q0 109 45.5 156
t132.5 47q55 0 121.5 -26.5t122 -52.5t84.5 -26q30 0 45.5 19t15.5 67v21h137v-43q0 -119 -45.5 -169t-134.5 -50q-50 0 -114 26.5t-121.5 53t-90.5 26.5q-57 0 -57 -66v-34z" />
    <glyph glyph-name="uni1EE1" unicode="&#x1ee1;" horiz-adv-x="1136" 
d="M575 1067q184 0 306 -104q106 28 106 122q0 59 -22 123h182q16 -43 16 -116q0 -88 -46 -156t-134 -96q76 -133 76 -316q0 -115 -32.5 -214.5t-94 -174t-156.5 -117.5t-213 -43q-148 0 -259 71t-168.5 194t-57.5 280q0 239 133 393t364 154zM567 901q-136 0 -209 -101
t-73 -278q0 -170 77 -275.5t209 -105.5q133 0 208 102.5t75 276.5q0 176 -75.5 278.5t-211.5 102.5zM381 1233h-139v51q0 203 172 203q50 0 105.5 -24.5t102.5 -49t76 -24.5t43.5 18t14.5 63v21h135v-45q0 -215 -176 -215q-51 0 -103.5 24.5t-98.5 49t-79 24.5
q-53 0 -53 -63v-33z" />
    <glyph glyph-name="uni1EE2" unicode="&#x1ee2;" horiz-adv-x="1544" 
d="M780 1444q237 0 398 -127q92 32 92 119q0 56 -23 123h183q16 -43 16 -117q0 -81 -39 -145t-113 -97q144 -196 144 -481q0 -150 -42.5 -282t-124.5 -234.5t-212.5 -162.5t-294.5 -60q-155 0 -281 56.5t-207.5 156t-125.5 232t-44 286.5t45 287.5t129 232.5t213 156t287 57
zM772 1266q-112 0 -199 -43.5t-139.5 -119.5t-79 -173.5t-26.5 -212.5q0 -114 28.5 -214.5t82.5 -178t140 -122t193 -44.5q93 0 168.5 30t126.5 81.5t85 123t49.5 152t15.5 170.5q0 115 -27.5 213.5t-81 174.5t-140 119.5t-196.5 43.5zM879 -387h-213v233h213v-233z" />
    <glyph glyph-name="uni1EE3" unicode="&#x1ee3;" horiz-adv-x="1136" 
d="M575 1067q184 0 306 -104q106 28 106 122q0 59 -22 123h182q16 -43 16 -116q0 -88 -46 -156t-134 -96q76 -133 76 -316q0 -115 -32.5 -214.5t-94 -174t-156.5 -117.5t-213 -43q-148 0 -259 71t-168.5 194t-57.5 280q0 239 133 393t364 154zM567 901q-136 0 -209 -101
t-73 -278q0 -170 77 -275.5t209 -105.5q133 0 208 102.5t75 276.5q0 176 -75.5 278.5t-211.5 102.5zM674 -383h-213v233h213v-233z" />
    <glyph glyph-name="uni1EE4" unicode="&#x1ee4;" horiz-adv-x="1468" 
d="M170 1423h213v-856q0 -116 29.5 -200t81.5 -128t111 -63.5t130 -19.5q81 0 142.5 20.5t109.5 66.5t73 127.5t25 196.5v856h211v-843q0 -598 -565 -598q-94 0 -174.5 18t-153 60.5t-123 108.5t-80.5 167t-30 231v856zM840 -389h-213v233h213v-233z" />
    <glyph glyph-name="uni1EE5" unicode="&#x1ee5;" horiz-adv-x="1150" 
d="M1001 1042v-739q0 -54 1.5 -163.5t1.5 -139.5h-197q-6 40 -6 150q-82 -175 -309 -175q-72 0 -132 20t-109.5 63t-77.5 119.5t-28 180.5v684h201v-641q0 -254 205 -254q135 0 192.5 81t57.5 270v544h200zM682 -393h-213v233h213v-233z" />
    <glyph glyph-name="uni1EE6" unicode="&#x1ee6;" horiz-adv-x="1468" 
d="M170 1423h213v-856q0 -116 29.5 -200t81.5 -128t111 -63.5t130 -19.5q81 0 142.5 20.5t109.5 66.5t73 127.5t25 196.5v856h211v-843q0 -598 -565 -598q-94 0 -174.5 18t-153 60.5t-123 108.5t-80.5 167t-30 231v856zM817 1536h-178q63 55 90 93t27 79q0 31 -21 51.5
t-63 20.5q-55 0 -119 -33l-45 117q92 61 209 61q100 0 156.5 -52.5t56.5 -129.5q0 -46 -19.5 -88.5t-40.5 -66t-53 -52.5z" />
    <glyph glyph-name="uni1EE7" unicode="&#x1ee7;" horiz-adv-x="1150" 
d="M1001 1042v-739q0 -54 1.5 -163.5t1.5 -139.5h-197q-6 40 -6 150q-82 -175 -309 -175q-72 0 -132 20t-109.5 63t-77.5 119.5t-28 180.5v684h201v-641q0 -254 205 -254q135 0 192.5 81t57.5 270v544h200zM647 1194h-178q63 55 90 93t27 79q0 31 -21 51.5t-63 20.5
q-55 0 -119 -33l-45 117q92 61 209 61q100 0 156.5 -52.5t56.5 -129.5q0 -46 -19.5 -88.5t-40.5 -66t-53 -52.5z" />
    <glyph glyph-name="uni1EE8" unicode="&#x1ee8;" horiz-adv-x="1468" 
d="M170 1423h213v-856q0 -116 29.5 -200t81.5 -128t111 -63.5t130 -19.5q81 0 142.5 20.5t109.5 66.5t73 127.5t25 196.5v856h117q117 25 117 125q0 56 -23 123h183q16 -43 16 -117q0 -93 -51 -163t-148 -95v-716q0 -598 -565 -598q-94 0 -174.5 18t-153 60.5t-123 108.5
t-80.5 167t-30 231v856zM909 1831h260l-354 -283h-203z" />
    <glyph glyph-name="uni1EE9" unicode="&#x1ee9;" horiz-adv-x="1150" 
d="M801 150q-82 -175 -309 -175q-72 0 -132 20t-109.5 63t-77.5 119.5t-28 180.5v684h201v-641q0 -254 205 -254q135 0 192.5 81t57.5 270v544h84q137 22 137 129q0 56 -23 123h183q16 -43 16 -116q0 -92 -51 -161t-146 -95v-619q0 -54 1.5 -163.5t1.5 -139.5h-197
q-6 40 -6 150zM711 1522h245l-317 -312h-186z" />
    <glyph glyph-name="uni1EEA" unicode="&#x1eea;" horiz-adv-x="1468" 
d="M170 1423h213v-856q0 -116 29.5 -200t81.5 -128t111 -63.5t130 -19.5q81 0 142.5 20.5t109.5 66.5t73 127.5t25 196.5v856h117q117 25 117 125q0 56 -23 123h183q16 -43 16 -117q0 -93 -51 -163t-148 -95v-716q0 -598 -565 -598q-94 0 -174.5 18t-153 60.5t-123 108.5
t-80.5 167t-30 231v856zM330 1821h262l274 -283h-198z" />
    <glyph glyph-name="uni1EEB" unicode="&#x1eeb;" horiz-adv-x="1150" 
d="M801 150q-82 -175 -309 -175q-72 0 -132 20t-109.5 63t-77.5 119.5t-28 180.5v684h201v-641q0 -254 205 -254q135 0 192.5 81t57.5 270v544h84q137 22 137 129q0 56 -23 123h183q16 -43 16 -116q0 -92 -51 -161t-146 -95v-619q0 -54 1.5 -163.5t1.5 -139.5h-197
q-6 40 -6 150zM207 1522h248l256 -312h-187z" />
    <glyph glyph-name="uni1EEC" unicode="&#x1eec;" horiz-adv-x="1468" 
d="M170 1423h213v-856q0 -116 29.5 -200t81.5 -128t111 -63.5t130 -19.5q81 0 142.5 20.5t109.5 66.5t73 127.5t25 196.5v856h117q117 25 117 125q0 56 -23 123h183q16 -43 16 -117q0 -93 -51 -163t-148 -95v-716q0 -598 -565 -598q-94 0 -174.5 18t-153 60.5t-123 108.5
t-80.5 167t-30 231v856zM819 1538h-178q63 55 90 93t27 79q0 31 -21 51.5t-63 20.5q-55 0 -119 -33l-45 117q92 61 209 61q100 0 156.5 -52.5t56.5 -129.5q0 -46 -19.5 -88.5t-40.5 -66t-53 -52.5z" />
    <glyph glyph-name="uni1EED" unicode="&#x1eed;" horiz-adv-x="1150" 
d="M801 150q-82 -175 -309 -175q-72 0 -132 20t-109.5 63t-77.5 119.5t-28 180.5v684h201v-641q0 -254 205 -254q135 0 192.5 81t57.5 270v544h84q137 22 137 129q0 56 -23 123h183q16 -43 16 -116q0 -92 -51 -161t-146 -95v-619q0 -54 1.5 -163.5t1.5 -139.5h-197
q-6 40 -6 150zM664 1194h-179q63 55 90 93t27 79q0 31 -21 51.5t-63 20.5q-55 0 -119 -33l-45 117q92 61 209 61q100 0 156.5 -52.5t56.5 -129.5q0 -47 -19 -89t-40 -66t-53 -52z" />
    <glyph glyph-name="uni1EEE" unicode="&#x1eee;" horiz-adv-x="1468" 
d="M170 1423h213v-856q0 -116 29.5 -200t81.5 -128t111 -63.5t130 -19.5q81 0 142.5 20.5t109.5 66.5t73 127.5t25 196.5v856h117q117 25 117 125q0 56 -23 123h183q16 -43 16 -117q0 -93 -51 -163t-148 -95v-716q0 -598 -565 -598q-94 0 -174.5 18t-153 60.5t-123 108.5
t-80.5 167t-30 231v856zM522 1565h-141v51q0 109 45.5 156t132.5 47q55 0 121.5 -26.5t122 -52.5t84.5 -26q30 0 45.5 19t15.5 67v21h137v-43q0 -119 -45.5 -169t-134.5 -50q-50 0 -114 26.5t-121 53t-90 26.5q-58 0 -58 -66v-34z" />
    <glyph glyph-name="uni1EEF" unicode="&#x1eef;" horiz-adv-x="1150" 
d="M801 150q-82 -175 -309 -175q-72 0 -132 20t-109.5 63t-77.5 119.5t-28 180.5v684h201v-641q0 -254 205 -254q135 0 192.5 81t57.5 270v544h84q137 22 137 129q0 56 -23 123h183q16 -43 16 -116q0 -92 -51 -161t-146 -95v-619q0 -54 1.5 -163.5t1.5 -139.5h-197
q-6 40 -6 150zM389 1233h-139v51q0 203 172 203q50 0 106 -24.5t103 -49t76 -24.5t43 18t14 63v21h135v-45q0 -215 -176 -215q-51 0 -103.5 24.5t-98.5 49t-79 24.5q-53 0 -53 -63v-33z" />
    <glyph glyph-name="uni1EF0" unicode="&#x1ef0;" horiz-adv-x="1468" 
d="M170 1423h213v-856q0 -116 29.5 -200t81.5 -128t111 -63.5t130 -19.5q81 0 142.5 20.5t109.5 66.5t73 127.5t25 196.5v856h117q117 25 117 125q0 56 -23 123h183q16 -43 16 -117q0 -93 -51 -163t-148 -95v-716q0 -598 -565 -598q-94 0 -174.5 18t-153 60.5t-123 108.5
t-80.5 167t-30 231v856zM840 -383h-213v233h213v-233z" />
    <glyph glyph-name="uni1EF1" unicode="&#x1ef1;" horiz-adv-x="1150" 
d="M801 150q-82 -175 -309 -175q-72 0 -132 20t-109.5 63t-77.5 119.5t-28 180.5v684h201v-641q0 -254 205 -254q135 0 192.5 81t57.5 270v544h84q137 22 137 129q0 56 -23 123h183q16 -43 16 -116q0 -92 -51 -161t-146 -95v-619q0 -54 1.5 -163.5t1.5 -139.5h-197
q-6 40 -6 150zM682 -383h-213v233h213v-233z" />
    <glyph glyph-name="Ygrave" unicode="&#x1ef2;" horiz-adv-x="1220" 
d="M711 0h-213v518q0 21 -11 39l-499 866h241q354 -649 385 -710q52 108 394 710h225l-514 -868q-8 -16 -8 -37v-518zM207 1827h262l274 -283h-198z" />
    <glyph glyph-name="ygrave" unicode="&#x1ef3;" horiz-adv-x="999" 
d="M18 1042h218q231 -688 276 -862h2q53 202 264 862h203l-371 -1087q-78 -229 -159 -306t-246 -77q-53 0 -117 6v172q41 -6 84 -6q94 0 143 46.5t93 170.5zM119 1522h248l256 -312h-187z" />
    <glyph glyph-name="uni1EF4" unicode="&#x1ef4;" horiz-adv-x="1220" 
d="M711 0h-213v518q0 21 -11 39l-499 866h241q354 -649 385 -710q52 108 394 710h225l-514 -868q-8 -16 -8 -37v-518zM713 -383h-213v233h213v-233z" />
    <glyph glyph-name="uni1EF5" unicode="&#x1ef5;" horiz-adv-x="999" 
d="M18 1042h218q231 -688 276 -862h2q53 202 264 862h203l-371 -1087q-78 -229 -159 -306t-246 -77q-53 0 -117 6v172q41 -6 84 -6q94 0 143 46.5t93 170.5zM928 -383h-213v233h213v-233z" />
    <glyph glyph-name="uni1EF6" unicode="&#x1ef6;" horiz-adv-x="1220" 
d="M711 0h-213v518q0 21 -11 39l-499 866h241q354 -649 385 -710q52 108 394 710h225l-514 -868q-8 -16 -8 -37v-518zM698 1524h-178q63 55 90 93t27 79q0 31 -21 51t-63 20q-57 0 -119 -32l-45 116q94 62 209 62q100 0 156.5 -52.5t56.5 -129.5q0 -46 -19.5 -88.5
t-40.5 -66t-53 -52.5z" />
    <glyph glyph-name="uni1EF7" unicode="&#x1ef7;" horiz-adv-x="999" 
d="M18 1042h218q231 -688 276 -862h2q53 202 264 862h203l-371 -1087q-78 -229 -159 -306t-246 -77q-53 0 -117 6v172q41 -6 84 -6q94 0 143 46.5t93 170.5zM588 1194h-178q63 55 89.5 93t26.5 79q0 31 -21 51.5t-63 20.5q-54 0 -118 -33l-45 117q92 61 208 61
q100 0 156.5 -52.5t56.5 -129.5q0 -47 -19 -89t-40 -66t-53 -52z" />
    <glyph glyph-name="uni1EF8" unicode="&#x1ef8;" horiz-adv-x="1220" 
d="M711 0h-213v518q0 21 -11 39l-499 866h241q354 -649 385 -710q52 108 394 710h225l-514 -868q-8 -16 -8 -37v-518zM399 1565h-141v51q0 109 45.5 156t132.5 47q55 0 121.5 -26.5t122 -52.5t84.5 -26q30 0 45.5 19t15.5 67v21h138v-43q0 -119 -45.5 -169t-135.5 -50
q-50 0 -114 26.5t-121 53t-90 26.5q-58 0 -58 -66v-34z" />
    <glyph glyph-name="uni1EF9" unicode="&#x1ef9;" horiz-adv-x="999" 
d="M18 1042h218q231 -688 276 -862h2q53 202 264 862h203l-371 -1087q-78 -229 -159 -306t-246 -77q-53 0 -117 6v172q41 -6 84 -6q94 0 143 46.5t93 170.5zM313 1233h-139v51q0 203 172 203q50 0 106 -24.5t103 -49t76 -24.5t43 18t14 63v21h135v-45q0 -215 -176 -215
q-51 0 -103.5 24.5t-98 49t-78.5 24.5q-54 0 -54 -63v-33z" />
    <glyph glyph-name="uni2007" unicode="&#x2007;" horiz-adv-x="1128" 
 />
    <glyph glyph-name="uni2010" unicode="&#x2010;" horiz-adv-x="776" 
d="M117 614h542v-180h-542v180z" />
    <glyph glyph-name="figuredash" unicode="&#x2012;" horiz-adv-x="1128" 
d="M174 752h780v-174h-780v174z" />
    <glyph glyph-name="endash" unicode="&#x2013;" horiz-adv-x="1046" 
d="M117 612h813v-174h-813v174z" />
    <glyph glyph-name="emdash" unicode="&#x2014;" horiz-adv-x="1740" 
d="M117 612h1507v-174h-1507v174z" />
    <glyph glyph-name="uni2015" unicode="&#x2015;" horiz-adv-x="1740" 
d="M117 612h1507v-174h-1507v174z" />
    <glyph glyph-name="quoteleft" unicode="&#x2018;" horiz-adv-x="438" 
d="M213 1501h166q-39 -129 -65 -286.5t-29 -266.5h-209q9 132 48.5 291.5t88.5 261.5z" />
    <glyph glyph-name="quoteright" unicode="&#x2019;" horiz-adv-x="438" 
d="M225 948h-166q40 128 66 285t29 268h211q-9 -131 -49.5 -290t-90.5 -263z" />
    <glyph glyph-name="quotesinglbase" unicode="&#x201a;" horiz-adv-x="438" 
d="M225 -270h-166q40 128 66 285t29 268h211q-9 -131 -49.5 -290t-90.5 -263z" />
    <glyph glyph-name="quotedblleft" unicode="&#x201c;" 
d="M590 1487h153q-41 -133 -65 -283.5t-27 -269.5h-202q6 132 49.5 295t91.5 258zM217 1487h156q-40 -131 -65.5 -287t-28.5 -266h-203q7 125 50 289.5t91 263.5z" />
    <glyph glyph-name="quotedblright" unicode="&#x201d;" 
d="M231 948h-155q41 134 66 285.5t28 267.5h203q-7 -129 -51 -292t-91 -261zM604 948h-155q38 133 63.5 288.5t28.5 264.5h202q-7 -126 -49 -290.5t-90 -262.5z" />
    <glyph glyph-name="quotedblbase" unicode="&#x201e;" horiz-adv-x="774" 
d="M215 -270h-156q41 135 66.5 285.5t28.5 267.5h202q-7 -130 -51 -294t-90 -259zM588 -270h-158q40 131 65.5 287t28.5 266h203q-7 -124 -49.5 -288.5t-89.5 -264.5z" />
    <glyph glyph-name="dagger" unicode="&#x2020;" horiz-adv-x="1048" 
d="M391 1329h182l-12 -448l340 12v-170l-340 12l12 -1005h-182l15 1005l-345 -12v170l345 -12z" />
    <glyph glyph-name="daggerdbl" unicode="&#x2021;" horiz-adv-x="1048" 
d="M406 322v466l-345 -12v170l345 -12l-15 395h182l-12 -395l340 12v-170l-340 12v-466l340 10v-168l-340 14l12 -448h-182l15 448l-345 -14v168z" />
    <glyph glyph-name="bullet" unicode="&#x2022;" horiz-adv-x="784" 
d="M184 737h416v-428h-416v428z" />
    <glyph glyph-name="ellipsis" unicode="&#x2026;" horiz-adv-x="1755" 
d="M350 0h-213v313h213v-313zM942 0h-213v313h213v-313zM1530 0h-213v313h213v-313z" />
    <glyph glyph-name="perthousand" unicode="&#x2030;" horiz-adv-x="2613" 
d="M2189 745q160 0 253 -103t93 -282q0 -109 -39 -195t-119.5 -138.5t-191.5 -53.5q-161 0 -252.5 105t-91.5 280q0 164 92 275.5t256 111.5zM2187 604q-82 0 -130 -62.5t-48 -181.5q0 -113 47.5 -179t134.5 -66q85 0 133 64.5t48 180.5q0 117 -49 180.5t-136 63.5z
M424 1372q160 0 254 -102t94 -281q0 -172 -92 -280.5t-258 -108.5q-162 0 -253 103.5t-91 283.5q0 107 38.5 192.5t118 139t189.5 53.5zM424 1231q-83 0 -130.5 -62.5t-47.5 -179.5q0 -115 46 -180.5t134 -65.5q87 0 134.5 64t47.5 182q0 117 -48.5 179.5t-135.5 62.5z
M565 0h-166l869 1348h166zM1409 745q161 0 253.5 -102t92.5 -283q0 -111 -38.5 -197t-119 -137.5t-192.5 -52.5q-160 0 -251 105t-91 280q0 108 38 194t117.5 139.5t190.5 53.5zM1407 602q-80 0 -129 -64.5t-49 -177.5t47.5 -179t134.5 -66q86 0 133 64t47 181t-48.5 179.5
t-135.5 62.5z" />
    <glyph glyph-name="uni2032" unicode="&#x2032;" horiz-adv-x="485" 
d="M268 942h-166l80 559h201z" />
    <glyph glyph-name="uni2033" unicode="&#x2033;" horiz-adv-x="817" 
d="M250 942h-148l78 559h187zM596 942h-147l79 559h187z" />
    <glyph glyph-name="guilsinglleft" unicode="&#x2039;" horiz-adv-x="763" 
d="M647 930l-340 -398l342 -401h-188l-346 401l346 398h186z" />
    <glyph glyph-name="guilsinglright" unicode="&#x203a;" horiz-adv-x="763" 
d="M115 131l342 397l-342 402h186l348 -402l-348 -397h-186z" />
    <glyph glyph-name="fraction" unicode="&#x2044;" horiz-adv-x="380" 
d="M-168 0h-154l879 1348h152z" />
    <glyph glyph-name="zero.sups" unicode="&#x2070;" horiz-adv-x="804" 
d="M406 1702q160 0 244.5 -112.5t84.5 -301.5q0 -203 -87.5 -311.5t-246.5 -108.5t-245 113.5t-86 300.5q0 189 90 304.5t246 115.5zM403 1567q-167 0 -167 -285q0 -138 46 -209.5t124 -71.5q86 0 124.5 69t38.5 216q0 281 -166 281z" />
    <glyph glyph-name="four.sups" unicode="&#x2074;" horiz-adv-x="763" 
d="M606 877h-151v206h-404v123l363 480h192v-480h123l-12 -123h-111v-206zM207 1206h248v156q0 120 6 194q-15 -24 -60 -86t-105.5 -143.5t-88.5 -120.5z" />
    <glyph glyph-name="five.sups" unicode="&#x2075;" horiz-adv-x="786" 
d="M682 1690l-23 -134h-380q-7 -72 -31 -188q69 55 188 55q125 0 202 -71.5t77 -192.5q0 -127 -87 -209t-233 -82q-75 0 -136 21t-98.5 56.5t-59 76t-27.5 84.5h159q34 -111 162 -111q75 0 114.5 42.5t39.5 113.5q0 68 -38 108.5t-118 40.5q-109 0 -157 -77l-144 22
q4 28 21.5 131t29.5 182.5t17 131.5h522z" />
    <glyph glyph-name="six.sups" unicode="&#x2076;" horiz-adv-x="784" 
d="M696 1487h-149q-33 92 -139 92q-91 0 -133.5 -68.5t-47.5 -179.5q72 94 219 94q126 0 200.5 -74t74.5 -194q0 -125 -88 -207t-225 -82q-155 0 -246.5 104.5t-91.5 303.5q0 82 19 155t58 134.5t107.5 98t157.5 36.5q127 0 199.5 -63.5t84.5 -149.5zM403 991
q67 0 112.5 38.5t45.5 121.5q-2 76 -43 118t-117 42q-74 0 -118.5 -40.5t-44.5 -101.5q0 -42 15 -80.5t54 -68t96 -29.5z" />
    <glyph glyph-name="seven.sups" unicode="&#x2077;" horiz-adv-x="712" 
d="M61 1690h594v-119q-220 -269 -321 -692h-174q32 173 125 363t198 314h-422v134z" />
    <glyph glyph-name="eight.sups" unicode="&#x2078;" horiz-adv-x="759" 
d="M377 868q-152 0 -235 70t-83 172q0 72 39 122t101 75q-105 59 -105 170q0 98 72.5 161.5t220.5 63.5q136 0 206.5 -65.5t70.5 -153.5q0 -120 -109 -168q145 -56 145 -199q0 -112 -90.5 -180t-232.5 -68zM379 981q80 0 120 36.5t40 94.5q0 67 -41 102t-119 35
q-158 0 -158 -133q0 -58 42 -96.5t116 -38.5zM381 1587q-65 0 -99 -28.5t-34 -79.5q0 -115 137 -115q58 0 90.5 29.5t32.5 85.5q0 50 -31.5 79t-95.5 29z" />
    <glyph glyph-name="nine.sups" unicode="&#x2079;" horiz-adv-x="770" 
d="M74 1081h159q32 -94 138 -94q162 0 172 262q-70 -80 -209 -80q-123 0 -199 69t-76 185q0 119 85 199t229 80q154 0 240.5 -101.5t86.5 -295.5q0 -69 -10.5 -131.5t-35 -119.5t-62 -98t-94 -65.5t-127.5 -24.5q-135 0 -209 64.5t-88 150.5zM371 1577q-67 0 -110.5 -35.5
t-43.5 -111.5q0 -67 41.5 -106.5t118.5 -39.5q72 0 113.5 31.5t41.5 95.5q0 76 -41.5 121t-119.5 45z" />
    <glyph glyph-name="parenleft.sups" unicode="&#x207d;" horiz-adv-x="456" 
d="M240 1792h151q-79 -112 -125.5 -235t-46.5 -285q0 -158 46.5 -281t125.5 -235h-151q-64 79 -114 214.5t-50 301.5q0 303 164 520z" />
    <glyph glyph-name="parenright.sups" unicode="&#x207e;" horiz-adv-x="456" 
d="M217 786h-149q78 112 125 235.5t47 285.5q0 157 -47 279.5t-125 234.5h149q64 -75 114 -212t50 -302q0 -170 -47.5 -301t-116.5 -220z" />
    <glyph glyph-name="n.sups" unicode="&#x207f;" horiz-adv-x="792" 
d="M92 537v462q0 185 -2 220h148q0 -3 6 -103q65 117 217 117q34 0 65.5 -7t64 -25t56 -47t38.5 -77t15 -110v-430h-153v399q0 166 -135 166q-166 0 -166 -199v-366h-154z" />
    <glyph glyph-name="zero.subs" unicode="&#x2080;" horiz-adv-x="804" 
d="M406 471q160 0 244.5 -112.5t84.5 -301.5q0 -203 -87.5 -311t-246.5 -108t-245 113t-86 300q0 189 90 304.5t246 115.5zM403 336q-167 0 -167 -285q0 -138 46 -209t124 -71q86 0 124.5 68.5t38.5 215.5q0 281 -166 281z" />
    <glyph glyph-name="one.subs" unicode="&#x2081;" horiz-adv-x="516" 
d="M377 -354h-164v626q-29 -14 -82.5 -25t-83.5 -11v122q126 20 219 113h111v-825z" />
    <glyph glyph-name="two.subs" unicode="&#x2082;" horiz-adv-x="747" 
d="M680 -352h-604v10q0 112 62.5 206t199.5 179q104 63 135 94t31 80q0 56 -33.5 89.5t-97.5 33.5q-126 0 -150 -141l-153 2q11 122 94 196t215 74q78 0 137 -24t91 -62.5t47.5 -79.5t15.5 -82q0 -49 -12 -85.5t-42 -68t-65 -55.5t-96 -59q-161 -96 -191 -178h441z" />
    <glyph glyph-name="three.subs" unicode="&#x2083;" horiz-adv-x="768" 
d="M303 8v135h66q133 0 133 95q0 46 -32.5 77t-100.5 31q-70 0 -102 -32t-46 -81h-147q3 26 12 54t31 61.5t53.5 59.5t85 43.5t119.5 17.5q139 0 213 -63t74 -160q0 -63 -35.5 -104.5t-81.5 -57.5q61 -17 106 -67.5t45 -127.5q0 -48 -17 -90.5t-52.5 -79.5t-99 -59
t-148.5 -22q-73 0 -130.5 18.5t-91.5 45t-57 62.5t-31.5 64.5t-11.5 56.5h154q11 -53 56 -89t114 -36q72 0 110.5 35t38.5 92q0 121 -151 121h-76z" />
    <glyph glyph-name="four.subs" unicode="&#x2084;" horiz-adv-x="763" 
d="M606 -354h-151v207h-404v122l363 480h192v-480h123l-12 -122h-111v-207zM207 -25h248v156q0 121 6 195q-15 -24 -60 -86t-106 -144.5t-88 -120.5z" />
    <glyph glyph-name="five.subs" unicode="&#x2085;" horiz-adv-x="786" 
d="M682 459l-23 -133h-380q-8 -74 -31 -189q70 56 188 56q125 0 202 -72t77 -193q0 -127 -87 -208.5t-233 -81.5q-75 0 -136 21t-98.5 56t-59.5 75.5t-27 84.5h159q34 -111 162 -111q75 0 114.5 42.5t39.5 113.5q0 69 -38.5 109.5t-117.5 40.5q-108 0 -157 -78l-144 22
q4 28 21.5 131t29.5 182.5t17 131.5h522z" />
    <glyph glyph-name="six.subs" unicode="&#x2086;" horiz-adv-x="784" 
d="M696 256h-149q-33 92 -139 92q-91 0 -133.5 -68.5t-47.5 -179.5q73 95 219 95q126 0 200.5 -74.5t74.5 -194.5q0 -125 -88 -206.5t-225 -81.5q-155 0 -246.5 104t-91.5 303q0 82 19 155t58 134.5t107.5 98t157.5 36.5q127 0 199.5 -63.5t84.5 -149.5zM403 -240
q67 0 112.5 38.5t45.5 121.5q-2 76 -43 118t-117 42q-74 0 -118.5 -40t-44.5 -101q0 -42 15 -80.5t54 -68.5t96 -30z" />
    <glyph glyph-name="seven.subs" unicode="&#x2087;" horiz-adv-x="712" 
d="M61 459h594v-119q-220 -269 -321 -692h-174q32 173 125 363.5t198 314.5h-422v133z" />
    <glyph glyph-name="eight.subs" unicode="&#x2088;" horiz-adv-x="759" 
d="M377 -362q-152 0 -235 69.5t-83 171.5q0 72 39 122t101 75q-105 59 -105 170q0 98 72.5 161.5t220.5 63.5q136 0 206.5 -65.5t70.5 -153.5q0 -120 -109 -168q145 -56 145 -199q0 -111 -90.5 -179t-232.5 -68zM379 -250q80 0 120 36.5t40 94.5q0 67 -41 102t-119 35
q-158 0 -158 -133q0 -58 42 -96.5t116 -38.5zM381 356q-65 0 -99 -28.5t-34 -79.5q0 -115 137 -115q58 0 90.5 29.5t32.5 85.5q0 50 -31.5 79t-95.5 29z" />
    <glyph glyph-name="nine.subs" unicode="&#x2089;" horiz-adv-x="770" 
d="M74 -150h159q32 -94 138 -94q162 0 172 262q-69 -79 -209 -79q-123 0 -199 69t-76 185q0 119 85 198.5t229 79.5q154 0 240.5 -101.5t86.5 -295.5q0 -69 -10.5 -131.5t-35 -119.5t-62 -98t-94 -65.5t-127.5 -24.5q-135 0 -209 64.5t-88 150.5zM371 346
q-67 0 -110.5 -35.5t-43.5 -111.5q0 -67 41.5 -106.5t118.5 -39.5q72 0 113.5 31.5t41.5 95.5q0 76 -41.5 121t-119.5 45z" />
    <glyph glyph-name="parenleft.subs" unicode="&#x208d;" horiz-adv-x="456" 
d="M240 561h151q-79 -112 -125.5 -235t-46.5 -285q0 -158 46.5 -281t125.5 -235h-151q-64 79 -114 214.5t-50 301.5q0 303 164 520z" />
    <glyph glyph-name="parenright.subs" unicode="&#x208e;" horiz-adv-x="456" 
d="M217 -444h-149q79 112 125.5 235t46.5 285q0 157 -47 279.5t-125 234.5h149q64 -75 114 -212t50 -302q0 -309 -164 -520z" />
    <glyph glyph-name="colonmonetary" unicode="&#x20a1;" horiz-adv-x="1091" 
d="M571 154q25 0 35 2v1040h-24q-22 0 -58 -4v-1034q28 -4 47 -4zM285 670q0 -350 131 -461v934q-131 -111 -131 -473zM524 -197h-108v205q-162 57 -249 228.5t-87 429.5q0 268 87 439t249 230v160h108v-135q46 4 70 4h12v131h107v-143q95 -21 163.5 -78t101.5 -124t42 -142
h-201q-26 114 -106 159v-983q70 41 110 148h201q-31 -129 -108 -216t-203 -118v-193h-107v177h-31q-35 0 -51 2v-181z" />
    <glyph glyph-name="franc" unicode="&#x20a3;" horiz-adv-x="1038" 
d="M201 0v274h-174v148h174v926h766v-174h-561v-379h520v-172h-520v-201h258v-148h-258v-274h-205z" />
    <glyph glyph-name="lira" unicode="&#x20a4;" horiz-adv-x="1064" 
d="M1001 0h-929v162q80 36 113 112.5t38 202.5h-180v125h182q-1 29 -3 75.5t-3 57.5h-176v127h172v51q0 220 97.5 338.5t295.5 118.5q79 0 144 -22t106 -56t70 -79t42.5 -88t16.5 -87h-192q-11 75 -57.5 119.5t-133.5 44.5q-103 0 -145.5 -67.5t-42.5 -202.5v-70h303v-127
h-299q0 -18 1 -61.5t1 -71.5h297v-125h-299q-10 -207 -96 -301h704z" />
    <glyph glyph-name="uni20A6" unicode="&#x20a6;" horiz-adv-x="1124" 
d="M293 1184q9 -125 12 -285h94l-96 285h-10zM788 197h15q-12 138 -15 303h-104zM305 0h-162v500h-102v125h102v145h-102v129h102v449h252l154 -449h235v449h158v-449h105v-129h-105v-145h105v-125h-105v-500h-235l-170 500h-232v-500zM784 625v145h-192l51 -145h141z
M494 625l-50 145h-139v-145h189z" />
    <glyph glyph-name="peseta" unicode="&#x20a7;" horiz-adv-x="1081" 
d="M135 0v848h-129v133h129v367h352q197 0 325 -94.5t149 -272.5h100v-133h-100q-22 -178 -151 -275.5t-337 -97.5h-147v-475h-191zM326 1194v-213h438q-35 213 -285 213h-153zM326 631h143q263 0 295 217h-438v-217z" />
    <glyph glyph-name="dong" unicode="&#x20ab;" horiz-adv-x="1110" 
d="M106 -154h852v-143h-852v143zM754 1364h190v-139h129v-144h-129v-790q0 -215 2 -291h-182q-10 68 -10 133q-42 -70 -110.5 -110.5t-186.5 -40.5q-169 0 -283.5 128t-114.5 345q0 113 34.5 205.5t93.5 152.5t135.5 92.5t162.5 32.5q192 0 269 -111v254h-461v144h461v139z
M258 459q0 -150 68.5 -234t185.5 -84q51 0 93.5 16.5t79 53.5t57 104.5t20.5 161.5q0 157 -66 230t-178 73q-126 0 -193 -86t-67 -235z" />
    <glyph glyph-name="Euro" unicode="&#x20ac;" horiz-adv-x="1120" 
d="M862 324h197q-39 -165 -147 -256t-271 -91q-199 0 -315 135.5t-146 383.5h-125v131h115v45q0 53 2 78h-117v131h131q37 235 159 362t306 127q96 0 173.5 -31t125 -82.5t75 -110t34.5 -120.5h-197q-24 83 -79 130.5t-140 47.5q-214 0 -260 -323h369v-131h-379
q-2 -23 -2 -70v-53h381v-131h-371q43 -349 264 -349q154 0 217 177z" />
    <glyph glyph-name="uni20B1" unicode="&#x20b1;" horiz-adv-x="1187" 
d="M184 0v739h-121v115h121v100h-121v115h121v279h367q168 0 288 -71t165 -208h112v-115h-90q2 -16 2 -51q0 -33 -2 -49h90v-115h-112q-49 -140 -175.5 -215t-302.5 -75h-151v-449h-191zM375 1200v-131h432q-70 131 -258 131h-174zM842 901q0 37 -2 53h-465v-100h465
q2 14 2 47zM375 600h151q214 0 283 139h-434v-139z" />
    <glyph glyph-name="uni20B2" unicode="&#x20b2;" horiz-adv-x="1138" 
d="M1042 1014h-196q-42 168 -191 188v-1057q115 4 172 37v490h205v-602q-67 -29 -112.5 -45.5t-117 -31t-147.5 -16.5v-174h-120v181q-216 31 -325.5 207.5t-109.5 492.5q0 297 114 474.5t321 205.5v133h120v-131q171 -12 272 -107t115 -245zM305 700q0 -230 53 -366
t177 -174v1038q-230 -54 -230 -498z" />
    <glyph glyph-name="uni20B4" unicode="&#x20b4;" horiz-adv-x="1093" 
d="M334 1036h-195q17 154 127 245t279 91q101 0 179.5 -29t124 -78t68.5 -107.5t23 -123.5q0 -97 -43 -168h100v-118h-213q-70 -55 -186 -119l-14 -8h393v-117h-574q-53 -43 -72.5 -83t-19.5 -89q0 -85 63.5 -141t162.5 -56q214 0 254 197h192q-25 -174 -142 -265.5
t-317 -91.5q-176 0 -293.5 97t-117.5 250q0 105 53 182h-86v117h201q67 51 196 127h-377v118h562q81 70 81 164q0 74 -50.5 130.5t-147.5 56.5q-93 0 -145.5 -49.5t-65.5 -131.5z" />
    <glyph glyph-name="uni20B5" unicode="&#x20b5;" horiz-adv-x="1128" 
d="M285 670q0 -452 219 -514v1038q-115 -30 -167 -157t-52 -367zM627 -197h-123v183q-205 28 -314.5 204.5t-109.5 475.5q0 311 108.5 486t315.5 206v139h123v-133q76 -4 139.5 -27.5t106.5 -59t75 -82.5t49 -96t23 -102h-201q-21 86 -65.5 139t-126.5 64v-1050
q75 9 120.5 54.5t75.5 147.5h201q-69 -342 -397 -368v-181z" />
    <glyph glyph-name="uni20B9" unicode="&#x20b9;" horiz-adv-x="1075" 
d="M100 547v151h191q49 0 93 7t87 25t74 46.5t50 74.5t19 105v2h-514v129h484q-67 123 -277 123h-207v138h908v-131h-291q54 -54 78 -130h213v-129h-193v-4q0 -147 -81 -240t-218 -134l434 -580h-229l-412 547h-30h-179z" />
    <glyph glyph-name="uni20BA" unicode="&#x20ba;" horiz-adv-x="1142" 
d="M453 0h-209v522l-174 -76v136l174 73v150l-174 -76v133l174 76v410h202v-324l254 111v-134l-254 -110v-148l254 109v-133l-254 -111v-442q193 0 287 89.5t115 276.5h180q-5 -82 -24 -154.5t-61.5 -143.5t-105.5 -121.5t-161.5 -81.5t-222.5 -31z" />
    <glyph glyph-name="uni20BD" unicode="&#x20bd;" horiz-adv-x="1179" 
d="M205 0v297h-150v141h150v158h-150v162h150v590h416q217 0 339.5 -98.5t122.5 -270.5q0 -383 -462 -383h-207v-158h360v-141h-360v-297h-209zM414 1184v-426h202q134 0 194 53t60 162q0 101 -64.5 156t-191.5 55h-200z" />
    <glyph glyph-name="uni2113" unicode="&#x2113;" horiz-adv-x="874" 
d="M649 338h193q-18 -176 -105.5 -266t-255.5 -90q-313 0 -313 346v82q-16 -13 -34.5 -25t-43 -26t-35.5 -21l-47 141q66 38 158 99v501q0 117 26 203t71.5 135.5t101 72.5t122.5 23q140 0 217.5 -88.5t77.5 -246.5q0 -197 -96.5 -354t-312.5 -318v-133q0 -118 30 -173
t95 -55q66 0 100 41t51 152zM373 1120v-411q223 202 223 465q0 93 -27 136.5t-84 43.5q-56 0 -84 -53.5t-28 -180.5z" />
    <glyph glyph-name="uni2116" unicode="&#x2116;" horiz-adv-x="2148" 
d="M360 0h-186v1384h268q522 -961 594 -1153h2q-12 158 -12 658v495h184v-1384h-249q-135 256 -242.5 462.5t-172 333.5t-103 203t-66 132t-29.5 61h-2q14 -182 14 -678v-514zM1522 891q0 -123 49.5 -190.5t136.5 -67.5q89 0 136.5 65t47.5 193q0 127 -49 191.5t-139 64.5
q-82 0 -132 -66.5t-50 -189.5zM1405 362h602v-145h-602v145zM1704 1290q168 0 264 -108.5t96 -290.5q0 -184 -97 -295t-265 -111q-158 0 -255 111t-97 295q0 178 98 288.5t256 110.5z" />
    <glyph glyph-name="uni2117" unicode="&#x2117;" horiz-adv-x="1615" 
d="M537 328v780h323q114 0 197.5 -66.5t83.5 -185.5q0 -127 -78 -193.5t-209 -66.5h-174v-268h-143zM682 987v-276h158q81 0 115 36t34 105q0 135 -151 135h-156zM801 1442q198 0 357.5 -93t250 -260t90.5 -376t-90.5 -377t-250 -262t-357.5 -94q-152 0 -282.5 53.5
t-223.5 148.5t-146 232t-53 299q0 206 92 373t253.5 261.5t359.5 94.5zM799 1331q-123 0 -229.5 -43t-184.5 -121.5t-123 -197t-45 -262.5q0 -175 75 -315.5t208 -220t299 -79.5q123 0 229.5 43.5t184 122.5t121.5 196t44 259q0 270 -163.5 444t-415.5 174z" />
    <glyph glyph-name="uni2120" unicode="&#x2120;" horiz-adv-x="974" 
d="M1006 936h-105v147q0 80 8 260h-4q-17 -59 -39.5 -126.5t-51.5 -150.5t-44 -128h-96q-85 264 -123 405h-4q6 -135 6 -274v-133h-102v487h172q88 -268 106 -329h2q65 194 115 329h160v-487zM-29 1092h109q4 -41 34 -64.5t70 -23.5q90 0 90 61q0 29 -26.5 45.5t-87.5 30.5
q-95 23 -131.5 59.5t-36.5 91.5q0 65 47.5 104.5t136.5 39.5q97 0 144.5 -45.5t50.5 -110.5h-105q-10 78 -96 78q-72 0 -72 -58q0 -21 17.5 -36t70.5 -27q109 -27 154 -62t45 -98q0 -153 -205 -153q-92 0 -147.5 46.5t-61.5 121.5z" />
    <glyph glyph-name="trademark" unicode="&#x2122;" horiz-adv-x="993" 
d="M1034 936h-106v147q0 147 10 260h-4l-137 -405h-95l-124 405h-5q6 -71 9 -274v-133h-105v487h172l109 -329l114 329h162v-487zM-20 1423h438v-98h-162v-389h-113v389h-163v98z" />
    <glyph glyph-name="uni2126" unicode="&#x2126;" horiz-adv-x="1533" 
d="M768 1444q156 0 283 -55t207.5 -147t123.5 -208t43 -243q0 -408 -338 -613h369v-178h-575v221q329 156 329 561q0 96 -28.5 182t-82 154.5t-140.5 109t-195 40.5q-206 0 -324 -135t-118 -351q0 -202 91 -344.5t240 -216.5v-221h-575v178h358q-330 207 -330 606
q0 135 47 255t131 210t209.5 142.5t274.5 52.5z" />
    <glyph glyph-name="estimated" unicode="&#x212e;" horiz-adv-x="1716" 
d="M1632 625h-1243q-8 0 -8 -9v-233q0 -19 16 -43q74 -106 193.5 -165.5t261.5 -59.5q152 0 259 52t194 171h225q-234 -361 -682 -361q-169 0 -313.5 56t-242 151t-152 222t-54.5 268q0 140 60.5 268.5t163 222t246 149.5t302.5 56q165 0 310.5 -57.5t246.5 -154t159 -225.5
t58 -269v-39zM1335 772v201q0 15 -18 47q-74 107 -193.5 164t-261.5 57q-143 0 -261.5 -56.5t-201.5 -166.5q-18 -27 -18 -47v-199q0 -10 8 -10h938q8 0 8 10z" />
    <glyph glyph-name="onethird" unicode="&#x2153;" horiz-adv-x="1708" 
d="M395 2h-153l878 1348h152zM397 535h-164v626q-29 -14 -82 -25.5t-83 -11.5v123q126 20 219 113h110v-825zM1231 358v136h65q134 0 134 94q0 46 -32.5 77t-101.5 31q-70 0 -101.5 -31.5t-45.5 -80.5h-148q3 26 12 54t31 61.5t54 59t85.5 43t119.5 17.5q139 0 212.5 -63
t73.5 -160q0 -63 -35 -104.5t-81 -57.5q62 -17 106.5 -67t44.5 -127q0 -48 -17 -91t-52.5 -80t-99 -59t-148.5 -22q-73 0 -130.5 18.5t-91.5 45.5t-57 62.5t-31.5 64.5t-11.5 57h154q11 -53 56 -89t114 -36q72 0 110.5 35t38.5 92q0 120 -151 120h-76z" />
    <glyph glyph-name="twothirds" unicode="&#x2154;" horiz-adv-x="1906" 
d="M625 2h-154l879 1348h151zM690 537h-604v10q0 112 62.5 206t199.5 179q104 63 135 94t31 80q0 56 -33.5 89.5t-97.5 33.5q-61 0 -99.5 -36t-50.5 -106l-153 3q11 122 94 196t215 74q78 0 137 -24t91 -62.5t47.5 -79.5t15.5 -82q0 -49 -12 -85.5t-42 -68t-65 -55.5
t-96 -59q-161 -96 -191 -178h441zM1442 358v136h65q133 0 133 94q0 46 -32.5 77t-100.5 31q-70 0 -101.5 -31.5t-45.5 -80.5h-148q3 26 12 54t31 61.5t53.5 59t85 43t119.5 17.5q139 0 213 -63t74 -160q0 -63 -35.5 -104.5t-81.5 -57.5q62 -17 107 -67t45 -127
q0 -48 -17 -91t-52.5 -80t-99 -59t-148.5 -22q-73 0 -130.5 18.5t-91.5 45.5t-57 62.5t-31.5 64.5t-11.5 57h154q11 -53 56 -89t114 -36q72 0 110.5 35t38.5 92q0 120 -151 120h-76z" />
    <glyph glyph-name="oneeighth" unicode="&#x215b;" horiz-adv-x="1626" 
d="M352 2h-153l878 1348h152zM393 535h-164v626q-29 -14 -82.5 -25.5t-83.5 -11.5v123q127 20 220 113h110v-825zM1225 -43q-152 0 -235 70t-83 172q0 72 39 121.5t101 74.5q-105 59 -105 170q0 99 72.5 162.5t220.5 63.5q70 0 125 -19.5t87 -52t48 -70t16 -78.5
q0 -120 -108 -168q145 -56 145 -198q0 -112 -90.5 -180t-232.5 -68zM1227 70q80 0 119.5 36.5t39.5 94.5q0 137 -159 137q-158 0 -158 -133q0 -58 42 -96.5t116 -38.5zM1229 676q-65 0 -99 -29t-34 -80q0 -114 137 -114q58 0 90.5 29t32.5 85q0 50 -32 79.5t-95 29.5z" />
    <glyph glyph-name="threeeighths" unicode="&#x215c;" horiz-adv-x="1857" 
d="M573 2h-153l878 1348h152zM1456 -10q-152 0 -234.5 69.5t-82.5 171.5q0 72 38.5 122t100.5 75q-50 28 -77 72t-27 98q0 99 72 162t220 63q136 0 206.5 -65.5t70.5 -153.5q0 -120 -109 -168q68 -26 107 -76t39 -122q0 -111 -91 -179.5t-233 -68.5zM1458 102q80 0 120 36.5
t40 94.5q0 67 -41 102.5t-119 35.5q-158 0 -158 -133q0 -58 42 -97t116 -39zM1460 709q-65 0 -99 -29t-34 -80q0 -115 137 -115q58 0 90.5 29.5t32.5 85.5q0 50 -32 79.5t-95 29.5zM324 897v135h65q133 0 133 94q0 46 -32.5 77.5t-100.5 31.5q-70 0 -101.5 -31.5
t-45.5 -81.5h-148q3 26 12 54t31 61.5t53.5 59.5t85 43.5t119.5 17.5q139 0 213 -63t74 -160q0 -63 -35.5 -104.5t-81.5 -57.5q62 -17 107 -67.5t45 -127.5q0 -48 -17 -91t-53 -80t-99.5 -59t-148.5 -22q-73 0 -130.5 18.5t-91 45.5t-56.5 62.5t-31.5 64.5t-11.5 57h153
q11 -53 56 -89t114 -36q72 0 111 35t39 92q0 121 -152 121h-75z" />
    <glyph glyph-name="fiveeighths" unicode="&#x215d;" horiz-adv-x="1884" 
d="M594 2h-154l879 1348h151zM711 1348l-23 -134h-381q-7 -72 -31 -188q69 55 189 55q125 0 201.5 -71.5t76.5 -192.5q0 -127 -86.5 -209t-232.5 -82q-75 0 -136 21.5t-99 56.5t-60 75.5t-27 84.5h160q34 -111 162 -111q75 0 114.5 42.5t39.5 113.5q0 68 -38 108.5
t-118 40.5q-110 0 -158 -77l-143 22q62 396 67 445h523zM1477 -10q-152 0 -235 69.5t-83 171.5q0 72 38.5 122t100.5 75q-50 28 -77 72t-27 98q0 98 72.5 161.5t220.5 63.5q136 0 206 -65.5t70 -153.5q0 -120 -108 -168q145 -56 145 -198q0 -112 -90.5 -180t-232.5 -68z
M1479 102q80 0 119.5 36.5t39.5 94.5q0 68 -40.5 103t-118.5 35q-158 0 -158 -133q0 -58 42 -97t116 -39zM1481 709q-65 0 -99 -29t-34 -80q0 -115 137 -115q58 0 90.5 29.5t32.5 85.5q0 50 -32 79.5t-95 29.5z" />
    <glyph glyph-name="seveneighths" unicode="&#x215e;" horiz-adv-x="1695" 
d="M393 2h-153l878 1348h152zM1298 -43q-152 0 -234.5 70t-82.5 172q0 72 38.5 121.5t100.5 74.5q-50 28 -77 72t-27 98q0 99 72.5 162.5t220.5 63.5q70 0 125 -19.5t87 -52t48 -70t16 -78.5q0 -120 -108 -168q145 -56 145 -198q0 -111 -91 -179.5t-233 -68.5zM1300 70
q80 0 120 36.5t40 94.5q0 67 -41 102t-119 35q-157 0 -157 -133q0 -58 41.5 -96.5t115.5 -38.5zM1303 676q-65 0 -99.5 -29t-34.5 -80q0 -114 138 -114q58 0 90.5 29t32.5 85q0 50 -32 79.5t-95 29.5zM92 1348h594v-119q-220 -269 -321 -692h-175q32 173 125.5 362.5
t198.5 314.5h-422v134z" />
    <glyph glyph-name="uni2190" unicode="&#x2190;" horiz-adv-x="1794" 
d="M1698 649h-1303q139 -121 680 -626l-108 -113l-873 819v4l873 830l108 -119q-90 -83 -339 -314.5t-341 -316.5h1303v-164z" />
    <glyph glyph-name="arrowup" unicode="&#x2191;" horiz-adv-x="1759" 
d="M788 -90v1378q-376 -430 -581 -655l-113 115l778 851h5l788 -851l-117 -115q-97 107 -307.5 343t-279.5 312v-1378h-173z" />
    <glyph glyph-name="uni2192" unicode="&#x2192;" horiz-adv-x="1794" 
d="M96 823h1303q-122 106 -680 627l108 113l873 -820v-4l-873 -829l-108 119q86 79 336 311t344 319h-1303v164z" />
    <glyph glyph-name="arrowdown" unicode="&#x2193;" horiz-adv-x="1759" 
d="M971 1538v-1378q376 430 581 655l113 -115l-778 -852h-4l-789 852l117 115q98 -107 309 -343.5t279 -311.5v1378h172z" />
    <glyph glyph-name="partialdiff" unicode="&#x2202;" horiz-adv-x="1114" 
d="M195 1264v166q66 14 147 14q145 -1 266.5 -49.5t215 -143.5t146 -248t52.5 -350q0 -109 -14 -202t-49 -181t-90 -149.5t-142.5 -98.5t-200.5 -38q-138 -1 -241.5 61.5t-154 161t-50.5 215.5q0 130 59.5 231.5t159.5 156t221 54.5t194.5 -39t110.5 -88v19
q-3 106 -37.5 199t-96.5 164t-156.5 112t-210.5 41q-72 0 -129 -8zM545 139q59 0 106 21t76 54.5t48 78.5t26.5 88t7.5 88q0 93 -72.5 166.5t-193.5 73.5q-116 0 -188 -75t-72 -210q0 -134 76 -209.5t186 -75.5z" />
    <glyph glyph-name="uni2206" unicode="&#x2206;" horiz-adv-x="1331" 
d="M1284 0h-1237v133l490 1290h258l489 -1292v-131zM266 180h783l-207 551q-143 373 -185 526h-6q-16 -78 -180 -526z" />
    <glyph glyph-name="product" unicode="&#x220f;" horiz-adv-x="1441" 
d="M174 1423h1096v-1628h-211v1448h-676v-1448h-209v1628z" />
    <glyph glyph-name="summation" unicode="&#x2211;" horiz-adv-x="1089" 
d="M1061 -205h-1032v133l506 686l-478 674v135h969v-180h-696l438 -606l-481 -662h800z" />
    <glyph glyph-name="minus" unicode="&#x2212;" horiz-adv-x="1460" 
d="M1292 487h-1124v177h1124v-177z" />
    <glyph glyph-name="uni2215" unicode="&#x2215;" horiz-adv-x="380" 
d="M-168 0h-154l879 1348h152z" />
    <glyph glyph-name="uni2219" unicode="&#x2219;" horiz-adv-x="434" 
d="M324 410h-213v313h213v-313z" />
    <glyph glyph-name="radical" unicode="&#x221a;" horiz-adv-x="1273" 
d="M1245 1745l-471 -2151h-153l-318 873l-192 -90l-50 135l363 174q235 -673 260 -811q13 161 395 1870h166z" />
    <glyph glyph-name="infinity" unicode="&#x221e;" horiz-adv-x="1658" 
d="M422 236q-139 0 -233.5 101t-94.5 255q0 147 96.5 251.5t247.5 104.5q52 0 100 -14t83 -32.5t77 -54.5t66.5 -62t66.5 -72q44 47 71.5 75t70 62.5t79 53t86 31.5t103.5 13q140 0 232 -100.5t92 -255.5q0 -145 -97 -250.5t-247 -105.5q-58 0 -112 18t-104 54.5t-87.5 72.5
t-86.5 90q-45 -48 -69 -72t-69 -61t-80.5 -55t-86 -32.5t-104.5 -14.5zM438 393q85 0 152 49.5t147 143.5q-10 11 -46 52t-55 59.5t-52.5 46t-68 39.5t-71.5 12q-88 0 -141 -59t-53 -144q0 -88 52 -143.5t136 -55.5zM1214 393q91 0 143 57t52 142q0 89 -50 147t-138 58
q-45 0 -83 -13t-77.5 -44.5t-67 -59.5t-75.5 -82q5 -5 26 -29t27 -30.5t26 -27.5t28.5 -28t27 -23.5t30 -23t29.5 -17t33 -15t33 -8t36 -3.5z" />
    </font>
</defs>
</svg>
